osu file format v14

[General]
AudioFilename: audio.mp3
AudioLeadIn: 0
PreviewTime: 88502
Countdown: 0
SampleSet: Soft
StackLeniency: 0.7
Mode: 0
LetterboxInBreaks: 0
WidescreenStoryboard: 1

[Editor]
Bookmarks: 8157,29709,31778,59881,74881
DistanceSpacing: 0.7
BeatDivisor: 4
GridSize: 4
TimelineZoom: 2.1

[Metadata]
Title:Come Back Down
TitleUnicode:Come Back Down
Artist:Mediks
ArtistUnicode:Mediks
Creator:[Kamiya]
Version:emilia's Extra
Source:
Tags:Oiso papapa213 Emilia remix
BeatmapID:1388929
BeatmapSetID:639013

[Difficulty]
HPDrainRate:7.5
CircleSize:4
OverallDifficulty:8.5
ApproachRate:9.6
SliderMultiplier:1.8
SliderTickRate:1

[Events]
//Background and Video events
0,0,"bg.jpg",0,0
//Break Periods
2,43012,43683
//Storyboard Layer 0 (Background)
//Storyboard Layer 1 (Fail)
//Storyboard Layer 2 (Pass)
//Storyboard Layer 3 (Foreground)
//Storyboard Sound Samples

[TimingPoints]
-635,344.827586206897,4,2,0,50,1,0
399,-142.857142857143,4,2,0,50,0,0
11778,-125,4,2,0,50,0,0
22812,-125,4,2,9,60,0,0
22813,-111.111111111111,4,2,9,60,0,0
33847,-100,4,2,8,60,0,0
42122,-100,4,2,8,70,0,0
42123,-1000,4,2,8,70,0,0
44191,-100,4,2,8,70,0,0
44192,-100,4,2,31,70,0,0
44365,-100,4,2,30,70,0,0
44536,-25,4,2,30,70,0,0
44537,-25,4,2,8,70,0,0
44709,-100,4,2,8,70,0,0
44881,-50,4,2,8,70,0,0
45226,-1000,4,2,8,70,0,0
46605,-50,4,2,8,70,0,0
46778,-100,4,2,8,70,0,0
46950,-66.6666666666667,4,2,8,70,0,0
47122,-50,4,2,8,70,0,0
47295,-1000,4,2,8,70,0,0
47640,-50,4,2,8,70,0,0
49536,-25,4,2,8,70,0,0
49881,-50,4,2,8,70,0,0
50054,-1000,4,2,8,70,0,0
50398,-50,4,2,8,70,0,0
50743,-1000,4,2,8,70,0,0
51950,-50,4,2,8,70,0,0
52122,-66.6666666666667,4,2,8,70,0,0
52295,-50,4,2,8,70,0,0
52467,-40,4,2,8,70,0,0
52640,-50,4,2,8,70,0,0
52812,-1000,4,2,8,70,0,0
53157,-50,4,2,8,70,0,0
53674,-133.333333333333,4,2,8,70,0,0
53847,-1000,4,2,8,70,0,0
54364,-133.333333333333,4,2,8,70,0,0
54537,-1000,4,2,8,70,0,0
55054,-133.333333333333,4,2,8,70,0,0
55226,-500,4,2,8,70,0,0
55916,-50,4,2,8,70,0,0
56260,-1000,4,2,8,70,0,0
57640,-50,4,2,8,70,0,0
57812,-100,4,2,8,70,0,0
57985,-66.6666666666667,4,2,8,70,0,0
58157,-50,4,2,8,70,0,0
58329,-1000,4,2,8,70,0,0
58674,-50,4,2,8,70,0,0
60571,-25,4,2,8,70,0,0
60916,-50,4,2,8,70,0,0
61778,-1000,4,2,8,70,0,0
62985,-50,4,2,8,70,0,0
63157,-66.6666666666667,4,2,8,70,0,0
63329,-50,4,2,8,70,0,0
63502,-40,4,2,8,70,0,0
63674,-50,4,2,8,70,0,0
63847,-1000,4,2,8,70,0,0
64191,-100,4,2,8,70,0,0
66260,-100,4,2,8,70,0,0
66605,-25,4,2,8,70,0,0
66778,-100,4,2,8,70,0,0
66950,-50,4,2,8,70,0,0
67295,-1000,4,2,8,70,0,0
68674,-50,4,2,8,70,0,0
69364,-25,4,2,8,70,0,0
69709,-50,4,2,8,70,0,0
70054,-1000,4,2,8,70,0,0
71260,-50,4,2,8,70,0,0
72122,-1000,4,2,8,70,0,0
72467,-50,4,2,8,70,0,0
72812,-1000,4,2,8,70,0,0
74364,-50,4,2,8,70,0,0
74881,-25,4,2,8,70,0,0
75226,-50,4,2,8,70,0,0
75743,-133.333333333333,4,2,8,70,0,0
75916,-1000,4,2,8,70,0,0
76433,-133.333333333333,4,2,8,70,0,0
76606,-1000,4,2,8,70,0,0
77122,-133.333333333333,4,2,8,70,0,0
77295,-500,4,2,8,70,0,0
77467,-500,4,2,8,50,0,0
77985,-50,4,2,8,70,0,0
78329,-1000,4,2,8,70,0,0
79709,-50,4,2,8,70,0,0
80398,-25,4,2,8,70,0,0
80743,-50,4,2,8,70,0,0
81088,-1000,4,2,8,70,0,0
82295,-50,4,2,8,70,0,0
83157,-1000,4,2,8,70,0,0
83502,-50,4,2,8,70,0,0
83847,-1000,4,2,8,70,0,0
85398,-50,4,2,8,70,0,0
85916,-25,4,2,8,70,0,0
86260,-100,4,2,8,70,0,0
87640,-50,4,2,8,70,0,0
87812,-66.6666666666667,4,2,8,70,0,0
87985,-100,4,2,8,70,0,0
88157,-50,4,2,8,70,0,0
88329,-66.6666666666667,4,2,8,70,0,0
88502,-100,4,2,8,70,0,0
88674,-50,4,2,8,70,0,0
88846,-66.6666666666667,4,2,8,70,0,0
89020,-90.9090909090909,4,2,8,85,0,1
107985,-50,4,2,8,85,0,0
108329,-200,4,2,8,85,0,0
108330,-200,4,2,0,70,0,0
111778,-200,4,2,0,5,0,0

[Colours]
Combo1 : 255,226,130
Combo2 : 1,216,108
Combo3 : 121,255,188
Combo4 : 255,171,15

[HitObjects]
68,310,227,5,0,0:0:0:0:
130,253,399,2,0,P|171:261|180:318,1,94.499997116089,0|0,0:0|0:0,0:0:0:0:
130,253,744,6,0,B|207:247|207:247|227:253|227:253|336:244,1,188.999994232178,2|0,0:0|0:0,0:0:0:0:
425,284,1433,2,0,B|444:345|387:383|387:383|386:340|334:310,1,188.999994232178,0|0,0:0|0:0,0:0:0:0:
385,212,2123,2,0,P|465:215|498:259,1,125.999996154785,0|0,0:0|0:0,0:0:0:0:
296,149,2640,2,0,L|303:102,1,31.4999990386963,0|0,0:0|0:0,0:0:0:0:
265,118,2813,2,0,P|185:121|152:165,1,125.999996154785,0|0,0:0|0:0,0:0:0:0:
228,186,3330,1,0,0:0:0:0:
312,42,3502,5,2,0:0:0:0:
478,286,5744,1,0,0:0:0:0:
395,338,5916,2,0,P|359:303|390:258,1,94.499997116089,0|0,0:0|0:0,0:0:0:0:
395,338,6261,6,0,L|382:140,1,188.999994232178,2|0,0:0|0:0,0:0:0:0:
483,140,6951,2,0,B|475:182|502:212|502:212|486:193|448:184,1,125.999996154785,0|0,0:0|0:0,0:0:0:0:
363,72,7468,2,0,P|408:76|447:102,1,62.9999980773926,0|0,0:0|0:0,0:0:0:0:
295,150,7813,1,0,0:0:0:0:
249,28,7985,2,0,P|287:4|334:2,1,62.9999980773926,0|0,0:0|0:0,0:0:0:0:
300,159,8330,2,0,L|144:152,1,125.999996154785,0|0,0:0|0:0,0:0:0:0:
102,196,9020,5,2,0:0:0:0:
256,192,10399,12,0,11606,0:0:0:0:
199,286,11778,6,0,L|206:365,1,72,2|0,0:0|0:0,0:0:0:0:
268,222,12123,38,0,P|319:237|342:271,1,72,0|0,0:0|0:0,0:0:0:0:
182,205,12468,2,0,P|232:187|270:201,1,72,0|0,0:0|0:0,0:0:0:0:
102,242,12813,2,0,P|132:198|171:186,1,72,0|0,0:0|0:0,0:0:0:0:
274,108,13158,6,0,P|238:113|209:133,1,72,0|0,0:0|0:0,0:0:0:0:
353,105,13502,2,0,P|321:86|286:84,1,72,0|0,0:0|0:0,0:0:0:0:
417,152,13847,2,0,P|403:118|377:95,1,72,0|0,0:0|0:0,0:0:0:0:
436,228,14192,2,0,P|446:194|439:159,1,72,0|0,0:0|0:0,0:0:0:0:
512,165,14537,38,0,L|423:158,1,72,2|0,0:0|0:0,0:0:0:0:
277,157,14882,6,0,P|298:115|332:97,1,72,0|0,0:0|0:0,0:0:0:0:
403,73,15227,2,0,P|370:61|335:68,1,72,0|0,0:0|0:0,0:0:0:0:
321,253,15571,2,0,P|296:212|299:174,1,72,0|0,0:0|0:0,0:0:0:0:
209,8,15916,38,0,L|217:94,1,72,0|0,0:0|0:0,0:0:0:0:
193,197,16261,2,0,L|201:283,1,72,0|0,0:0|0:0,0:0:0:0:
198,104,16606,2,0,L|206:190,1,72,0|0,0:0|0:0,0:0:0:0:
182,293,16951,2,0,L|190:379,1,72,0|0,0:0|0:0,0:0:0:0:
60,256,17296,6,0,P|98:233|138:235,1,72,2|0,0:0|0:0,0:0:0:0:
275,277,17640,38,0,L|284:196,1,72,0|0,0:0|0:0,0:0:0:0:
317,99,17985,2,0,L|309:170,1,72,0|0,0:0|0:0,0:0:0:0:
241,384,18330,2,0,L|250:303,1,72,0|0,0:0|0:0,0:0:0:0:
364,239,18675,6,0,P|402:265|415:308,1,72,0|0,0:0|0:0,0:0:0:0:
271,208,19020,2,0,P|315:197|356:216,1,72,0|0,0:0|0:0,0:0:0:0:
185,255,19365,2,0,P|199:223|228:202,1,72,0|0,0:0|0:0,0:0:0:0:
162,351,19709,2,0,P|148:319|152:284,1,72,0|0,0:0|0:0,0:0:0:0:
45,189,20054,38,0,L|32:262,1,72,2|0,0:0|0:0,0:0:0:0:
0,104,20399,6,0,P|45:95|72:64,1,72,0|0,0:0|0:0,0:0:0:0:
271,74,20744,2,0,P|263:28|233:0,1,72,0|0,0:0|0:0,0:0:0:0:
142,144,21089,2,0,P|168:106|166:65,1,72,0|0,0:0|0:0,0:0:0:0:
353,6,21433,38,0,L|445:15,1,72,0|0,0:0|0:0,0:0:0:0:
247,9,21778,2,0,L|339:18,1,72,0|0,0:0|0:0,0:0:0:0:
415,135,22123,6,0,L|507:144,1,72,0|0,0:0|0:0,0:0:0:0:
309,138,22468,2,0,L|401:147,1,72,0|0,0:0|0:0,0:0:0:0:
478,269,22813,5,6,0:0:0:0:
460,359,22985,1,0,0:0:0:0:
343,222,23158,2,0,L|350:316,1,80.9999975280763,0|2,0:0|0:0,0:0:0:0:
496,179,23502,2,0,P|436:196|422:216,1,80.9999975280763,0|2,0:0|0:0,0:0:0:0:
334,302,23847,2,0,P|311:360|319:383,1,80.9999975280763,8|0,0:0|0:0,0:0:0:0:
34,269,24192,5,2,0:0:0:0:
52,359,24365,1,0,0:0:0:0:
169,222,24537,2,0,L|162:316,1,80.9999975280763,8|2,0:0|0:0,0:0:0:0:
16,179,24882,2,0,P|76:196|90:216,1,80.9999975280763,0|0,0:0|0:0,0:0:0:0:
178,302,25227,2,0,P|200:360|192:383,1,80.9999975280763,8|2,0:0|0:0,0:0:0:0:
94,118,25571,37,6,0:0:0:0:
192,95,25744,1,0,0:0:0:0:
74,31,25916,2,0,L|85:147,1,80.9999975280763,8|2,0:0|0:0,0:0:0:0:
83,123,26175,1,0,0:0:0:0:
84,134,26261,1,0,0:0:0:0:
112,223,26433,1,2,0:0:0:0:
256,137,26606,2,0,P|230:106|192:95,1,80.9999975280763,8|2,0:0|0:0,0:0:0:0:
418,118,26951,5,2,0:0:0:0:
319,94,27123,1,0,0:0:0:0:
438,31,27296,2,0,L|427:147,1,80.9999975280763,8|2,0:0|0:0,0:0:0:0:
429,123,27554,1,0,0:0:0:0:
428,134,27640,1,0,0:0:0:0:
400,223,27813,1,0,0:0:0:0:
256,137,27985,2,0,P|281:106|319:95,1,80.9999975280763,10|2,0:0|0:0,0:0:0:0:
311,199,28244,1,0,0:0:0:0:
302,213,28330,38,0,L|313:301,1,80.9999975280763,6|0,0:0|0:0,0:0:0:0:
483,277,28675,2,0,L|472:357,1,80.9999975280763,8|2,0:0|0:0,0:0:0:0:
376,152,29020,1,0,0:0:0:0:
387,155,29106,1,0,0:0:0:0:
396,162,29192,1,2,0:0:0:0:
377,376,29365,2,0,B|338:363|338:363|286:371,1,80.9999975280763,8|0,0:0|0:0,0:0:0:0:
255,357,29623,1,0,0:0:0:0:
213,369,29709,6,0,B|174:363|174:363|135:376,1,80.9999975280763,2|0,0:0|0:0,0:0:0:0:
28,277,30054,2,0,L|38:357,1,80.9999975280763,8|2,0:0|0:0,0:0:0:0:
116,162,30399,1,0,0:0:0:0:
125,155,30485,1,0,0:0:0:0:
136,152,30571,1,0,0:0:0:0:
199,293,30744,2,0,L|210:213,1,80.9999975280763,10|0,0:0|0:0,0:0:0:0:
245,357,31002,1,0,0:0:0:0:
256,368,31089,38,0,P|310:363|339:325,1,80.9999975280763,6|0,0:0|0:0,0:0:0:0:
422,215,31433,1,8,0:0:0:0:
510,260,31606,1,2,0:0:0:0:
334,261,31778,2,0,L|342:166,1,80.9999975280763,0|2,0:0|0:0,0:0:0:0:
410,318,32123,1,8,0:0:0:0:
256,263,32296,2,0,L|247:211,1,40.4999987640381,0|0,0:0|0:0,0:0:0:0:
256,368,32468,6,0,P|202:363|173:325,1,80.9999975280763,2|0,0:0|0:0,0:0:0:0:
90,215,32813,1,8,0:0:0:0:
2,260,32985,1,2,0:0:0:0:
178,261,33158,2,0,L|170:166,1,80.9999975280763,0|0,0:0|0:0,0:0:0:0:
102,318,33502,1,10,0:0:0:0:
256,263,33675,2,0,L|265:211,1,40.4999987640381,0|0,0:0|0:0,0:0:0:0:
302,346,33847,6,0,P|364:355|406:268,1,135,6|0,0:0|0:0,0:0:0:0:
394,282,34192,2,0,P|441:253|506:270,1,90,0|0,0:0|0:0,0:0:0:0:
256,215,34537,2,0,L|256:125,1,90,2|0,0:0|0:0,0:0:0:0:
118,282,34882,2,0,P|71:253|6:270,1,90,0|0,0:0|0:0,0:0:0:0:
35,103,35227,6,0,P|101:118|157:61,1,135,2|0,0:0|0:0,0:0:0:0:
196,16,35571,2,0,L|176:131,1,90,0|0,0:0|0:0,0:0:0:0:
463,165,35916,2,0,P|397:180|341:123,1,135,2|0,0:0|0:0,0:0:0:0:
302,78,36261,2,0,L|322:193,1,90,0|0,0:0|0:0,0:0:0:0:
256,304,36606,5,2,0:0:0:0:
411,258,36778,2,0,L|346:276,1,45,0|0,0:0|0:0,0:0:0:0:
256,312,36951,1,0,0:0:0:0:
101,258,37123,2,0,L|166:276,1,45,0|0,0:0|0:0,0:0:0:0:
256,324,37296,1,2,0:0:0:0:
459,361,37468,2,0,L|394:343,1,45,0|0,0:0|0:0,0:0:0:0:
256,332,37640,1,0,0:0:0:0:
53,361,37813,2,0,L|118:343,1,45,0|0,0:0|0:0,0:0:0:0:
256,344,37985,5,2,0:0:0:0:
175,193,38158,2,0,L|165:128,1,45,0|0,0:0|0:0,0:0:0:0:
343,148,38330,2,0,L|337:193,1,45,0|0,0:0|0:0,0:0:0:0:
142,69,38502,2,0,L|196:55,1,45,0|0,0:0|0:0,0:0:0:0:
326,57,38675,1,2,0:0:0:0:
348,63,38761,1,0,0:0:0:0:
370,69,38847,1,0,0:0:0:0:
183,271,39020,2,0,P|133:261|98:209,1,90,0|0,0:0|0:0,0:0:0:0:
250,223,39278,1,0,0:0:0:0:
264,214,39365,6,0,L|257:263,1,45,2|0,0:0|0:0,0:0:0:0:
348,281,39537,2,0,L|341:330,1,45,2|0,0:0|0:0,0:0:0:0:
452,210,39709,2,0,L|445:259,1,45,2|0,0:0|0:0,0:0:0:0:
512,340,39882,2,0,L|505:389,1,45,2|0,0:0|0:0,0:0:0:0:
445,165,40054,6,0,L|452:214,1,45,2|0,0:0|0:0,0:0:0:0:
361,232,40227,2,0,L|368:281,1,45,2|0,0:0|0:0,0:0:0:0:
257,161,40399,2,0,L|264:210,1,45,2|0,0:0|0:0,0:0:0:0:
197,291,40571,2,0,L|204:340,1,45,2|0,0:0|0:0,0:0:0:0:
10,237,40744,6,0,P|42:217|71:213,1,45,2|0,0:0|0:0,0:0:0:0:
166,67,40916,2,0,P|186:99|190:128,1,45,2|0,0:0|0:0,0:0:0:0:
53,120,41089,2,0,P|89:128|113:146,1,45,2|0,0:0|0:0,0:0:0:0:
283,109,41261,2,0,P|274:145|256:169,1,45,2|0,0:0|0:0,0:0:0:0:
381,384,41433,6,0,P|349:364|320:360,1,45,2|0,0:0|0:0,0:0:0:0:
225,214,41606,2,0,P|205:246|201:275,1,45,2|0,0:0|0:0,0:0:0:0:
338,267,41778,2,0,P|301:275|277:293,1,45,2|0,0:0|0:0,0:0:0:0:
108,256,41951,2,0,P|116:292|134:316,1,45,2|0,0:0|0:0,0:0:0:0:
194,381,42123,6,0,P|203:350|204:344,1,36,4|0,0:0|0:0,0:0:0:0:
86,161,44192,6,0,L|136:165,1,45,8|0,0:0|0:0,0:0:0:0:
25,163,44365,2,0,L|75:167,1,45,8|0,0:0|0:0,0:0:0:0:
360,200,44537,38,0,B|436:189|503:210|503:210|452:177,1,180,8|0,0:0|0:0,0:0:0:0:
295,203,44709,6,0,L|345:207,1,45,0|0,0:0|0:0,0:0:0:0:
221,34,44882,6,0,P|254:61|260:122,1,90,6|0,0:0|0:0,0:0:0:0:
169,270,45054,2,0,P|131:291|72:274,1,90,0|0,0:0|0:0,0:0:0:0:
188,127,45227,6,0,L|193:100,1,27,8|2,0:0|0:0,0:0:0:0:
344,4,45916,2,0,L|346:19,1,13.5,8|0,0:0|0:0,0:0:0:0:
373,97,46261,2,0,L|370:112,1,13.5,2|0,0:0|0:0,0:0:0:0:
333,192,46606,6,0,P|270:180|245:120,1,90,8|0,0:0|0:0,0:0:0:0:
431,202,46778,2,0,L|418:284,1,45,0|0,0:0|0:0,0:0:0:0:
251,382,46951,2,0,L|235:272,1,67.5000025749208,0|0,0:0|0:0,0:0:0:0:
431,202,47123,2,0,L|443:291,1,90,0|0,0:0|0:0,0:0:0:0:
143,319,47296,6,0,L|157:321,1,13.5,8|0,0:0|0:0,0:0:0:0:
171,248,47640,6,0,L|61:259,1,90,2|0,0:0|0:0,0:0:0:0:
277,221,47813,2,0,L|167:232,1,90,0|0,0:0|0:0,0:0:0:0:
406,342,47985,2,0,L|296:353,1,90,8|0,0:0|0:0,0:0:0:0:
512,109,48158,2,0,L|402:120,1,90,0|0,0:0|0:0,0:0:0:0:
286,80,48330,22,0,P|335:34|385:32,1,90,0|0,0:0|0:0,0:0:0:0:
191,250,48502,2,0,P|199:293|228:327,1,90,2|0,0:0|0:0,0:0:0:0:
204,95,48675,2,0,P|196:28|225:-12,1,90,8|0,0:0|0:0,2:0:0:0:
282,273,48847,2,0,P|321:292|366:289,1,90,0|0,0:0|0:0,2:0:0:0:
147,172,49020,1,2,0:0:0:0:
132,149,49192,22,0,P|61:162|32:209,1,90,0|0,0:0|0:0,0:0:0:0:
138,374,49365,2,0,L|230:382,1,90,8|0,0:0|0:0,0:0:0:0:
371,262,49537,22,0,B|374:215|347:180|347:180|297:193|272:253,1,180,2|0,0:0|0:0,0:0:0:0:
68,317,49709,2,0,B|65:270|92:235|92:235|142:248|167:308,1,180,2|0,0:0|0:0,0:0:0:0:
334,345,49882,22,0,L|441:338,1,90,2|0,0:0|0:0,0:0:0:0:
234,294,50054,6,0,L|236:304,1,9,8|2,0:0|0:0,0:0:0:0:
503,271,50399,6,0,P|477:230|409:226,1,90,2|0,0:0|0:0,0:0:0:0:
340,98,50571,2,0,P|291:104|259:164,1,90,0|0,0:0|0:0,0:0:0:0:
325,325,50744,6,0,L|329:298,1,27,8|2,0:0|0:0,0:0:0:0:
222,170,51433,2,0,L|224:187,1,18,8|2,0:0|0:0,0:0:0:0:
189,363,51951,6,0,P|113:355|81:307,1,90,0|0,0:0|0:0,0:0:0:0:
149,223,52123,22,0,L|159:316,1,67.5000025749208,8|0,0:0|0:0,0:0:0:0:
8,339,52296,22,0,P|-4:263|34:220,1,90,0|0,0:0|0:0,0:0:0:0:
165,178,52468,22,0,L|152:333,1,112.5,0|0,0:0|0:0,0:0:0:0:
0,136,52640,22,0,P|69:104|121:130,1,90,2|0,0:0|0:0,0:0:0:0:
232,242,52813,6,0,L|230:256,1,13.5,8|0,0:0|0:0,0:0:0:0:
265,333,53158,6,0,B|347:310|411:362|411:362|396:323,1,180,2|0,0:0|0:0,0:0:0:0:
192,377,53502,1,8,0:0:0:0:
406,263,53675,6,0,P|440:274|459:289,1,33.7500012874604,0|0,0:0|0:0,0:0:0:0:
447,273,53847,2,0,P|457:284|460:289,1,18,0|8,0:0|0:0,0:0:0:0:
337,218,54365,22,0,P|363:194|386:185,1,33.7500012874604,0|0,0:0|0:0,0:0:0:0:
365,187,54537,2,0,P|379:183|385:183,1,18,2|8,0:0|0:0,0:0:0:0:
263,250,55054,22,0,P|255:215|259:191,1,33.7500012874604,2|0,0:0|0:0,0:0:0:0:
250,210,55227,22,0,P|254:195|257:190,3,18,2|8|8|2,0:0|0:0|0:0|0:0,0:0:0:0:
443,99,55916,6,0,P|361:84|335:41,1,90,4|0,0:0|0:0,0:0:0:0:
218,85,56089,2,0,P|193:47|191:3,1,90,0|0,0:0|0:0,0:0:0:0:
409,1,56261,6,0,L|412:30,1,27,8|2,0:0|0:0,0:0:0:0:
243,168,56951,2,0,L|240:182,1,13.5,8|0,0:0|0:0,0:0:0:0:
291,266,57296,2,0,L|294:280,1,13.5,2|0,0:0|0:0,0:0:0:0:
171,322,57640,6,0,P|171:258|221:220,1,90,8|0,0:0|0:0,0:0:0:0:
298,363,57813,2,0,L|230:358,1,45,0|0,0:0|0:0,0:0:0:0:
104,327,57985,2,0,L|171:322,1,67.5000025749208,0|0,0:0|0:0,0:0:0:0:
387,369,58158,2,0,L|293:362,1,90,2|0,0:0|0:0,0:0:0:0:
12,353,58330,6,0,L|28:351,1,13.5,8|0,0:0|0:0,0:0:0:0:
134,347,58675,6,0,P|200:366|249:324,1,90,2|0,0:0|0:0,0:0:0:0:
144,136,58847,2,0,L|122:249,1,90,0|0,0:0|0:0,0:0:0:0:
227,384,59020,2,0,P|293:363|311:302,1,90,8|0,0:0|0:0,0:0:0:0:
139,129,59192,2,0,L|139:244,1,90,0|0,0:0|0:0,0:0:0:0:
325,364,59365,22,0,P|369:310|351:249,1,90,0|0,0:0|0:0,0:0:0:0:
134,122,59537,2,0,L|156:235,1,90,2|0,0:0|0:0,0:0:0:0:
396,294,59709,2,0,P|404:224|355:183,1,90,8|0,0:0|0:0,0:0:0:0:
129,115,59882,2,0,L|172:222,1,90,0|0,0:0|0:0,0:0:0:0:
382,192,60054,21,2,0:0:0:0:
372,187,60227,6,0,L|470:197,1,90,0|0,0:0|0:0,0:0:0:0:
230,81,60399,2,0,L|328:71,1,90,8|0,0:0|0:0,0:0:0:0:
192,277,60571,22,0,P|254:299|236:189,1,180,2|0,0:0|0:0,0:0:0:0:
140,14,60744,2,0,P|202:-8|184:102,1,180,0|0,0:0|0:0,0:0:0:0:
32,216,60916,22,0,L|130:226,1,90,2|0,0:0|0:0,0:0:0:0:
362,309,61089,2,0,L|264:319,1,90,8|0,0:0|0:0,0:0:0:0:
82,352,61261,2,0,L|180:362,1,90,0|0,0:0|0:0,0:0:0:0:
325,384,61433,22,0,P|356:352|362:309,1,90,2|0,0:0|0:0,0:0:0:0:
490,225,61606,2,0,P|479:181|445:154,1,90,0|0,0:0|0:0,0:0:0:0:
391,221,61778,6,0,L|418:223,1,27,8|2,0:0|0:0,0:0:0:0:
255,278,62468,2,0,L|272:276,1,18,8|2,0:0|0:0,0:0:0:0:
170,136,62985,6,0,P|221:137|253:165,1,90,0|0,0:0|0:0,0:0:0:0:
108,349,63158,22,0,L|115:264,1,67.5000025749208,8|0,0:0|0:0,0:0:0:0:
272,154,63330,22,0,P|298:197|291:239,1,90,2|0,0:0|0:0,0:0:0:0:
108,349,63502,22,0,L|98:231,1,112.5,2|0,0:0|0:0,0:0:0:0:
310,250,63675,22,0,P|286:295|247:311,1,90,0|0,0:0|0:3,0:3:0:0:
192,212,63847,6,0,L|193:202,1,9,8|2,0:0|0:0,0:0:0:0:
182,99,64192,21,2,0:0:0:0:
257,58,64365,1,0,0:0:0:0:
88,81,64537,2,0,L|186:88,1,90,0|0,0:0|0:0,0:0:0:0:
267,167,64796,1,0,0:0:0:0:
276,179,64882,22,0,P|286:153|284:129,1,45,0|0,0:0|0:0,0:0:0:0:
386,148,65054,2,0,P|374:122|356:106,1,45,0|0,2:0|2:0,2:0:0:0:
441,48,65227,1,0,0:0:0:0:
431,42,65313,1,0,0:0:0:0:
420,39,65399,1,0,0:0:0:0:
409,38,65485,1,0,0:0:0:0:
398,39,65571,22,0,P|451:41|480:73,1,90,0|0,0:0|0:0,0:0:0:0:
496,150,65830,1,0,0:0:0:0:
512,141,65916,2,0,L|490:287,1,135,0|0,0:0|0:0,0:0:0:0:
410,291,66261,22,0,L|419:353,1,45,2|0,0:0|0:0,0:0:0:0:
327,285,66433,2,0,L|336:347,1,45,0|0,0:0|0:0,0:0:0:0:
216,77,66606,38,0,B|225:57|225:57|266:98|267:196|201:245,1,180,8|0,0:0|0:0,0:0:0:0:
145,112,66778,6,0,L|154:174,1,45,2|0,0:0|0:0,0:0:0:0:
90,38,66951,6,0,P|41:73|32:134,1,90,6|0,0:0|0:0,0:0:0:0:
154,234,67123,2,0,P|110:235|71:212,1,90,0|0,0:0|0:0,2:0:0:0:
161,1,67296,6,0,L|188:3,1,27,8|2,0:0|0:0,0:0:0:0:
376,40,67985,2,0,L|361:41,1,13.5,8|0,0:0|0:0,0:0:0:0:
226,78,68330,2,0,L|211:77,1,13.5,2|0,0:0|0:0,0:0:0:0:
130,100,68675,5,8,0:0:0:0:
278,244,68847,2,0,P|332:189|317:120,1,90,0|0,0:0|0:0,0:0:0:0:
112,0,69020,2,0,L|123:154,1,90,0|0,0:0|0:0,0:0:0:0:
392,101,69192,2,0,P|360:30|290:20,1,90,2|0,0:0|0:0,0:0:0:0:
278,244,69365,22,0,B|264:367|264:367|277:331|350:313,1,180,8|0,0:0|0:0,0:0:0:0:
232,90,69537,2,0,B|206:78|192:52|192:52|206:175,1,180,0|0,0:0|0:0,0:0:0:0:
117,169,69709,22,0,L|233:178,1,90,2|0,0:0|0:0,0:0:0:0:
10,273,69882,2,0,P|68:272|104:212,1,90,0|0,0:0|0:0,0:0:0:0:
14,151,70054,6,0,L|18:179,1,27,8|2,0:0|0:0,0:0:0:0:
156,302,70744,2,0,L|159:281,1,18,8|2,0:0|0:0,0:0:0:0:
172,54,71261,6,0,P|140:99|161:165,1,90,0|0,0:0|0:0,2:0:0:0:
353,174,71433,2,0,P|328:123|259:108,1,90,8|0,0:0|0:0,2:0:0:0:
156,270,71606,2,0,P|211:272|257:221,1,90,0|0,0:0|0:0,2:0:0:0:
51,120,71778,22,0,L|81:259,1,90,0|0,0:0|0:0,0:0:0:0:
355,36,71951,2,0,L|218:-6,1,90,2|0,0:0|0:0,0:0:0:0:
275,341,72123,6,0,L|284:330,1,13.5,8|0,0:0|0:0,0:0:0:0:
285,321,72468,6,0,P|323:343|367:340,1,90,2|0,0:0|0:0,0:0:0:0:
512,325,72640,2,0,P|462:382|413:381,1,90,0|0,0:0|0:0,0:0:0:0:
327,241,72813,6,0,L|354:244,1,27,8|2,0:0|0:0,0:0:0:0:
502,173,73502,2,0,L|486:174,1,13.5,8|0,0:0|0:0,0:0:0:0:
401,148,73847,2,0,L|385:149,1,13.5,2|0,0:0|0:0,0:0:0:0:
300,123,74192,1,8,0:0:0:0:
176,231,74365,6,0,P|245:229|275:185,1,90,0|0,0:0|0:0,0:0:0:0:
140,13,74537,2,0,L|122:139,1,90,0|0,0:0|0:0,0:0:0:0:
271,307,74709,2,0,L|258:217,1,90,2|0,0:0|0:0,0:0:0:0:
41,38,74882,22,0,B|51:82|51:82|22:289,1,180,8|0,0:0|0:0,0:0:0:0:
199,350,75054,2,0,B|181:217|181:217|191:173,1,180,0|0,0:0|0:0,0:0:0:0:
0,297,75227,22,0,B|76:289|76:289|100:295|100:295|198:284,1,180,2|0,0:0|0:0,0:0:0:0:
65,370,75571,1,8,0:0:0:0:
201,210,75744,6,0,P|242:231|253:244,1,33.7500012874604,0|0,0:0|0:0,0:0:0:0:
231,222,75916,2,0,P|241:232|245:238,1,18,0|8,0:0|0:0,0:0:0:0:
137,154,76433,22,0,P|176:130|193:127,1,33.7500012874604,0|0,0:0|0:0,0:0:0:0:
164,134,76606,2,0,P|177:130|184:130,1,18,2|8,0:0|0:0,0:0:0:0:
55,178,77123,22,0,P|55:131|62:116,1,33.7500012874604,2|0,0:0|0:0,0:0:0:0:
53,144,77296,22,0,P|57:130|61:124,3,18,2|8|8|2,0:0|0:0|0:0|0:0,0:0:0:0:
23,48,77985,6,0,P|85:44|114:-3,1,90,6|0,0:0|0:0,0:0:0:0:
194,144,78158,2,0,P|238:101|230:46,1,90,0|0,0:0|0:0,0:0:0:0:
386,107,78330,6,0,P|389:86|389:80,1,27,8|2,0:0|0:0,0:0:0:0:
445,0,79020,2,0,P|449:7|451:13,1,13.5,8|0,0:0|0:0,0:0:0:0:
491,118,79365,2,0,P|490:127|488:132,1,13.5,2|0,0:0|0:0,0:0:0:0:
435,216,79709,1,8,0:0:0:0:
308,74,79882,6,0,L|414:64,1,90,0|0,0:0|0:0,0:0:0:0:
412,291,80054,2,0,P|362:243|378:173,1,90,0|0,0:0|0:0,0:0:0:0:
407,48,80227,2,0,L|513:58,1,90,2|0,0:0|0:0,0:0:0:0:
495,323,80399,22,0,B|418:326|418:326|396:339|396:339|278:346,1,180,8|0,0:0|0:0,0:0:0:0:
245,266,80571,2,0,B|167:261|167:261|145:248|145:248|68:245,1,180,0|0,0:0|0:0,0:0:0:0:
35,358,80744,22,0,P|108:337|127:296,1,90,2|0,0:0|0:0,0:0:0:0:
175,231,80916,2,0,P|164:155|126:131,1,90,0|0,0:0|0:0,2:0:0:0:
34,134,81089,6,0,L|36:160,1,27,8|2,0:0|0:0,0:0:0:0:
98,18,81778,2,0,L|96:37,1,18,8|2,0:0|0:0,0:0:0:0:
5,219,82296,6,0,L|140:211,1,90,0|0,0:0|0:0,0:0:0:0:
261,267,82468,2,0,L|396:259,1,90,8|0,0:0|0:0,0:0:0:0:
439,45,82640,2,0,P|384:3|328:19,1,90,0|0,0:0|0:0,0:0:0:0:
222,99,82813,2,0,P|161:133|154:191,1,90,0|0,0:0|0:0,2:0:0:0:
414,296,82985,2,0,P|414:226|367:191,1,90,2|0,0:0|0:0,2:0:0:0:
207,332,83158,6,0,L|206:347,1,13.5,8|0,0:0|0:0,0:0:0:0:
155,277,83502,6,0,L|167:389,1,90,2|0,0:0|0:0,0:0:0:0:
64,85,83675,2,0,L|76:197,1,90,0|0,0:0|0:0,0:0:0:0:
232,222,83847,6,0,P|227:221|221:220,1,9,8|0,0:0|0:0,0:0:0:0:
51,317,84192,2,0,L|70:314,1,18,0|8,0:0|0:0,0:0:0:0:
320,362,84709,1,0,0:0:0:0:
146,354,84882,2,0,L|165:351,1,18,2|8,0:0|0:0,0:0:0:0:
274,292,85399,6,0,P|231:259|166:281,1,90,2|0,0:0|0:0,0:0:0:0:
15,215,85571,2,0,P|54:132|97:119,1,90,0|0,0:0|0:0,0:0:0:0:
311,80,85744,2,0,P|284:13|233:-6,1,90,2|0,0:0|0:0,0:0:0:0:
91,203,85916,22,0,B|124:223|123:268|123:268|69:305|91:380,1,180,8|0,0:0|0:0,0:0:0:0:
415,84,86089,2,0,B|382:104|383:149|383:149|437:186|415:261,1,180,0|0,0:0|0:0,0:0:0:0:
206,277,86261,6,0,P|273:291|346:202,1,180,0|0,0:0|0:0,0:0:0:0:
344,217,86951,22,0,P|277:203|204:292,1,180,0|0,0:0|0:0,0:0:0:0:
121,274,87554,2,0,L|129:238,1,22.5,8|8,3:0|3:0,0:0:0:0:
50,318,87640,6,0,L|37:220,1,90,8|0,3:0|0:0,0:0:0:0:
99,131,87813,6,0,P|155:144|189:179,1,67.5000025749208,0|0,0:0|0:0,0:0:0:0:
176,151,87985,2,0,P|195:174|203:200,1,45,2|0,0:0|0:0,0:0:0:0:
401,384,88158,6,0,L|414:286,1,90,8|0,0:0|0:0,0:0:0:0:
352,197,88330,6,0,P|296:210|262:245,1,67.5000025749208,2|0,0:0|0:0,0:0:0:0:
275,217,88502,2,0,P|256:240|248:266,1,45,2|0,0:0|0:0,0:0:0:0:
36,332,88675,6,0,L|23:234,1,90,8|0,0:0|0:0,0:0:0:0:
85,145,88847,6,0,P|141:158|175:193,1,67.5000025749208,2|0,0:0|0:0,0:0:0:0:
0,67,89020,6,0,P|64:63|95:15,1,99.0000030212403,6|0,0:0|0:0,0:0:0:0:
234,124,89365,2,0,P|278:78|269:21,1,99.0000030212403,8|8,0:0|3:0,0:0:0:0:
70,151,89709,1,2,3:0:0:0:
210,57,89882,2,0,L|204:-2,1,49.5000015106202,2|0,0:0|0:0,0:0:0:0:
60,144,90054,2,0,L|51:255,1,99.0000030212403,8|0,0:0|0:0,0:0:0:0:
287,278,90399,6,0,P|260:227|200:211,1,99.0000030212403,2|0,0:0|0:0,0:0:0:0:
115,294,90744,2,0,P|57:301|22:352,1,99.0000030212403,8|8,0:0|3:0,0:0:0:0:
229,358,91089,2,0,L|386:349,1,148.50000453186,2|0,3:0|0:0,0:0:0:0:
360,363,91433,2,0,L|426:373,1,49.5000015106202,8|0,0:0|0:0,0:0:0:0:
448,203,91606,2,0,P|423:211|398:234,1,49.5000015106202,0|0,0:0|0:0,0:0:0:0:
508,365,91778,38,0,P|495:305|429:279,1,99.0000030212403,2|0,0:0|0:0,0:0:0:0:
506,156,92123,2,0,P|451:127|389:161,1,99.0000030212403,8|8,0:0|3:0,0:0:0:0:
287,276,92468,2,0,L|362:267,1,49.5000015106202,2|0,3:0|0:0,0:0:0:0:
152,231,92640,2,0,L|227:240,1,49.5000015106202,2|0,0:0|0:0,0:0:0:0:
10,360,92813,2,0,P|75:375|134:284,1,148.50000453186,8|0,0:0|0:0,0:0:0:0:
108,301,93158,6,0,L|220:315,1,99.0000030212403,2|0,0:0|0:0,0:0:0:0:
11,185,93502,2,0,P|67:147|121:168,1,99.0000030212403,8|8,0:0|3:0,0:0:0:0:
326,263,93847,2,0,L|276:268,1,49.5000015106202,2|0,3:0|0:0,0:0:0:0:
191,229,94020,2,0,L|141:223,1,49.5000015106202,2|0,0:0|0:0,0:0:0:0:
502,359,94192,2,0,P|431:373|380:324,1,148.50000453186,8|0,0:0|0:0,0:0:0:0:
411,250,94537,6,0,L|402:381,1,99.0000030212403,6|0,0:0|0:0,0:0:0:0:
212,200,94882,2,0,L|221:331,1,99.0000030212403,8|8,0:0|3:0,0:0:0:0:
466,196,95227,2,0,P|423:174|389:174,1,49.5000015106202,2|0,3:0|0:0,0:0:0:0:
297,357,95399,1,2,0:0:0:0:
381,104,95571,2,0,P|333:117|315:129,1,49.5000015106202,8|0,0:0|0:0,0:0:0:0:
257,78,95744,1,0,0:0:0:0:
239,95,95830,1,0,0:0:0:0:
226,116,95916,6,0,P|215:73|203:47,1,49.5000015106202,2|0,0:0|0:0,0:0:0:0:
98,167,96089,2,0,P|129:135|145:112,1,49.5000015106202,0|0,0:0|0:0,0:0:0:0:
0,48,96261,2,0,L|121:55,1,99.0000030212403,8|8,0:0|3:0,0:0:0:0:
241,0,96606,1,2,3:0:0:0:
411,33,96778,2,0,P|362:8|335:5,1,49.5000015106202,2|0,0:0|0:0,0:0:0:0:
348,26,96951,2,0,L|469:19,1,99.0000030212403,8|0,0:0|0:0,0:0:0:0:
380,201,97296,38,0,P|330:176|310:121,1,99.0000030212403,2|0,0:0|0:0,0:0:0:0:
184,85,97640,2,0,P|190:29|235:-8,1,99.0000030212403,8|8,0:0|3:0,0:0:0:0:
387,123,97985,1,2,3:0:0:0:
218,162,98158,1,2,0:0:0:0:
472,104,98330,2,0,L|464:222,1,99.0000030212403,8|0,0:0|0:0,0:0:0:0:
269,286,98675,6,0,L|277:404,1,99.0000030212403,2|0,0:0|0:0,0:0:0:0:
134,264,99020,2,0,P|168:243|201:239,1,49.5000015106202,8|0,0:0|0:0,0:0:0:0:
351,309,99192,1,2,3:0:0:0:
271,144,99365,2,0,P|309:155|334:177,1,49.5000015106202,6|0,0:0|2:0,2:0:0:0:
263,272,99537,2,0,L|270:209,1,49.5000015106202,8|0,0:0|0:0,0:0:0:0:
388,0,99709,2,0,L|393:49,1,49.5000015106202,8|0,0:0|0:0,0:0:0:0:
408,68,99882,38,0,L|413:18,1,49.5000015106202,2|0,0:0|0:0,0:0:0:0:
167,66,100054,22,0,P|236:70|274:15,1,99.0000030212403,6|0,0:0|0:0,0:0:0:0:
0,45,100399,2,0,P|23:110|88:123,1,99.0000030212403,8|8,0:0|3:0,0:0:0:0:
273,37,100744,1,2,3:0:0:0:
0,33,100916,2,0,L|63:41,1,49.5000015106202,2|0,0:0|0:0,0:0:0:0:
350,118,101089,2,0,P|414:119|460:34,1,148.50000453186,8|0,0:0|0:0,0:0:0:0:
354,0,101433,6,0,L|337:134,1,99.0000030212403,2|0,0:0|0:0,0:0:0:0:
496,235,101778,2,0,P|515:167|496:130,1,99.0000030212403,8|8,0:0|3:0,0:0:0:0:
266,126,102123,2,0,L|274:192,1,49.5000015106202,2|0,3:0|0:0,0:0:0:0:
306,347,102296,1,2,0:0:0:0:
430,54,102468,2,0,L|413:188,1,99.0000030212403,8|0,0:0|0:0,0:0:0:0:
178,270,102813,38,0,P|252:267|288:212,1,99.0000030212403,2|0,0:0|0:0,0:0:0:0:
441,361,103158,2,0,P|483:300|460:238,1,99.0000030212403,8|8,0:0|3:0,0:0:0:0:
316,185,103502,1,2,3:0:0:0:
301,364,103675,1,2,0:0:0:0:
330,172,103847,2,0,L|159:158,1,148.50000453186,8|0,0:0|0:0,0:0:0:0:
97,147,104192,6,0,P|170:150|205:104,1,99.0000030212403,2|0,0:0|0:0,0:0:0:0:
301,94,104537,2,0,P|321:23|285:-21,1,99.0000030212403,8|8,0:0|3:0,0:0:0:0:
70,3,104882,2,0,L|78:70,1,49.5000015106202,2|0,3:0|0:0,0:0:0:0:
5,189,105054,2,0,L|13:256,1,49.5000015106202,2|0,0:0|0:0,0:0:0:0:
123,371,105227,2,0,P|160:309|80:239,1,148.50000453186,8|0,0:0|0:0,0:0:0:0:
15,347,105571,6,0,P|80:363|114:415,1,99.0000030212403,6|0,0:0|0:0,0:0:0:0:
275,162,105916,2,0,P|287:227|255:280,1,99.0000030212403,8|8,0:0|3:0,0:0:0:0:
76,252,106261,2,0,L|143:247,1,49.5000015106202,2|0,3:0|0:0,0:0:0:0:
258,335,106433,2,0,L|325:340,1,49.5000015106202,2|0,0:0|0:0,0:0:0:0:
296,86,106606,2,0,P|227:99|195:156,1,99.0000030212403,8|0,0:0|0:0,0:0:0:0:
77,232,106951,6,0,P|146:245|178:302,1,99.0000030212403,2|0,0:0|0:0,0:0:0:0:
0,369,107296,2,0,L|115:361,1,99.0000030212403,8|8,0:0|3:0,0:0:0:0:
313,384,107640,1,0,0:0:0:0:
118,361,107813,1,2,0:0:0:0:
478,229,107985,38,0,P|419:199|361:225,1,90,8|0,0:0|0:0,0:0:0:0:
287,311,108158,2,0,P|240:357|247:421,1,90,0|0,0:0|0:0,0:0:0:0:
106,273,108330,5,4,3:0:0:0:
256,192,108416,12,0,111778,0:0:0:0:
