osu file format v14

[General]
AudioFilename: audio.mp3
AudioLeadIn: 0
PreviewTime: 88502
Countdown: 0
SampleSet: Soft
StackLeniency: 0.7
Mode: 0
LetterboxInBreaks: 0
WidescreenStoryboard: 1

[Editor]
Bookmarks: 74881
DistanceSpacing: 1.2
BeatDivisor: 4
GridSize: 4
TimelineZoom: 2.1

[Metadata]
Title:Come Back Down
TitleUnicode:Come Back Down
Artist:Mediks
ArtistUnicode:Mediks
Creator:[Kamiya]
Version:emilia's Expert
Source:
Tags:Oiso papapa213 Emilia remix
BeatmapID:1367309
BeatmapSetID:639013

[Difficulty]
HPDrainRate:8
CircleSize:3.6
OverallDifficulty:8.5
ApproachRate:9.1
SliderMultiplier:1.8
SliderTickRate:1

[Events]
//Background and Video events
0,0,"bg.jpg",0,0
//Break Periods
2,42812,43608
//Storyboard Layer 0 (Background)
//Storyboard Layer 1 (Fail)
//Storyboard Layer 2 (Pass)
//Storyboard Layer 3 (Foreground)
//Storyboard Sound Samples

[TimingPoints]
-635,344.827586206897,4,2,0,50,1,0
743,-142.857142857143,4,2,0,50,0,0
11778,-125,4,2,0,50,0,0
22812,-111.111111111111,4,2,9,60,0,0
33847,-100,4,2,8,60,0,0
42122,-200,4,2,8,70,0,0
44192,-100,4,2,31,70,0,0
44365,-100,4,2,30,70,0,0
44537,-100,4,2,8,70,0,0
44881,-83.3333333333333,4,2,8,70,0,0
66260,-142.857142857143,4,2,8,70,0,0
66950,-83.3333333333333,4,2,8,70,0,0
77467,-83.3333333333333,4,2,8,50,0,0
77985,-83.3333333333333,4,2,8,70,0,0
89020,-90.9090909090909,4,2,8,85,0,1
108330,-200,4,2,0,70,0,0
111778,-200,4,2,0,5,0,0

[Colours]
Combo1 : 255,255,111
Combo2 : 128,0,128
Combo3 : 49,141,255
Combo4 : 242,24,57

[HitObjects]
96,181,227,5,0,0:0:0:0:
305,215,399,1,0,0:0:0:0:
320,227,744,6,0,P|334:163|235:107,1,188.999994232178,2|0,0:0|0:0,0:0:0:0:
236,272,1433,2,0,L|446:258,1,188.999994232178,0|0,0:0|0:0,0:0:0:0:
502,362,2123,2,0,P|445:375|382:321,1,125.999996154785,0|0,0:0|0:0,0:0:0:0:
286,382,2640,1,0,0:0:0:0:
364,244,2813,2,0,L|509:258,1,125.999996154785,0|0,0:0|0:0,0:0:0:0:
283,281,3330,1,0,0:0:0:0:
399,83,3502,5,2,0:0:0:0:
281,49,5744,1,0,0:0:0:0:
493,177,5916,1,0,0:0:0:0:
477,193,6261,6,0,L|496:2,1,188.999994232178,2|0,0:0|0:0,0:0:0:0:
278,152,6951,2,0,P|331:162|399:109,1,125.999996154785,0|0,0:0|0:0,0:0:0:0:
318,15,7468,2,0,L|322:93,1,62.9999980773926,0|0,0:0|0:0,0:0:0:0:
264,256,7813,1,0,0:0:0:0:
170,166,7985,1,0,0:0:0:0:
351,231,8158,1,0,0:0:0:0:
172,369,8330,2,0,L|182:292,1,62.9999980773926,0|0,0:0|0:0,0:0:0:0:
194,138,8675,1,0,0:0:0:0:
8,213,9020,5,2,0:0:0:0:
22,226,10399,1,2,0:0:0:0:
256,192,10485,12,0,11606,0:0:0:0:
306,93,11778,6,0,L|316:214,1,108,2|0,0:0|0:0,0:0:0:0:
300,222,12123,2,0,P|348:234|385:270,1,72,0|0,0:0|0:0,0:0:0:0:
192,331,12468,1,0,0:0:0:0:
326,315,12640,1,0,0:0:0:0:
181,341,12813,1,0,0:0:0:0:
315,325,12985,1,0,0:0:0:0:
122,264,13158,6,0,P|74:273|36:300,1,72
170,351,13502,1,0,0:0:0:0:
196,160,13675,1,0,0:0:0:0:
274,322,13847,2,0,P|263:262|245:238,1,72
183,149,14192,1,0,0:0:0:0:
360,213,14365,1,0,0:0:0:0:
315,11,14537,6,0,L|309:140,1,108,2|0,0:0|0:0,0:0:0:0:
300,146,14882,2,0,P|358:126|392:130,1,72,0|0,0:0|0:0,0:0:0:0:
492,258,15227,1,0,0:0:0:0:
360,213,15399,1,0,0:0:0:0:
272,343,15571,1,0,0:0:0:0:
195,276,15744,1,0,0:0:0:0:
62,367,15916,6,0,P|130:351|150:335,1,72,0|0,0:0|0:0,0:0:0:0:
247,203,16261,2,0,P|213:189|178:186,1,72,0|0,0:0|0:0,0:0:0:0:
35,280,16606,1,0,0:0:0:0:
129,115,16778,1,0,0:0:0:0:
3,36,16951,2,0,L|14:123,1,72,0|0,0:0|0:0,0:0:0:0:
210,82,17296,6,0,P|173:39|108:33,1,108,2|0,0:0|0:0,0:0:0:0:
97,28,17640,2,0,P|149:15|172:3,1,72,0|0,0:0|0:0,0:0:0:0:
290,51,17985,2,0,L|450:41,1,144,0|0,0:0|0:0,0:0:0:0:
512,119,18502,1,0,0:0:0:0:
373,213,18675,6,0,P|343:185|330:153,1,72,0|0,0:0|0:0,0:0:0:0:
272,63,19020,2,0,P|282:23|304:-3,1,72,0|0,0:0|0:0,0:0:0:0:
317,239,19365,2,0,P|307:199|313:165,1,72,0|0,0:0|0:0,0:0:0:0:
313,58,19709,2,0,P|343:30|376:20,1,72,0|0,0:0|0:0,0:0:0:0:
457,153,20054,6,0,L|447:270,1,108,2|0,0:0|0:0,0:0:0:0:
430,279,20399,2,0,P|474:306|497:335,1,72,0|0,0:0|0:0,0:0:0:0:
270,331,20744,1,0,0:0:0:0:
409,365,20916,1,0,0:0:0:0:
261,335,21089,1,0,0:0:0:0:
400,369,21261,1,0,0:0:0:0:
173,381,21433,6,0,L|162:298,1,72,0|0,0:0|0:0,0:0:0:0:
201,186,21778,1,0,0:0:0:0:
78,327,21951,1,0,0:0:0:0:
221,190,22123,2,0,P|259:217|276:255,1,72,0|0,0:0|0:0,0:0:0:0:
62,220,22468,2,0,L|71:141,1,72,0|0,0:0|0:0,0:0:0:0:
289,90,22813,6,0,P|202:153|130:115,1,161.999995056153,6|0,0:0|0:0,0:0:0:0:
253,7,23330,1,2,0:0:0:0:
429,112,23502,1,0,0:0:0:0:
235,0,23675,1,2,0:0:0:0:
453,26,23847,2,0,P|497:53|521:106,1,80.9999975280763,8|0,0:0|0:0,0:0:0:0:
367,320,24192,6,0,L|359:237,1,80.9999975280763,2|0,0:0|0:0,0:0:0:0:
486,163,24537,1,8,0:0:0:0:
457,347,24709,1,2,0:0:0:0:
332,105,24882,1,0,0:0:0:0:
502,168,25054,1,0,0:0:0:0:
289,250,25227,2,0,P|331:246|369:221,1,80.9999975280763,8|2,0:0|0:0,0:0:0:0:
180,183,25571,5,6,0:0:0:0:
62,306,25744,1,0,0:0:0:0:
190,164,25916,1,8,0:0:0:0:
34,87,26089,2,0,L|47:141,1,40.4999987640381,2|0,0:0|0:0,0:0:0:0:
71,294,26261,1,0,0:0:0:0:
200,145,26433,1,2,0:0:0:0:
5,225,26606,1,8,0:0:0:0:
202,303,26778,1,2,0:0:0:0:
48,384,26951,6,0,L|65:274,1,80.9999975280763,2|0,0:0|0:0,0:0:0:0:
11,133,27296,1,8,0:0:0:0:
194,292,27468,2,0,L|186:233,1,40.4999987640381,2|0,0:0|0:0,0:0:0:0:
167,68,27640,1,0,0:0:0:0:
87,230,27813,1,0,0:0:0:0:
260,118,27985,1,10,0:0:0:0:
74,17,28158,2,0,L|82:90,1,40.4999987640381,2|0,0:0|0:0,0:0:0:0:
319,175,28330,6,0,P|342:123|325:71,1,80.9999975280763,6|0,0:0|0:0,0:0:0:0:
181,236,28675,1,8,0:0:0:0:
273,368,28847,2,0,L|267:314,1,40.4999987640381,2|0,0:0|0:0,0:0:0:0:
170,216,29020,2,0,L|177:166,1,40.4999987640381,0|0,0:0|0:0,0:0:0:0:
217,38,29192,1,2,0:0:0:0:
73,200,29365,1,8,0:0:0:0:
288,120,29537,2,0,L|295:180,1,40.4999987640381,0|0,0:0|0:0,0:0:0:0:
378,315,29709,6,0,L|391:226,1,80.9999975280763,2|0,0:0|0:0,0:0:0:0:
485,116,30054,1,8,0:0:0:0:
358,24,30227,2,0,L|365:92,1,40.4999987640381,2|0,0:0|0:0,0:0:0:0:
385,220,30399,1,0,0:0:0:0:
500,90,30571,2,0,L|490:164,1,40.4999987640381,0|0,0:0|0:0,0:0:0:0:
386,324,30744,1,10,0:0:0:0:
289,217,30916,1,0,0:0:0:0:
467,361,31089,6,0,L|277:346,1,161.999995056153,6|8,0:0|0:0,0:0:0:0:
175,383,31606,1,2,0:0:0:0:
245,178,31778,1,0,0:0:0:0:
179,361,31951,1,2,0:0:0:0:
143,132,32123,1,8,0:0:0:0:
308,238,32296,6,0,P|251:265|208:256,1,80.9999975280763,0|2,0:0|0:0,0:0:0:0:
128,123,32640,1,0,0:0:0:0:
351,152,32813,1,8,0:0:0:0:
85,208,32985,1,2,0:0:0:0:
167,8,33158,2,0,P|202:62|205:112,1,80.9999975280763,0|0,0:0|0:0,0:0:0:0:
0,241,33502,2,0,L|11:134,1,80.9999975280763,10|0,0:0|0:0,0:0:0:0:
228,84,33847,6,0,P|223:147|190:188,1,90,6|0,0:0|0:0,0:0:0:0:
80,282,34192,1,0,0:0:0:0:
275,225,34365,1,0,0:0:0:0:
97,276,34537,1,2,0:0:0:0:
314,350,34709,1,0,0:0:0:0:
114,270,34882,1,0,0:0:0:0:
294,220,35054,1,0,0:0:0:0:
37,149,35227,6,0,L|150:160,1,90,2|0,0:0|0:0,0:0:0:0:
318,107,35571,1,0,0:0:0:0:
197,229,35744,1,0,0:0:0:0:
270,28,35916,1,2,0:0:0:0:
392,254,36089,1,0,0:0:0:0:
311,119,36261,1,0,0:0:0:0:
190,241,36433,1,0,0:0:0:0:
437,155,36606,6,0,P|485:194|501:253,1,90,2|0,0:0|0:0,0:0:0:0:
290,361,36951,1,0,0:0:0:0:
304,193,37123,1,0,0:0:0:0:
186,311,37296,1,2,0:0:0:0:
168,105,37468,1,0,0:0:0:0:
301,371,37640,1,0,0:0:0:0:
315,203,37813,1,0,0:0:0:0:
108,340,37985,6,0,P|185:333|219:299,1,90,2|0,0:0|0:0,0:0:0:0:
343,121,38330,1,0,0:0:0:0:
173,182,38502,1,0,0:0:0:0:
402,261,38675,1,2,0:0:0:0:
148,176,38847,1,0,0:0:0:0:
321,116,39020,1,0,0:0:0:0:
123,173,39192,1,0,0:0:0:0:
408,159,39365,5,2,0:0:0:0:
210,53,39537,1,2,0:0:0:0:
392,214,39709,1,2,0:0:0:0:
242,46,39882,1,2,0:0:0:0:
358,260,40054,1,2,0:0:0:0:
274,51,40227,1,2,0:0:0:0:
310,291,40399,1,2,0:0:0:0:
302,66,40571,1,2,0:0:0:0:
152,180,40744,5,2,0:0:0:0:
397,126,40916,1,2,0:0:0:0:
179,165,41089,1,2,0:0:0:0:
451,205,41261,1,2,0:0:0:0:
209,160,41433,1,2,0:0:0:0:
468,302,41606,1,2,0:0:0:0:
238,166,41778,1,2,0:0:0:0:
434,384,41951,1,2,0:0:0:0:
262,184,42123,5,4,0:0:0:0:
265,267,44192,5,8,0:0:0:0:
157,226,44365,1,8,0:0:0:0:
348,125,44537,5,8,0:0:0:0:
139,225,44709,1,0,0:0:0:0:
246,24,44882,6,0,L|256:115,1,53.9999983520508,6|0,0:0|0:0,0:0:0:0:
428,179,45054,2,0,L|422:232,1,53.9999983520508,0|0,0:0|0:0,0:0:0:0:
132,237,45227,2,0,P|211:224|261:305,1,161.999995056153,8|0,0:0|0:0,0:0:0:0:
182,298,45571,1,0,0:0:0:0:
43,239,45744,2,0,L|53:172,1,53.9999983520508,2|0,0:0|0:0,0:0:0:0:
155,31,45916,2,0,P|214:48|226:167,1,161.999995056153,8|0,0:0|0:0,0:0:0:0:
170,168,46261,6,0,L|359:159,1,161.999995056153,2|0,0:0|0:0,0:0:0:0:
462,253,46606,2,0,P|405:242|376:220,1,53.9999983520508,8|0,0:0|0:0,0:0:0:0:
329,45,46778,2,0,P|369:86|379:121,1,53.9999983520508,0|0,0:0|0:0,0:0:0:0:
315,292,46951,2,0,P|306:234|319:200,1,53.9999983520508,0|0,0:0|0:0,0:0:0:0:
472,101,47123,2,0,P|444:152|414:172,1,53.9999983520508,0|0,0:0|0:0,0:0:0:0:
230,144,47296,2,0,L|62:136,1,161.999995056153,8|0,0:0|0:0,0:0:0:0:
5,222,47640,6,0,L|89:213,1,53.9999983520508,2|0,0:0|0:0,0:0:0:0:
243,142,47813,2,0,L|327:133,1,53.9999983520508,0|0,0:0|0:0,0:0:0:0:
138,313,47985,2,0,L|147:229,1,53.9999983520508,8|0,0:0|0:0,0:0:0:0:
199,58,48158,2,0,L|208:-26,1,53.9999983520508,0|0,0:0|0:0,0:0:0:0:
89,70,48330,2,0,L|94:123,1,53.9999983520508,0|0,0:0|0:0,0:0:0:0:
150,325,48502,2,0,L|155:378,1,53.9999983520508,2|0,0:0|0:0,0:0:0:0:
291,282,48675,2,0,L|237:276,1,53.9999983520508,8|0,0:0|0:0,0:0:0:0:
53,202,48847,2,0,L|0:196,1,53.9999983520508,0|0,0:0|0:0,0:0:0:0:
167,228,49020,5,2,0:0:0:0:
379,335,49192,2,0,P|398:285|394:250,1,53.9999983520508,0|0,0:0|0:0,0:0:0:0:
404,59,49365,2,0,P|352:45|317:52,1,53.9999983520508,8|0,0:0|0:0,0:0:0:0:
453,203,49537,2,0,P|428:155|399:134,1,53.9999983520508,2|0,0:0|0:0,0:0:0:0:
265,0,49709,2,0,P|220:29|202:59,1,53.9999983520508,2|0,0:0|0:0,0:0:0:0:
315,242,49882,2,0,L|325:173,1,53.9999983520508,2|0,0:0|0:0,0:0:0:0:
164,100,50054,1,8,0:0:0:0:
216,314,50227,1,2,0:0:0:0:
92,101,50399,6,0,L|161:107,1,53.9999983520508,2|0,0:0|0:0,0:0:0:0:
283,75,50571,2,0,L|336:70,1,53.9999983520508,0|0,0:0|0:0,0:0:0:0:
466,197,50744,2,0,P|389:223|326:150,1,161.999995056153,8|0,0:0|0:0,0:0:0:0:
406,142,51089,1,0,0:0:0:0:
267,357,51261,2,0,L|252:277,1,53.9999983520508,2|0,0:0|0:0,0:0:0:0:
512,125,51433,2,0,L|490:328,1,161.999995056153,8|0,0:0|0:0,0:0:0:0:
484,366,51778,1,2,0:0:0:0:
293,188,51951,6,0,P|329:197|363:222,1,53.9999983520508,0|0,0:0|0:0,0:0:0:0:
170,336,52123,2,0,L|181:250,1,53.9999983520508,8|0,0:0|0:0,0:0:0:0:
201,120,52296,2,0,L|207:173,1,53.9999983520508,0|0,0:0|0:0,0:0:0:0:
347,288,52468,2,0,P|373:282|397:270,1,53.9999983520508,0|0,0:0|0:0,0:0:0:0:
475,126,52640,2,0,L|405:132,1,53.9999983520508,2|0,0:0|0:0,0:0:0:0:
128,82,52813,2,0,P|189:95|252:15,1,161.999995056153,8|0,0:0|0:0,0:0:0:0:
173,17,53158,5,2,0:0:0:0:
395,44,53330,1,0,0:0:0:0:
215,179,53502,2,0,L|228:300,1,107.999996704102,8|0,0:0|0:0,0:0:0:0:
120,362,53847,1,0,0:0:0:0:
308,227,54020,1,2,0:0:0:0:
72,136,54192,1,8,0:0:0:0:
321,232,54365,1,0,0:0:0:0:
470,64,54537,6,0,L|274:79,1,161.999995056153,2|0,0:0|0:0,0:0:0:0:
225,84,54882,1,8,0:0:0:0:
421,171,55054,1,2,0:0:0:0:
207,73,55227,1,2,0:0:0:0:
170,261,55399,1,8,0:0:0:0:
437,162,55571,2,0,L|327:154,1,107.999996704102,8|2,0:0|0:0,0:0:0:0:
225,327,55916,6,0,P|255:275|257:245,1,53.9999983520508,4|0,0:0|0:0,0:0:0:0:
315,160,56089,2,0,P|296:102|275:81,1,53.9999983520508,0|0,0:0|0:0,0:0:0:0:
134,16,56261,2,0,B|119:137|119:137|136:206,1,161.999995056153,8|0,0:0|0:0,0:0:0:0:
203,130,56606,1,0,0:0:0:0:
111,253,56778,2,0,P|159:248|193:229,1,53.9999983520508,2|0,0:0|0:0,0:0:0:0:
8,341,56951,2,0,B|108:325|94:382|191:349,1,161.999995056153,8|0,0:0|0:0,0:0:0:0:
245,331,57296,6,0,P|299:358|317:277,1,161.999995056153,2|0,0:0|0:0,0:0:0:0:
256,193,57640,2,0,L|246:264,1,53.9999983520508,8|0,0:0|0:0,0:0:0:0:
415,251,57813,2,0,L|425:322,1,53.9999983520508,0|0,0:0|0:0,0:0:0:0:
285,58,57985,2,0,L|275:129,1,53.9999983520508,0|0,0:0|0:0,0:0:0:0:
413,0,58158,2,0,L|423:71,1,53.9999983520508,2|0,0:0|0:0,0:0:0:0:
173,165,58330,2,0,B|147:51|147:51|212:112,1,161.999995056153,8|0,0:0|0:0,0:0:0:0:
99,219,58675,6,0,L|26:214,1,53.9999983520508,2|0,0:0|0:0,0:0:0:0:
282,249,58847,2,0,L|209:254,1,53.9999983520508,0|0,0:0|0:0,0:0:0:0:
53,297,59020,2,0,L|-20:292,1,53.9999983520508,8|0,0:0|0:0,0:0:0:0:
315,331,59192,2,0,L|242:336,1,53.9999983520508,0|0,0:0|0:0,0:0:0:0:
126,382,59365,2,0,P|150:324|151:296,1,53.9999983520508,0|0,0:0|0:0,0:0:0:0:
173,165,59537,2,0,P|130:118|105:105,1,53.9999983520508,2|0,0:0|0:0,0:0:0:0:
123,332,59709,2,0,P|174:296|190:273,1,53.9999983520508,8|0,0:0|0:0,0:0:0:0:
258,111,59882,2,0,P|247:49|233:24,1,53.9999983520508,0|0,0:0|0:0,0:0:0:0:
55,83,60054,5,2,0:0:0:0:
272,202,60227,2,0,L|358:195,1,53.9999983520508,0|0,0:0|0:0,0:0:0:0:
415,306,60399,2,0,L|501:299,1,53.9999983520508,8|0,0:0|0:0,0:0:0:0:
386,103,60571,2,0,L|472:96,1,53.9999983520508,2|0,0:0|0:0,0:0:0:0:
165,276,60744,2,0,L|251:269,1,53.9999983520508,0|0,0:0|0:0,0:0:0:0:
111,47,60916,2,0,L|197:40,1,53.9999983520508,2|0,0:0|0:0,0:0:0:0:
30,362,61089,2,0,L|116:355,1,53.9999983520508,8|0,0:0|0:0,0:0:0:0:
287,201,61261,2,0,L|373:194,1,53.9999983520508,0|0,0:0|0:0,0:0:0:0:
33,117,61433,6,0,L|18:196,1,53.9999983520508,2|0,0:0|0:0,0:0:0:0:
248,54,61606,2,0,L|233:133,1,53.9999983520508,0|0,0:0|0:0,0:0:0:0:
74,252,61778,2,0,P|137:262|202:185,1,161.999995056153,8|0,0:0|0:0,0:0:0:0:
118,180,62123,1,0,0:0:0:0:
13,321,62296,2,0,P|59:339|93:361,1,53.9999983520508,2|0,0:0|0:0,0:0:0:0:
236,306,62468,2,0,P|301:303|363:381,1,161.999995056153,8|0,0:0|0:0,0:0:0:0:
276,383,62813,5,2,0:0:0:0:
362,165,62985,2,0,P|390:222|388:257,1,53.9999983520508,0|0,0:0|0:0,0:0:0:0:
152,132,63158,2,0,P|214:122|247:135,1,53.9999983520508,8|0,0:0|0:0,0:0:0:0:
391,61,63330,2,0,P|451:80|475:106,1,53.9999983520508,2|0,0:0|0:0,0:0:0:0:
195,165,63502,2,0,P|232:113|264:98,1,53.9999983520508,2|0,0:0|0:0,0:0:0:0:
463,161,63675,1,0,0:0:0:0:
261,33,63847,1,8,0:0:0:0:
252,272,64020,1,2,0:0:0:0:
256,192,64192,12,2,66089,0:0:0:0:
209,243,66261,6,0,L|201:293,1,31.4999990386963,2|0,0:0|0:0,0:0:0:0:
304,188,66433,2,0,L|312:238,1,31.4999990386963,0|0,0:0|0:0,0:0:0:0:
192,73,66606,2,0,L|184:123,1,31.4999990386963,8|0,0:0|0:0,0:0:0:0:
281,291,66778,2,0,L|289:341,1,31.4999990386963,2|0,0:0|0:0,0:0:0:0:
362,128,66951,6,0,P|306:105|272:112,1,53.9999983520508,6|0,0:0|0:0,0:0:0:0:
181,198,67123,2,0,P|134:236|124:269,1,53.9999983520508,0|0,0:0|0:0,0:0:0:0:
399,356,67296,2,0,P|442:306|405:209,1,161.999995056153,8|0,0:0|0:0,0:0:0:0:
365,280,67640,1,0,0:0:0:0:
512,139,67813,2,0,L|442:128,1,53.9999983520508,2|0,0:0|0:0,0:0:0:0:
327,176,67985,2,0,B|332:113|332:113|325:84|325:84|329:6,1,161.999995056153,8|0,0:0|0:0,0:0:0:0:
246,26,68330,6,0,B|243:95|243:95|250:124|250:124|245:187,1,161.999995056153,2|0,0:0|0:0,0:0:0:0:
232,278,68675,1,8,0:0:0:0:
110,170,68847,2,0,P|146:147|179:146,1,53.9999983520508,0|0,0:0|0:0,0:0:0:0:
336,96,69020,2,0,P|359:132|360:165,1,53.9999983520508,0|0,0:0|0:0,0:0:0:0:
410,322,69192,2,0,P|374:345|341:346,1,53.9999983520508,2|0,0:0|0:0,0:0:0:0:
444,147,69365,2,0,P|434:188|412:212,1,53.9999983520508,8|0,0:0|0:0,0:0:0:0:
336,359,69537,2,0,P|294:349|270:327,1,53.9999983520508,0|0,0:0|0:0,0:0:0:0:
164,278,69709,6,0,L|234:269,1,53.9999983520508,2|0,0:0|0:0,0:0:0:0:
354,152,69882,2,0,L|284:143,1,53.9999983520508,0|0,0:0|0:0,0:0:0:0:
68,327,70054,2,0,P|124:303|108:185,1,161.999995056153,8|0,0:0|0:0,0:0:0:0:
64,248,70399,1,0,0:0:0:0:
208,175,70571,2,0,P|170:137|129:127,1,53.9999983520508,2|0,0:0|0:0,0:0:0:0:
233,28,70744,2,0,P|155:92|82:48,1,161.999995056153,8|0,0:0|0:0,0:0:0:0:
154,8,71089,1,2,0:0:0:0:
338,17,71261,6,0,B|331:44|331:44|342:83,1,53.9999983520508,0|0,0:0|0:0,0:0:0:0:
315,213,71433,2,0,B|323:239|323:239|354:266,1,53.9999983520508,8|0,0:0|0:0,0:0:0:0:
443,0,71606,2,0,B|423:19|423:19|412:58,1,53.9999983520508,0|0,0:0|0:0,0:0:0:0:
236,194,71778,2,0,B|229:221|229:221|242:259,1,53.9999983520508,0|0,0:0|0:0,0:0:0:0:
482,203,71951,2,0,L|403:194,1,53.9999983520508,2|0,0:0|0:0,0:0:0:0:
284,134,72123,2,0,L|109:148,1,161.999995056153,8|0,0:0|0:0,0:0:0:0:
34,61,72468,6,0,P|86:69|122:93,1,53.9999983520508,2|0,0:0|0:0,0:0:0:0:
185,9,72640,2,0,P|205:57|204:100,1,53.9999983520508,0|0,0:0|0:0,0:0:0:0:
54,184,72813,2,0,P|117:178|168:271,1,161.999995056153,8|0,0:0|0:0,0:0:0:0:
94,251,73158,1,0,0:0:0:0:
20,375,73330,2,0,L|11:306,1,53.9999983520508,2|0,0:0|0:0,0:0:0:0:
234,171,73502,2,0,B|217:287|217:287|230:348,1,161.999995056153,8|0,0:0|0:0,0:0:0:0:
352,305,73847,6,0,B|404:266|404:266|284:291,1,161.999995056153,2|0,0:0|0:0,0:0:0:0:
210,333,74192,1,8,0:0:0:0:
467,373,74365,2,0,P|478:336|473:290,1,53.9999983520508,0|0,0:0|0:0,0:0:0:0:
393,96,74537,2,0,P|355:106|319:134,1,53.9999983520508,0|0,0:0|0:0,0:0:0:0:
512,213,74709,2,0,P|484:185|442:167,1,53.9999983520508,2|0,0:0|0:0,0:0:0:0:
233,142,74882,2,0,L|245:227,1,53.9999983520508,8|0,0:0|0:0,0:0:0:0:
362,374,75054,2,0,L|369:320,1,53.9999983520508,0|0,0:0|0:0,0:0:0:0:
404,91,75227,5,2,0:0:0:0:
245,282,75399,1,0,0:0:0:0:
153,53,75571,2,0,P|212:13|262:19,1,107.999996704102,8|0,0:0|0:0,0:0:0:0:
328,214,75916,1,0,0:0:0:0:
101,243,76089,1,2,0:0:0:0:
370,321,76261,2,0,L|362:381,1,53.9999983520508,8|0,0:0|0:0,0:0:0:0:
256,127,76433,1,0,0:0:0:0:
505,86,76606,6,0,B|386:101|386:101|339:80,1,161.999995056153,2|0,0:0|0:0,0:0:0:0:
402,17,76951,1,8,0:0:0:0:
178,35,77123,2,0,L|261:48,1,53.9999983520508,2|0,0:0|0:0,0:0:0:0:
349,176,77296,1,2,0:0:0:0:
157,225,77468,1,8,0:0:0:0:
316,3,77640,1,8,0:0:0:0:
408,249,77813,1,2,0:0:0:0:
166,139,77985,6,0,L|242:133,1,53.9999983520508,6|0,0:0|0:0,0:0:0:0:
23,243,78158,2,0,L|99:249,1,53.9999983520508,0|0,0:0|0:0,0:0:0:0:
253,364,78330,2,0,P|290:281|234:218,1,161.999995056153,8|0,0:0|0:0,0:0:0:0:
212,294,78675,1,0,0:0:0:0:
393,347,78847,2,0,P|401:289|389:253,1,53.9999983520508,2|0,0:0|0:0,0:0:0:0:
193,167,79020,2,0,L|378:178,1,161.999995056153,8|0,0:0|0:0,0:0:0:0:
403,80,79365,6,0,P|308:78|288:148,1,161.999995056153,2|0,0:0|0:0,0:0:0:0:
369,178,79709,1,8,0:0:0:0:
499,97,79882,2,0,L|487:38,1,53.9999983520508,0|0,0:0|0:0,0:0:0:0:
296,52,80054,2,0,L|308:-7,1,53.9999983520508,0|0,0:0|0:0,0:0:0:0:
200,182,80227,2,0,L|188:123,1,53.9999983520508,2|0,0:0|0:0,0:0:0:0:
27,107,80399,2,0,L|39:48,1,53.9999983520508,8|0,0:0|0:0,0:0:0:0:
131,299,80571,2,0,L|119:240,1,53.9999983520508,0|0,0:0|0:0,0:0:0:0:
325,241,80744,6,0,P|310:300|280:321,1,53.9999983520508,2|0,0:0|0:0,0:0:0:0:
197,353,80916,2,0,P|144:384|108:377,1,53.9999983520508,0|0,0:0|0:0,0:0:0:0:
250,205,81089,2,0,L|427:220,1,161.999995056153,8|0,0:0|0:0,0:0:0:0:
495,189,81433,1,0,0:0:0:0:
284,102,81606,2,0,L|211:113,1,53.9999983520508,2|0,0:0|0:0,0:0:0:0:
317,31,81778,2,0,P|362:87|319:174,1,161.999995056153,8|0,0:0|0:0,0:0:0:0:
259,194,82123,5,2,0:0:0:0:
139,102,82296,2,0,B|167:100|167:100|205:118,1,53.9999983520508,0|0,0:0|0:0,0:0:0:0:
221,319,82468,2,0,B|205:295|205:295|201:253,1,53.9999983520508,8|0,0:0|0:0,0:0:0:0:
368,140,82640,2,0,B|355:165|355:165|321:189,1,53.9999983520508,0|0,0:0|0:0,0:0:0:0:
117,234,82813,2,0,B|129:208|129:208|164:185,1,53.9999983520508,0|0,0:0|0:0,0:0:0:0:
264,54,82985,2,0,L|276:128,1,53.9999983520508,2|0,0:0|0:0,0:0:0:0:
361,261,83158,2,0,B|342:381|342:381|312:313,1,161.999995056153,8|0,0:0|0:0,0:0:0:0:
450,253,83502,6,0,P|509:276|525:295,1,53.9999983520508,2|0,0:0|0:0,0:0:0:0:
289,208,83675,2,0,P|344:177|369:177,1,53.9999983520508,0|0,0:0|0:0,0:0:0:0:
201,342,83847,2,0,P|219:286|135:211,1,161.999995056153,8|0,0:0|0:0,0:0:0:0:
141,291,84192,1,0,0:0:0:0:
166,133,84365,2,0,L|81:146,1,53.9999983520508,2|0,0:0|0:0,0:0:0:0:
307,36,84537,2,0,B|270:24|270:24|138:42,1,161.999995056153,8|0,0:0|0:0,0:0:0:0:
266,104,84882,6,0,B|303:92|303:92|435:110,1,161.999995056153,2|0,0:0|0:0,0:0:0:0:
508,118,85227,1,8,0:0:0:0:
324,257,85399,2,0,P|293:214|283:176,1,53.9999983520508,2|0,0:0|0:0,0:0:0:0:
79,98,85571,2,0,P|78:151|64:187,1,53.9999983520508,0|0,0:0|0:0,0:0:0:0:
185,370,85744,2,0,P|216:327|249:305,1,53.9999983520508,2|0,0:0|0:0,0:0:0:0:
258,89,85916,2,0,P|207:105|168:102,1,53.9999983520508,8|0,0:0|0:0,0:0:0:0:
34,272,86089,2,0,P|84:288|114:313,1,53.9999983520508,0|0,0:0|0:0,0:0:0:0:
256,192,86261,12,0,87296,0:0:0:0:
183,162,87554,6,8,L|228:164,2,26.9999991760254,8|8|8,3:0|3:0|3:0,3:0:0:0:
259,234,87813,5,0,0:0:0:0:
124,266,87985,1,2,0:0:0:0:
223,6,88158,1,8,0:0:0:0:
335,288,88330,1,2,0:0:0:0:
402,222,88502,1,2,0:0:0:0:
105,266,88675,1,8,0:0:0:0:
369,372,88847,1,2,0:0:0:0:
252,122,89020,6,0,L|258:229,1,99.0000030212403,6|0,0:0|0:0,0:0:0:0:
332,41,89365,1,8,0:0:0:0:
150,168,89537,1,8,3:0:0:0:
64,22,89709,2,0,P|133:31|171:75,1,99.0000030212403,2|2,3:0|0:0,0:0:0:0:
92,283,90054,1,8,0:0:0:0:
0,137,90227,1,0,0:0:0:0:
246,101,90399,6,0,L|240:208,1,99.0000030212403,2|0,0:0|0:0,0:0:0:0:
329,360,90744,1,8,0:0:0:0:
437,218,90916,1,8,3:0:0:0:
212,276,91089,2,0,P|278:273|313:233,1,99.0000030212403,2|2,3:0|0:0,0:0:0:0:
148,114,91433,1,8,0:0:0:0:
111,332,91606,6,0,L|5:320,1,99.0000030212403,0|2,0:0|0:0,0:0:0:0:
209,52,91951,2,0,P|235:105|223:159,1,99.0000030212403,0|8,0:0|0:0,0:0:0:0:
44,122,92296,1,8,3:0:0:0:
306,67,92468,1,2,3:0:0:0:
30,120,92640,1,2,0:0:0:0:
251,298,92813,1,8,0:0:0:0:
146,143,92985,1,0,0:0:0:0:
188,358,93158,5,2,0:0:0:0:
331,228,93330,1,0,0:0:0:0:
119,305,93502,1,8,0:0:0:0:
348,376,93675,1,8,3:0:0:0:
251,162,93847,2,0,L|261:94,1,49.5000015106202,2|0,3:0|0:0,0:0:0:0:
403,49,94020,2,0,L|413:-19,1,49.5000015106202,2|0,0:0|0:0,0:0:0:0:
165,7,94192,2,0,L|177:118,1,99.0000030212403,8|2,0:0|0:0,0:0:0:0:
389,291,94537,6,0,P|417:239|390:166,1,99.0000030212403,6|0,0:0|0:0,0:0:0:0:
289,326,94882,1,8,0:0:0:0:
511,284,95054,1,8,3:0:0:0:
322,111,95227,2,0,L|328:218,1,99.0000030212403,2|2,3:0|0:0,0:0:0:0:
291,341,95571,1,8,0:0:0:0:
176,198,95744,1,0,0:0:0:0:
41,353,95916,6,0,P|104:352|136:295,1,99.0000030212403,2|0,0:0|0:0,0:0:0:0:
31,169,96261,1,8,0:0:0:0:
188,202,96433,1,8,3:0:0:0:
109,15,96606,2,0,L|101:118,1,99.0000030212403,2|2,3:0|0:0,0:0:0:0:
311,238,96951,2,0,P|289:175|244:152,1,99.0000030212403,8|0,0:0|0:0,0:0:0:0:
33,268,97296,5,2,0:0:0:0:
230,231,97468,1,0,0:0:0:0:
110,384,97640,2,0,L|123:265,1,99.0000030212403,8|8,0:0|3:0,0:0:0:0:
92,108,97985,1,2,3:0:0:0:
253,152,98158,1,2,0:0:0:0:
11,265,98330,1,8,0:0:0:0:
151,42,98502,1,0,0:0:0:0:
213,230,98675,5,2,0:0:0:0:
11,164,98847,1,0,0:0:0:0:
230,235,99020,1,8,0:0:0:0:
28,169,99192,1,2,3:0:0:0:
285,100,99365,1,6,0:0:0:0:
139,365,99537,2,0,L|150:298,1,49.5000015106202,8|0,0:0|0:0,0:0:0:0:
295,84,99709,2,0,L|303:132,1,49.5000015106202,8|0,0:0|0:0,0:0:0:0:
154,356,99882,1,2,0:0:0:0:
375,173,100054,6,0,P|324:211|260:197,1,99.0000030212403,6|0,0:0|0:0,0:0:0:0:
230,21,100399,1,8,0:0:0:0:
409,86,100571,1,8,3:0:0:0:
203,242,100744,2,0,L|214:126,1,99.0000030212403,2|2,3:0|0:0,0:0:0:0:
213,10,101089,1,8,0:0:0:0:
78,149,101261,1,0,0:0:0:0:
343,170,101433,6,0,P|337:108|292:67,1,99.0000030212403,2|0,0:0|0:0,0:0:0:0:
282,248,101778,1,8,0:0:0:0:
485,190,101951,1,8,3:0:0:0:
311,351,102123,2,0,L|200:338,1,99.0000030212403,2|2,3:0|0:0,0:0:0:0:
12,359,102468,1,8,0:0:0:0:
198,184,102640,6,0,P|144:188|107:230,1,99.0000030212403,0|2,0:0|0:0,0:0:0:0:
369,290,102985,2,0,L|359:187,1,99.0000030212403,0|8,0:0|0:0,0:0:0:0:
421,55,103330,1,8,3:0:0:0:
280,153,103502,1,2,3:0:0:0:
478,216,103675,1,2,0:0:0:0:
338,12,103847,1,8,0:0:0:0:
266,165,104020,1,0,0:0:0:0:
439,44,104192,5,2,0:0:0:0:
249,7,104365,1,0,0:0:0:0:
457,49,104537,1,8,0:0:0:0:
184,106,104709,1,8,3:0:0:0:
365,166,104882,2,0,L|361:216,1,49.5000015106202,2|0,3:0|0:0,0:0:0:0:
246,306,105054,2,0,L|240:242,1,49.5000015106202,2|0,0:0|0:0,0:0:0:0:
458,204,105227,2,0,P|502:251|474:348,1,148.50000453186,8|0,0:0|0:0,0:0:0:0:
420,365,105571,6,0,L|297:352,1,99.0000030212403,6|0,0:0|0:0,0:0:0:0:
156,378,105916,1,8,0:0:0:0:
252,238,106089,1,8,3:0:0:0:
109,147,106261,2,0,P|48:159|18:207,1,99.0000030212403,2|2,3:0|0:0,0:0:0:0:
186,294,106606,1,8,0:0:0:0:
282,121,106778,6,0,L|271:11,1,99.0000030212403,0|2,0:0|0:0,0:0:0:0:
168,207,107123,1,0,0:0:0:0:
364,185,107296,2,0,P|434:168|458:124,1,99.0000030212403,8|8,0:0|3:0,0:0:0:0:
166,109,107640,2,0,L|156:207,1,99.0000030212403,0|2,0:0|0:0,0:0:0:0:
306,372,107985,2,0,L|296:273,1,99.0000030212403,8|0,0:0|0:0,0:0:0:0:
107,310,108330,5,4,3:0:0:0:
256,192,108416,12,0,111778,0:0:0:0:
