osu file format v14

[General]
AudioFilename: audio.mp3
AudioLeadIn: 0
PreviewTime: 88502
Countdown: 0
SampleSet: Soft
StackLeniency: 0.7
Mode: 0
LetterboxInBreaks: 0
WidescreenStoryboard: 1

[Editor]
Bookmarks: 74881
DistanceSpacing: 1
BeatDivisor: 4
GridSize: 4
TimelineZoom: 2.1

[Metadata]
Title:Come Back Down
TitleUnicode:Come Back Down
Artist:Mediks
ArtistUnicode:Mediks
Creator:[Kamiya]
Version:Oiso's Normal
Source:
Tags:Oiso papapa213 Emilia remix
BeatmapID:1377766
BeatmapSetID:639013

[Difficulty]
HPDrainRate:4
CircleSize:3.4
OverallDifficulty:5
ApproachRate:6
SliderMultiplier:1
SliderTickRate:1

[Events]
//Background and Video events
0,0,"bg.jpg",0,0
//Break Periods
2,24047,32047
//Storyboard Layer 0 (Background)
//Storyboard Layer 1 (Fail)
//Storyboard Layer 2 (Pass)
//Storyboard Layer 3 (Foreground)
//Storyboard Sound Samples

[TimingPoints]
-635,344.827586206897,4,2,0,50,1,0
744,-100,4,2,0,50,0,0
22812,-100,4,2,8,60,0,0
33847,-100,4,2,8,60,0,0
42122,-100,4,2,8,70,0,0
44192,-100,4,2,8,70,0,0
44365,-100,4,2,8,70,0,0
44537,-100,4,2,8,70,0,0
77467,-100,4,2,8,50,0,0
77985,-100,4,2,8,70,0,0
89020,-100,4,2,8,85,0,1
108330,-100,4,2,0,70,0,0
111089,-100,4,2,0,5,0,0

[Colours]
Combo1 : 255,255,111
Combo2 : 128,0,128
Combo3 : 49,141,255
Combo4 : 242,24,57

[HitObjects]
106,192,227,6,0,L|156:192,1,50
256,192,744,6,0,L|456:192,2,200,2|0|0,0:0|0:0|0:0,0:0:0:0:
104,192,2640,1,0,0:0:0:0:
104,140,2813,2,0,L|104:40,1,100
156,40,3330,2,0,L|208:40,1,50
256,40,3675,2,0,L|256:190,1,150
256,194,5744,2,0,L|256:248,1,50,0|0,0:0|0:0,0:0:0:0:
256,344,6261,6,0,L|456:344,1,200,2|0,0:0|0:0,0:0:0:0:
456,192,7468,2,0,L|356:192,1,100
304,192,7985,2,0,L|304:248,1,50,0|0,0:0|0:0,0:0:0:0:
256,244,8330,2,0,L|256:296,1,50,0|0,0:0|0:0,0:0:0:0:
256,344,8675,2,0,L|40:344,2,200
406,192,11261,2,0,L|356:192,1,50
256,192,11778,6,0,L|56:192,2,200,2|0|2,0:0|0:0|0:0,0:0:0:0:
408,192,13675,1,0,0:0:0:0:
408,140,13847,2,0,L|408:40,1,100,2|0,0:0|0:0,0:0:0:0:
356,40,14365,2,0,L|304:40,1,50
256,40,14710,2,0,L|256:190,1,150
256,194,16778,2,0,L|256:248,1,50,0|0,0:0|0:0,0:0:0:0:
256,344,17296,6,0,L|56:344,1,200,2|0,0:0|0:0,0:0:0:0:
56,192,18502,2,0,L|156:192,1,100,0|0,0:0|0:0,0:0:0:0:
208,192,19020,2,0,L|208:244,1,50,0|0,0:0|0:0,0:0:0:0:
256,244,19365,2,0,L|256:296,1,50,0|0,0:0|0:0,0:0:0:0:
256,344,19709,2,0,L|456:344,2,200
256,44,22123,2,0,L|256:96,1,50
256,144,22468,2,0,L|56:144,2,200
256,192,33847,6,0,L|256:292,1,100,2|0,0:0|0:0,0:0:0:0:
156,292,34537,2,0,L|56:292,1,100
56,192,35227,2,0,L|56:88,1,100
156,92,35916,2,0,L|256:92,1,100
256,192,36606,6,0,L|256:248,2,50,2|0|0,0:0|0:0|0:0,0:0:0:0:
356,192,37296,2,0,L|456:192,1,100,0|0,0:0|0:0,0:0:0:0:
456,92,37985,2,0,L|456:36,2,50,0|0|0,0:0|0:0|0:0,0:0:0:0:
356,92,38675,2,0,L|256:92,1,100,0|0,0:0|0:0,0:0:0:0:
156,92,39365,6,0,L|56:92,1,100,2|0,0:0|0:0,0:0:0:0:
16,184,40054,2,0,P|7:233|15:282,1,100
56,376,40744,2,0,L|156:376,1,100
196,284,41433,2,0,P|204:234|196:185,1,100
156,92,42123,6,0,P|28:235|196:184,1,500,2|0,0:0|0:0,0:0:0:0:
196,84,44192,2,0,L|196:32,1,50,8|8,0:0|0:0,0:0:0:0:
244,20,44537,2,0,L|296:20,1,50,8|0,0:0|0:0,0:0:0:0:
324,60,44882,6,0,B|324:108|324:108|272:108|272:108|272:308,1,300,2|8,0:0|0:0,0:0:0:0:
172,308,46261,2,0,L|72:308,1,100,0|8,0:0|0:0,0:0:0:0:
20,308,46778,1,2,0:0:0:0:
20,260,46951,1,2,0:0:0:0:
20,212,47123,2,0,L|20:108,1,100,8|0,0:0|0:0,0:0:0:0:
20,60,47640,6,0,B|72:60|72:60|72:108|72:108|124:108|124:108|124:60|124:60|176:60|176:60|176:108|176:108|228:108,1,350,8|2,0:0|0:0,0:0:0:0:
328,108,49192,2,0,B|380:108|380:108|380:156|380:156|432:156|432:156|432:204|432:204|380:204|380:204|380:256,1,300,8|2,0:0|0:0,0:0:0:0:
380,304,50399,5,8,0:0:0:0:
380,356,50571,1,10,0:0:0:0:
332,356,50744,2,0,L|128:356,1,200,2|8,0:0|0:0,0:0:0:0:
4,276,51951,2,0,L|4:224,2,50,0|8|0,0:0|0:0|0:0,0:0:0:0:
56,276,52468,1,0,0:0:0:0:
108,276,52640,2,0,L|208:276,1,100,2|0,0:0|0:0,0:0:0:0:
260,276,53158,6,0,B|312:276|312:276|312:228|312:228|364:228|364:228|364:376,1,300,2|8,0:0|0:0,0:0:0:0:
416,376,54365,2,0,L|416:212,1,150,0|8,0:0|0:0,0:0:0:0:
468,224,55054,2,0,L|468:60,1,150,2|8,0:0|0:0,0:0:0:0:
368,72,55916,6,0,B|316:72|316:72|316:120|316:120|112:120,1,300,2|8,0:0|0:0,0:0:0:0:
16,120,57296,2,0,L|16:20,1,100,2|8,0:0|0:0,0:0:0:0:
68,20,57813,1,0,0:0:0:0:
120,20,57985,1,0,0:0:0:0:
172,20,58158,2,0,L|172:120,1,100,8|0,0:0|0:0,0:0:0:0:
172,172,58675,6,0,B|172:224|172:224|124:224|124:224|124:276|124:276|172:276|172:276|172:328|172:328|124:328|124:328|124:380,1,350,8|2,0:0|0:0,0:0:0:0:
224,380,60227,2,0,B|276:380|276:380|276:332|276:332|328:332|328:332|328:380|328:380|380:380|380:380|380:324,1,300,8|2,0:0|0:0,0:0:0:0:
380,284,61433,5,8,0:0:0:0:
380,232,61606,1,8,0:0:0:0:
380,184,61778,2,0,L|180:184,1,200,2|8,0:0|0:0,0:0:0:0:
80,72,62985,2,0,L|28:72,2,50,0|8|2,0:0|0:0|0:0,0:0:0:0:
132,72,63502,1,2,0:0:0:0:
184,72,63675,2,0,L|292:72,1,100,8|2,0:0|0:0,0:0:0:0:
336,72,64192,6,0,P|517:168|337:266,1,500,2|0,0:0|0:0,0:0:0:0:
264,200,66261,1,10,0:0:0:0:
216,200,66433,1,8,0:0:0:0:
216,148,66606,1,8,0:0:0:0:
216,100,66778,1,8,0:0:0:0:
164,100,66951,6,0,B|112:100|112:100|112:52|112:52|312:52,1,300,2|8,0:0|0:0,0:0:0:0:
400,96,68330,2,0,L|500:96,1,100,0|8,0:0|0:0,0:0:0:0:
500,148,68847,1,0,0:0:0:0:
500,200,69020,2,0,L|448:200,1,50,0|2,0:0|0:0,0:0:0:0:
408,228,69365,2,0,L|356:228,1,50,8|0,0:0|0:0,0:0:0:0:
316,256,69709,2,0,B|264:256|264:256|264:304|264:304|464:304,1,300,2|8,0:0|0:0,0:0:0:0:
380,180,71261,2,0,L|328:180,2,50,0|8|0,0:0|0:0|0:0,0:0:0:0:
420,152,71778,2,0,L|472:152,1,50,0|2,0:0|0:0,0:0:0:0:
512,180,72123,1,8,0:0:0:0:
512,80,72468,6,0,B|512:28|512:28|464:28|464:28|462:238,1,300,2|8,0:0|0:0,0:0:0:0:
364,228,73847,2,0,L|264:228,1,100,2|8,0:0|0:0,0:0:0:0:
212,228,74365,1,0,0:0:0:0:
164,228,74537,2,0,L|114:228,1,50,0|2,0:0|0:0,0:0:0:0:
114,176,74882,2,0,L|64:176,1,50,8|0,0:0|0:0,0:0:0:0:
64,124,75227,6,0,B|64:76|64:76|116:76|116:76|116:124|116:124|268:124,1,300,2|8,0:0|0:0,0:0:0:0:
268,172,76433,2,0,L|418:172,1,150,0|8,0:0|0:0,0:0:0:0:
418,222,77123,2,0,L|418:372,1,150,2|8,0:0|0:0,0:0:0:0:
316,372,77985,6,0,B|264:372|264:372|264:324|264:324|464:324,1,300,2|8,0:0|0:0,0:0:0:0:
464,224,79365,2,0,L|464:108,1,100,2|8,0:0|0:0,0:0:0:0:
464,72,79882,1,0,0:0:0:0:
416,68,80054,2,0,L|364:68,1,50,0|2,0:0|0:0,0:0:0:0:
316,68,80399,2,0,L|316:120,1,50,8|0,0:0|0:0,0:0:0:0:
316,168,80744,6,0,B|264:168|264:168|264:216|264:216|64:216,1,300,2|8,0:0|0:0,0:0:0:0:
192,292,82296,2,0,L|244:292,2,50,0|8|0,0:0|0:0|0:0,0:0:0:0:
144,308,82813,2,0,L|92:308,1,50,0|2,0:0|0:0,0:0:0:0:
48,324,83158,1,8,0:0:0:0:
48,224,83502,6,0,L|148:224,1,100,2|8,0:0|0:0,0:0:0:0:
148,124,84192,2,0,L|248:124,1,100,0|8,0:0|0:0,0:0:0:0:
252,224,84882,2,0,L|352:224,1,100,2|8,0:0|0:0,0:0:0:0:
356,324,85571,2,0,L|456:324,1,100,0|8,0:0|0:0,0:0:0:0:
491,230,86261,6,0,P|426:121|352:224,1,300,2|0,0:0|0:0,0:0:0:0:
356,324,87640,2,0,L|456:324,1,100,8|2,0:0|0:0,0:0:0:0:
500,348,88158,2,0,L|400:348,1,100,8|2,0:0|0:0,0:0:0:0:
356,324,88675,2,0,L|304:324,1,50,8|2,0:0|0:0,0:0:0:0:
256,332,89020,6,0,L|156:332,1,100,2|8,0:0|0:0,0:0:0:0:
56,332,89709,2,0,L|-4:332,2,50,2|2|8,3:0|0:0|0:0,0:0:0:0:
156,332,90399,2,0,L|156:228,1,100,2|8,0:0|0:0,0:0:0:0:
156,132,91089,2,0,L|156:80,2,50,2|2|8,3:0|0:0|0:0,0:0:0:0:
156,232,91778,2,0,L|256:232,1,100,2|8,0:0|0:0,0:0:0:0:
356,232,92468,2,0,L|416:232,2,50,2|2|8,3:0|0:0|0:0,0:0:0:0:
256,232,93158,2,0,L|256:132,1,100,2|8,0:0|0:0,0:0:0:0:
256,32,93847,2,0,L|308:32,1,50,2|2,3:0|0:0,0:0:0:0:
340,68,94192,2,0,L|392:68,1,50,8|2,0:0|0:0,0:0:0:0:
424,32,94537,6,0,L|424:136,1,100,2|8,0:0|0:0,0:0:0:0:
424,232,95227,2,0,L|424:288,2,50,2|2|8,3:0|0:0|0:0,0:0:0:0:
424,132,95916,2,0,L|324:132,1,100,2|8,0:0|0:0,0:0:0:0:
224,132,96606,2,0,L|160:132,2,50,2|2|8,3:0|0:0|0:0,0:0:0:0:
324,132,97296,2,0,L|324:232,1,100,2|8,0:0|0:0,0:0:0:0:
324,332,97985,2,0,L|324:396,2,50,2|2|8,3:0|0:0|0:0,0:0:0:0:
324,232,98675,2,0,L|224:232,1,100,2|8,0:0|0:0,0:0:0:0:
124,228,99365,2,0,L|72:228,2,50,6|8|8,0:0|0:0|0:0,0:0:0:0:
156,192,99882,1,2,0:0:0:0:
188,156,100054,6,0,L|288:156,1,100,6|8,0:0|0:0,0:0:0:0:
288,56,100744,2,0,L|288:0,2,50,2|2|8,3:0|0:0|0:0,0:0:0:0:
288,156,101433,2,0,L|288:256,1,100,2|8,0:0|0:0,0:0:0:0:
388,256,102123,2,0,L|444:256,2,50,2|2|8,3:0|0:0|0:0,0:0:0:0:
288,256,102813,2,0,L|188:256,1,100,2|8,0:0|0:0,0:0:0:0:
188,156,103502,2,0,L|188:100,2,50,2|2|8,3:0|0:0|0:0,0:0:0:0:
188,256,104192,2,0,L|188:356,1,100,2|8,0:0|0:0,0:0:0:0:
288,356,104882,2,0,L|338:356,1,50,2|2,3:0|0:0,0:0:0:0:
372,320,105227,2,0,L|422:320,1,50,8|0,0:0|0:0,0:0:0:0:
456,356,105571,6,0,L|456:256,1,100,2|8,0:0|0:0,0:0:0:0:
456,156,106261,2,0,L|456:104,2,50,2|2|8,3:0|0:0|0:0,0:0:0:0:
456,256,106951,2,0,L|356:256,1,100,2|8,0:0|0:0,0:0:0:0:
256,256,107640,2,0,L|204:256,2,50,0|2|8,0:0|0:0|0:0,0:0:0:0:
256,192,108330,12,0,111089,0:0:0:0:
