osu file format v14

[General]
AudioFilename: audio.mp3
AudioLeadIn: 0
PreviewTime: 88502
Countdown: 0
SampleSet: Soft
StackLeniency: 0.7
Mode: 0
LetterboxInBreaks: 0
WidescreenStoryboard: 1

[Editor]
Bookmarks: 59365
DistanceSpacing: 1
BeatDivisor: 4
GridSize: 4
TimelineZoom: 2.1

[Metadata]
Title:Come Back Down
TitleUnicode:Come Back Down
Artist:Mediks
ArtistUnicode:Mediks
Creator:[Kamiya]
Version:Insane
Source:
Tags:Oiso papapa213 Emilia remix
BeatmapID:1380885
BeatmapSetID:639013

[Difficulty]
HPDrainRate:6
CircleSize:4
OverallDifficulty:7.5
ApproachRate:9
SliderMultiplier:1.60000000596046
SliderTickRate:1

[Events]
//Background and Video events
0,0,"bg.jpg",0,0
//Break Periods
//Storyboard Layer 0 (Background)
//Storyboard Layer 1 (Fail)
//Storyboard Layer 2 (Pass)
//Storyboard Layer 3 (Foreground)
//Storyboard Sound Samples

[TimingPoints]
-635,344.827586206897,4,2,0,50,1,0
54,-133.333333333333,4,2,0,50,0,0
11778,-133.333333333333,4,2,0,50,0,0
22812,-100,4,2,9,60,0,0
33847,-100,4,2,8,60,0,0
42122,-200,4,2,8,70,0,0
44192,-100,4,2,31,70,0,0
44365,-100,4,2,30,70,0,0
44537,-100,4,2,8,70,0,0
44882,-100,4,2,8,70,0,0
50054,-83.3333333333333,4,2,8,70,0,0
50399,-100,4,2,8,70,0,0
66951,-100,4,2,8,70,0,0
71433,-83.3333333333333,4,2,8,70,0,0
71606,-71.4285714285714,4,2,8,70,0,0
71778,-62.5,4,2,8,70,0,0
71951,-55.5555555555556,4,2,8,70,0,0
72123,-100,4,2,8,70,0,0
77467,-100,4,2,8,50,0,0
77985,-100,4,2,8,70,0,0
82468,-83.3333333333333,4,2,8,70,0,0
82640,-71.4285714285714,4,2,8,70,0,0
82813,-62.5,4,2,8,70,0,0
82985,-55.5555555555556,4,2,8,70,0,0
83158,-100,4,2,8,70,0,0
87554,-83.3333333333333,4,2,8,70,0,0
87813,-100,4,2,8,70,0,0
89020,-100,4,2,8,85,0,1
108330,-100,4,2,0,70,0,0
111089,-100,4,2,0,5,0,0

[Colours]
Combo1 : 255,255,111
Combo2 : 128,0,128
Combo3 : 49,141,255
Combo4 : 242,24,57

[HitObjects]
332,312,744,5,2,0:0:0:0:
332,292,3502,5,2,0:0:0:0:
332,268,6261,5,2,0:0:0:0:
332,248,9020,5,2,0:0:0:0:
256,92,10399,1,2,0:0:0:0:
164,204,11261,2,0,P|132:196|104:204,1,60.0000025123357
76,192,11778,6,0,P|132:176|192:192,1,120.000005024671,2|0,0:0|0:0,0:0:0:0:
236,248,12296,1,0,0:0:0:0:
236,248,12468,2,0,P|264:184|236:132,1,120.000005024671
204,80,12985,1,0,0:0:0:0:
204,80,13158,2,0,P|156:124|140:184,1,120.000005024671
136,248,13675,1,0,0:0:0:0:
136,248,13847,2,0,L|272:248,1,120.000005024671
328,248,14365,1,0,0:0:0:0:
292,312,14537,1,2,0:0:0:0:
368,184,14709,2,0,B|408:204|420:268|380:304|380:304|408:280|432:296,1,180.000007537007
368,184,16778,2,0,P|396:177|425:185,1,60.0000025123357
444,176,17296,6,0,P|396:156|328:176,1,120.000005024671,2|0,0:0|0:0,0:0:0:0:
272,216,17813,1,0,0:0:0:0:
272,216,17985,2,0,P|260:184|296:108,1,120.000005024671
332,172,18502,2,0,P|344:228|308:280,1,120.000005024671
244,308,19020,1,0,0:0:0:0:
304,352,19192,1,0,0:0:0:0:
244,308,19365,2,0,L|116:308,1,120.000005024671
184,176,20054,5,2,0:0:0:0:
304,352,21433,1,2,0:0:0:0:
432,212,22813,6,0,P|460:144|424:64,1,160.000000596046,6|0,0:0|0:0,0:0:0:0:
364,116,23330,1,2,0:0:0:0:
296,160,23502,2,0,P|256:172|216:164,1,80.0000002980232,0|2,0:0|0:0,0:0:0:0:
156,112,23847,2,0,P|112:100|72:112,1,80.0000002980232,8|0,0:0|0:0,0:0:0:0:
40,176,24192,2,0,L|32:256,2,80.0000002980232,2|0|8,0:0|0:0|0:0,0:0:0:0:
79,107,24709,1,2,0:0:0:0:
148,64,24882,2,0,L|140:24,2,40.0000001490116,0|0|0,0:0|0:0|0:0,0:0:0:0:
176,180,25227,1,8,0:0:0:0:
336,188,25571,6,0,B|344:128|304:80|304:80|364:100,1,160.000000596046,6|8,0:0|0:0,0:0:0:0:
424,116,26089,1,2,0:0:0:0:
460,188,26261,2,0,P|472:232|464:268,1,80.0000002980232,0|2,0:0|0:0,0:0:0:0:
384,276,26606,2,0,P|376:320|388:364,1,80.0000002980232,8|2,0:0|0:0,0:0:0:0:
304,352,26951,2,0,L|208:336,2,80.0000002980232,2|0|8,0:0|0:0|0:0,0:0:0:0:
383,353,27468,1,2,0:0:0:0:
452,316,27640,2,0,L|500:324,2,40.0000001490116,0|0|0,0:0|0:0|0:0,0:0:0:0:
412,204,27985,1,10,0:0:0:0:
300,252,28158,1,2,0:0:0:0:
300,252,28244,1,0,0:0:0:0:
300,252,28330,6,0,P|272:184|304:104,1,160.000000596046,6|8,0:0|0:0,0:0:0:0:
356,48,28847,1,2,0:0:0:0:
428,12,29020,2,0,P|440:56|428:88,1,80.0000002980232,0|2,0:0|0:0,0:0:0:0:
368,140,29365,2,0,P|356:188|368:220,1,80.0000002980232,8|0,0:0|0:0,0:0:0:0:
424,268,29709,2,0,L|504:240,2,80.0000002980232,2|0|8,0:0|0:0|0:0,0:0:0:0:
348,296,30227,1,2,0:0:0:0:
280,256,30399,2,0,L|228:272,2,40.0000001490116,0|0|0,0:0|0:0|0:0,0:0:0:0:
360,164,30744,1,10,0:0:0:0:
348,296,30916,1,0,0:0:0:0:
284,148,31089,6,0,P|336:88|420:112,1,160.000000596046,6|8,0:0|0:0,0:0:0:0:
472,148,31606,1,2,0:0:0:0:
320,220,31778,2,0,P|228:204|208:124,1,160.000000596046,0|8,0:0|0:0,0:0:0:0:
204,68,32296,1,0,0:0:0:0:
276,36,32468,2,0,L|368:36,2,80.0000002980232,2|0|8,0:0|0:0|0:0,0:0:0:0:
204,68,32985,1,2,0:0:0:0:
56,104,33158,6,0,P|80:148|144:160,1,120.000000447035,0|0,0:0|0:0,0:0:0:0:
176,136,33502,2,0,L|176:240,1,80.0000002980232,10|0,0:0|0:0,0:0:0:0:
144,320,33847,5,6,0:0:0:0:
384,320,34192,1,0,0:0:0:0:
384,80,34537,1,0,0:0:0:0:
144,80,34882,1,0,0:0:0:0:
256,348,35227,5,2,0:0:0:0:
411,192,35571,1,0,0:0:0:0:
256,36,35916,1,0,0:0:0:0:
100,192,36261,1,0,0:0:0:0:
384,320,36606,6,2,L|304:320,1,80.000000298023,2|0,0:0|0:0,0:0:0:0:
312,240,36951,2,0,L|232:240,1,80.000000298023,2|0,0:0|0:0,0:0:0:0:
136,168,37296,6,0,L|216:168,1,80.000000298023,2|0,0:0|0:0,0:0:0:0:
208,88,37641,2,0,L|288:88,1,80.000000298023,2|0,0:0|0:0,0:0:0:0:
392,28,37985,6,0,L|392:116,1,80.000000298023,2|0,0:0|0:0,0:0:0:0:
324,152,38330,2,0,L|324:240,1,80.000000298023,2|0,0:0|0:0,0:0:0:0:
248,324,38675,6,0,L|248:244,1,80.000000298023,2|0,0:0|0:0,0:0:0:0:
180,200,39020,2,0,L|180:120,1,80.000000298023,2|0,0:0|0:0,0:0:0:0:
180,40,39365,5,2,0:0:0:0:
180,160,39537,1,2,0:0:0:0:
300,160,39709,1,2,0:0:0:0:
300,40,39882,1,2,0:0:0:0:
180,160,40054,5,2,0:0:0:0:
300,160,40227,1,2,0:0:0:0:
300,40,40399,1,2,0:0:0:0:
180,40,40571,1,2,0:0:0:0:
300,160,40744,5,2,0:0:0:0:
300,40,40916,1,2,0:0:0:0:
180,40,41089,1,2,0:0:0:0:
180,160,41261,1,2,0:0:0:0:
300,40,41433,5,2,0:0:0:0:
180,40,41606,1,2,0:0:0:0:
180,160,41778,1,2,0:0:0:0:
300,160,41951,1,2,0:0:0:0:
104,152,42123,6,0,B|108:212|164:232|164:232|192:244|204:280|180:324|180:324|204:280|260:268|260:268|292:260|312:284|312:284|332:308|372:312,1,440.000001639126,6|0,0:0|0:0,0:0:0:0:
448,276,44192,5,8,0:0:0:0:
400,212,44365,1,8,0:0:0:0:
324,104,44537,5,8,0:0:0:0:
316,184,44709,1,0,0:0:0:0:
400,80,44882,6,0,L|372:40,1,40.0000001490115,6|0,0:0|0:0,0:0:0:0:
324,104,45054,2,0,L|296:64,1,40.0000001490115,0|0,0:0|0:0,0:0:0:0:
248,132,45227,6,0,B|232:212|232:212|252:300,1,160.000000596046,8|0,0:0|0:0,0:0:0:0:
320,328,45744,1,2,0:0:0:0:
324,216,45916,2,0,P|248:188|172:216,1,160.000000596046,8|2,0:0|0:0,0:0:0:0:
120,292,46433,1,0,0:0:0:0:
116,144,46606,6,0,L|116:96,1,40.0000001490115,8|0,0:0|0:0,0:0:0:0:
48,184,46778,2,0,L|48:228,1,40.0000001490115,0|0,0:0|0:0,0:0:0:0:
116,104,46951,2,0,L|116:64,1,40.0000001490115
48,224,47123,2,0,L|48:276,1,40.0000001490115
192,144,47296,6,0,L|192:24,1,120.000000447034,8|0,0:0|0:0,0:0:0:0:
264,36,47640,6,0,B|264:56|264:56|272:80,1,40.0000001490115,2|0,0:0|0:0,0:0:0:0:
304,140,47813,2,0,B|312:156|312:156|332:172,1,40.0000001490115
345,169,47985,6,0,B|328:156|328:156|320:140,1,40.0000001490115,8|0,0:0|0:0,0:0:0:0:
284,76,48158,2,0,B|277:57|277:57|277:37,1,40.0000001490115
292,36,48330,6,0,B|292:56|292:56|298:74,1,40.0000001490115
332,140,48503,2,0,B|340:156|340:156|357:169,1,40.0000001490115,2|0,0:0|0:0,0:0:0:0:
368,168,48675,6,0,B|350:154|350:154|342:138,1,40.0000001490115,8|0,0:0|0:0,0:0:0:0:
310,74,48847,2,0,B|303:55|303:55|303:35,1,40.0000001490115
376,40,49020,1,2,0:0:0:0:
420,108,49192,1,0,0:0:0:0:
368,168,49365,5,8,0:0:0:0:
260,112,49537,1,2,0:0:0:0:
236,188,49709,2,0,L|224:228,1,40.0000001490115,2|0,0:0|0:0,0:0:0:0:
156,256,49882,2,0,L|140:304,1,40.0000001490115,2|0,0:0|0:0,0:0:0:0:
264,336,50054,6,0,P|216:320|196:320,1,47.9999987139701,8|0,0:0|0:0,0:0:0:0:
143,293,50227,1,2,0:0:0:0:
32,332,50399,6,0,L|48:288,1,40.0000001490115,2|0,0:0|0:0,0:0:0:0:
8,232,50571,2,0,L|24:192,1,40.0000001490115,0|0,0:0|0:0,0:0:0:0:
52,124,50744,2,0,B|136:112|136:112|216:128,1,160.000000596046,8|0,0:0|0:0,0:0:0:0:
288,148,51261,1,2,0:0:0:0:
144,192,51433,2,0,P|120:116|156:28,1,160.000000596046,8|2,0:0|0:0,0:0:0:0:
224,36,51951,1,0,0:0:0:0:
308,164,52123,6,0,L|348:164,1,40.0000001490115,8|0,0:0|0:0,0:0:0:0:
248,116,52296,2,0,L|204:116,1,40.0000001490115,0|0,0:0|0:0,0:0:0:0:
236,192,52468,2,0,L|236:236,1,40.0000001490115,0|0,0:0|0:0,0:0:0:0:
320,88,52640,2,0,L|320:48,1,40.0000001490115,2|0,0:0|0:0,0:0:0:0:
396,72,52813,6,0,L|396:240,1,160.000000596046,8|2,0:0|0:0,0:0:0:0:
396,312,53330,1,0,0:0:0:0:
308,164,53502,2,0,P|388:144|472:168,1,160.000000596046,8|0,0:0|0:0,0:0:0:0:
484,240,54020,1,2,0:0:0:0:
396,312,54192,5,8,0:0:0:0:
396,232,54365,1,0,0:0:0:0:
468,336,54537,2,0,P|436:376|328:344,1,160.000000596046,2|8,0:0|0:0,0:0:0:0:
292,292,55054,1,2,0:0:0:0:
396,232,55227,1,2,0:0:0:0:
320,140,55399,6,0,L|264:124,1,40.0000001490115,8|0,0:0|0:0,0:0:0:0:
216,164,55571,2,0,L|176:152,1,40.0000001490115,8|0,0:0|0:0,0:0:0:0:
104,128,55744,1,2,0:0:0:0:
32,224,55916,6,0,L|32:268,1,40.0000001490115,4|0,0:0|0:0,0:0:0:0:
104,280,56089,2,0,L|104:324,1,40.0000001490115
172,352,56261,2,0,B|252:372|252:372|332:356,1,160.000000596046,8|0,0:0|0:0,0:0:0:0:
404,328,56778,1,2,0:0:0:0:
300,232,56951,2,0,P|260:276|264:380,1,160.000000596046,8|2,0:0|0:0,0:0:0:0:
340,364,57468,1,0,0:0:0:0:
300,232,57640,6,0,L|256:232,1,40.0000001490115,8|0,0:0|0:0,0:0:0:0:
360,284,57813,2,0,L|404:284,1,40.0000001490115,0|0,0:0|0:0,0:0:0:0:
260,232,57985,2,0,L|212:232,1,40.0000001490115
400,284,58158,2,0,L|440:284,1,40.0000001490115,2|0,0:0|0:0,0:0:0:0:
324,156,58330,6,0,L|172:156,1,120.000000447034,8|0,0:0|0:0,0:0:0:0:
128,140,58675,6,0,B|128:116|128:116|136:96,1,40.0000001490115,2|0,0:0|0:0,0:0:0:0:
176,40,58847,2,0,B|192:28|192:28|212:24,1,40.0000001490115,0|0,0:0|0:0,0:0:0:0:
228,24,59020,6,0,B|208:28|208:28|192:40,1,40.0000001490115,8|0,0:0|0:0,0:0:0:0:
149,101,59192,2,0,B|144:116|144:116|144:140,1,40.0000001490115,0|0,0:0|0:0,0:0:0:0:
160,140,59365,6,0,B|160:116|160:116|168:96,1,40.0000001490115,0|0,0:0|0:0,0:0:0:0:
208,40,59537,2,0,B|224:28|224:28|244:24,1,40.0000001490115,2|0,0:0|0:0,0:0:0:0:
260,24,59710,6,0,B|240:28|240:28|224:40,1,40.0000001490115,8|0,0:0|0:0,0:0:0:0:
181,101,59882,2,0,B|175:115|175:115|175:139,1,40.0000001490115,0|0,0:0|0:0,0:0:0:0:
252,128,60054,1,2,0:0:0:0:
316,80,60227,1,0,0:0:0:0:
244,256,60399,5,8,0:0:0:0:
172,208,60571,1,2,0:0:0:0:
316,152,60744,6,0,L|332:196,1,40.0000001490115,0|0,0:0|0:0,0:0:0:0:
404,176,60916,2,0,L|420:216,1,40.0000001490115,2|0,0:0|0:0,0:0:0:0:
376,300,61089,6,0,L|361:262,1,40.0000001490115,8|0,0:0|0:0,0:0:0:0:
286,276,61261,2,0,L|272:238,1,40.0000001490115,0|0,0:0|0:0,0:0:0:0:
200,264,61433,6,0,L|220:312,1,40.0000001490115,2|0,0:0|0:0,0:0:0:0:
136,312,61606,2,0,L|160:364,1,40.0000001490115,0|0,0:0|0:0,0:0:0:0:
68,356,61778,2,0,P|56:312|132:232,1,160.000000596046,8|0,0:0|0:0,0:0:0:0:
200,264,62296,1,2,0:0:0:0:
380,248,62468,6,0,P|344:196|252:204,1,160.000000596046,8|2,0:0|0:0,0:0:0:0:
300,312,62985,2,0,L|300:272,1,40.0000001490115,0|0,0:0|0:0,0:0:0:0:
220,304,63158,2,0,L|220:344,1,40.0000001490115,8|0,0:0|0:0,0:0:0:0:
180,228,63330,2,0,L|220:228,1,40.0000001490115,2|0,0:0|0:0,0:0:0:0:
264,164,63502,2,0,L|264:112,1,40.0000001490115,2|0,0:0|0:0,0:0:0:0:
340,136,63675,2,0,L|340:196,1,40.0000001490115,0|0,0:0|0:0,0:0:0:0:
340,252,63847,1,8,0:0:0:0:
452,208,64020,1,2,0:0:0:0:
340,136,64192,6,0,L|160:136,1,160.000000596046,2|0,0:0|0:0,0:0:0:0:
100,136,64709,1,0,0:0:0:0:
196,256,64882,2,0,P|252:224|248:120,1,160.000000596046,0|0,0:0|0:0,0:0:0:0:
124,216,65399,2,0,P|116:264|200:336,1,160.000000596046,0|0,0:0|0:0,0:0:0:0:
268,340,65916,1,0,0:0:0:0:
332,292,66089,1,0,0:0:0:0:
232,228,66261,5,2,0:0:0:0:
296,180,66433,2,0,P|296:136|292:96,2,80.000000298023,0|8|2,0:0|0:0|0:0,0:0:0:0:
232,228,66951,6,0,L|184:228,1,40.0000001490115,6|0,0:0|0:0,0:0:0:0:
216,304,67123,2,0,L|172:304,1,40.0000001490115,0|0,0:0|0:0,0:0:0:0:
100,304,67296,2,0,B|84:232|84:232|112:136,1,160.000000596046,8|0,0:0|0:0,0:0:0:0:
136,76,67813,1,2,0:0:0:0:
240,132,67985,2,0,P|316:160|392:128,1,160.000000596046,8|2,0:0|0:0,0:0:0:0:
440,76,68502,1,0,0:0:0:0:
364,60,68675,1,8,0:0:0:0:
300,160,68847,2,0,L|300:212,1,40.0000001490115,0|0,0:0|0:0,0:0:0:0:
224,236,69020,6,0,L|224:192,1,40.0000001490115,0|0,0:0|0:0,0:0:0:0:
156,160,69192,2,0,L|156:116,1,40.0000001490115,2|0,0:0|0:0,0:0:0:0:
232,44,69365,6,0,L|232:88,1,40.0000001490115,8|0,0:0|0:0,0:0:0:0:
300,120,69537,2,0,L|300:164,1,40.0000001490115,0|0,0:0|0:0,0:0:0:0:
376,168,69709,6,0,L|376:128,1,40.0000001490115,2|0,0:0|0:0,0:0:0:0:
452,180,69882,2,0,L|452:132,1,40.0000001490115,0|0,0:0|0:0,0:0:0:0:
452,64,70054,2,0,P|384:24|296:68,1,160.000000596046,8|0,0:0|0:0,0:0:0:0:
248,100,70571,1,2,0:0:0:0:
260,220,70744,6,0,B|320:212|352:160|352:160|352:228,1,160.000000596046,8|2,0:0|0:0,0:0:0:0:
424,296,71261,6,0,P|428:316|424:340,1,40.0000001490115,0|0,0:0|0:0,0:0:0:0:
352,340,71433,6,0,P|356:308|349:284,1,47.9999987139701,8|0,0:0|0:0,0:0:0:0:
280,288,71606,6,0,P|284:316|280:344,1,55.9999984996318,0|0,0:0|0:0,0:0:0:0:
208,348,71778,6,0,P|212:316|207:284,1,64.0000002384184,0|0,0:0|0:0,0:0:0:0:
136,280,71951,6,0,P|140:316|136:352,1,71.9999980709551,2|0,0:0|0:0,0:0:0:0:
60,272,72123,6,0,P|103:209|180:216,1,160.000000596046,8|2,0:0|0:0,0:0:0:0:
220,284,72640,1,0,0:0:0:0:
220,284,72813,2,0,P|264:224|228:148,1,160.000000596046,8|0,0:0|0:0,0:0:0:0:
164,112,73330,1,2,0:0:0:0:
64,216,73502,2,0,L|144:216,1,80.000000298023,8|0,0:0|0:0,0:0:0:0:
299,210,73847,2,0,B|215:194|215:194|135:218,1,160.000000596046,2|8,0:0|0:0,0:0:0:0:
92,272,74365,6,0,L|92:320,1,40.0000001490115,0|0,0:0|0:0,0:0:0:0:
143,215,74537,2,0,L|143:167,1,40.0000001490115,0|0,0:0|0:0,0:0:0:0:
100,100,74709,2,0,L|152:100,1,40.0000001490115,2|0,0:0|0:0,0:0:0:0:
216,56,74882,2,0,L|216:104,1,40.0000001490115,8|0,0:0|0:0,0:0:0:0:
292,140,75054,2,0,L|292:92,1,40.0000001490115,0|0,0:0|0:0,0:0:0:0:
368,40,75227,6,0,L|368:132,1,80.000000298023,2|0,0:0|0:0,0:0:0:0:
220,130,75571,2,0,P|292:98|384:134,1,160.000000596046,8|0,0:0|0:0,0:0:0:0:
428,172,76089,1,2,0:0:0:0:
296,260,76261,2,0,L|296:176,1,80.000000298023,8|0,0:0|0:0,0:0:0:0:
220,290,76606,6,0,L|220:118,1,160.000000596046,2|8,0:0|0:0,0:0:0:0:
220,48,77123,1,2,0:0:0:0:
112,104,77296,1,2,0:0:0:0:
184,200,77468,2,0,L|232:224,1,40.0000001490115,8|0,0:0|0:0,0:0:0:0:
288,184,77640,2,0,L|348:212,1,40.0000001490115,8|0,0:0|0:0,0:0:0:0:
396,232,77813,1,2,0:0:0:0:
332,340,77985,6,0,L|332:380,1,40.0000001490115,6|0,0:0|0:0,0:0:0:0:
256,300,78158,2,0,L|256:344,1,40.0000001490115,0|0,0:0|0:0,0:0:0:0:
180,320,78330,2,0,B|96:336|96:336|24:320,1,160.000000596046,8|0,0:0|0:0,0:0:0:0:
28,240,78847,1,2,0:0:0:0:
176,248,79020,2,0,P|236:272|240:360,1,160.000000596046,8|2,0:0|0:0,0:0:0:0:
160,356,79537,1,0,0:0:0:0:
112,292,79709,1,8,0:0:0:0:
156,180,79882,2,0,L|156:128,1,40.0000001490115,0|0,0:0|0:0,0:0:0:0:
232,104,80055,6,0,L|232:148,1,40.0000001490115,0|0,0:0|0:0,0:0:0:0:
300,180,80227,2,0,L|300:224,1,40.0000001490115,2|0,0:0|0:0,0:0:0:0:
224,296,80400,6,0,L|224:252,1,40.0000001490115,8|0,0:0|0:0,0:0:0:0:
156,220,80572,2,0,L|156:176,1,40.0000001490115,0|0,0:0|0:0,0:0:0:0:
80,184,80744,6,0,L|80:224,1,40.0000001490115,2|0,0:0|0:0,0:0:0:0:
4,192,80917,2,0,L|4:240,1,40.0000001490115,0|0,0:0|0:0,0:0:0:0:
16,308,81089,6,0,P|68:372|144:360,1,160.000000596046,8|0,0:0|0:0,0:0:0:0:
196,308,81606,1,2,0:0:0:0:
188,140,81778,6,0,B|128:148|96:200|96:200|96:153,1,160.000000596046,8|2,0:0|0:0,0:0:0:0:
56,72,82296,6,0,P|52:52|56:32,1,40.0000001490115,0|0,0:0|0:0,0:0:0:0:
128,28,82468,6,0,P|124:52|128:76,1,47.9999987139701,8|0,0:0|0:0,0:0:0:0:
200,80,82640,6,0,P|196:52|200:24,1,55.9999984996318,0|0,0:0|0:0,0:0:0:0:
272,24,82813,6,0,P|268:56|272:88,1,64.0000002384184,0|0,0:0|0:0,0:0:0:0:
344,96,82985,6,0,P|340:60|344:24,1,71.9999980709551,2|0,0:0|0:0,0:0:0:0:
416,96,83158,6,0,P|360:168|288:140,1,160.000000596046,8|2,0:0|0:0,0:0:0:0:
271,87,83675,1,0,0:0:0:0:
376,160,83847,2,0,L|384:328,1,160.000000596046,8|0,0:0|0:0,0:0:0:0:
456,360,84365,1,2,0:0:0:0:
380,244,84537,2,0,P|320:248|308:340,1,160.000000596046,8|2,0:0|0:0,0:0:0:0:
383,319,85054,1,0,0:0:0:0:
152,216,85227,1,8,0:0:0:0:
224,252,85399,2,0,L|224:200,1,40.0000001490115,2|0,0:0|0:0,0:0:0:0:
112,104,85571,6,0,L|164:104,1,40.0000001490115,0|0,0:0|0:0,0:0:0:0:
256,140,85744,2,0,L|196:140,1,40.0000001490115,2|0,0:0|0:0,0:0:0:0:
152,216,85916,2,0,L|152:164,1,40.0000001490115,8|0,0:0|0:0,0:0:0:0:
216,24,86089,2,0,L|216:68,1,40.0000001490115,0|0,0:0|0:0,0:0:0:0:
256,224,86261,5,2,0:0:0:0:
256,240,86606,1,0,0:0:0:0:
256,256,86951,1,0,0:0:0:0:
256,272,87296,1,0,0:0:0:0:
256,296,87554,6,8,L|256:324,2,23.999999356985,8|8|8,3:0|3:0|3:0,3:0:0:0:
316,232,87813,1,0,0:0:0:0:
372,288,87985,1,2,0:0:0:0:
396,212,88158,1,8,0:0:0:0:
316,232,88330,1,2,0:0:0:0:
372,288,88502,1,2,0:0:0:0:
396,132,88675,2,0,L|396:216,1,80.000000298023,8|2,0:0|0:0,0:0:0:0:
468,100,89020,6,0,P|424:60|328:96,1,160.000000596046,6|8,0:0|0:0,0:0:0:0:
280,144,89537,1,8,3:0:0:0:
292,264,89709,2,0,P|324:240|336:200,1,80.000000298023,2|2,3:0|0:0,0:0:0:0:
220,240,90054,2,0,P|216:280|236:316,1,80.000000298023,8|0,0:0|0:0,0:0:0:0:
260,172,90399,2,0,L|96:148,1,160.000000596046,2|8,0:0|0:0,0:0:0:0:
24,132,90916,1,8,3:0:0:0:
132,80,91089,2,0,P|164:112|168:156,1,80.000000298023,2|2,3:0|0:0,0:0:0:0:
116,252,91433,2,0,P|100:216|104:176,1,80.000000298023,8|0,0:0|0:0,0:0:0:0:
196,252,91778,6,0,P|180:300|72:316,1,160.000000596046,2|8,0:0|0:0,0:0:0:0:
12,284,92296,1,8,3:0:0:0:
64,176,92468,2,0,L|44:84,1,80.000000298023,2|2,3:0|0:0,0:0:0:0:
156,48,92813,2,0,L|156:132,1,80.000000298023,8|0,0:0|0:0,0:0:0:0:
256,192,93158,2,0,P|328:232|396:192,1,160.000000596046,2|8,0:0|0:0,0:0:0:0:
448,144,93675,1,8,3:0:0:0:
376,48,93847,2,0,L|360:126,1,80.000000298023,2|2,3:0|0:0,0:0:0:0:
436,220,94192,2,0,P|452:184|444:136,1,80.000000298023,8|2,0:0|0:0,0:0:0:0:
284,68,94537,6,0,B|202:58|202:58|112:68,1,160.000000596046,6|8,0:0|0:0,0:0:0:0:
116,148,95054,1,8,3:0:0:0:
172,208,95227,2,0,P|192:180|196:132,1,80.000000298023,2|2,3:0|0:0,0:0:0:0:
100,228,95571,2,0,P|120:268|168:284,1,80.000000298023,8|0,0:0|0:0,0:0:0:0:
236,284,95916,2,0,P|144:308|128:388,1,160.000000596046,2|8,0:0|0:0,0:0:0:0:
204,360,96433,1,8,3:0:0:0:
344,308,96606,2,0,L|344:220,1,80.000000298023,2|2,3:0|0:0,0:0:0:0:
264,136,96951,2,0,P|248:172|252:224,1,80.000000298023,8|0,0:0|0:0,0:0:0:0:
348,148,97296,6,0,P|340:96|224:68,1,160.000000596046,2|8,0:0|0:0,0:0:0:0:
172,72,97813,1,8,3:0:0:0:
72,140,97985,2,0,P|96:172|132:188,1,80.000000298023,2|2,3:0|0:0,0:0:0:0:
252,188,98330,2,0,L|260:280,1,80.000000298023,8|0,0:0|0:0,0:0:0:0:
196,344,98675,6,0,P|248:304|352:332,1,160.000000596046,2|8,0:0|0:0,0:0:0:0:
404,364,99192,1,2,3:0:0:0:
420,284,99365,1,6,0:0:0:0:
328,100,99537,1,8,0:0:0:0:
328,100,99709,2,0,L|336:208,1,80.000000298023,8|2,0:0|0:0,0:0:0:0:
404,84,100054,6,0,P|376:40|264:56,1,160.000000596046,6|8,0:0|0:0,0:0:0:0:
208,84,100571,1,8,3:0:0:0:
140,184,100744,2,0,P|176:208|216:216,1,80.000000298023,2|2,3:0|0:0,0:0:0:0:
328,192,101089,2,0,P|296:168|244:156,1,80.000000298023,8|0,0:0|0:0,0:0:0:0:
284,272,101433,2,0,P|340:212|416:212,1,160.000000596046,2|8,0:0|0:0,0:0:0:0:
484,248,101951,1,8,3:0:0:0:
392,324,102123,2,0,P|392:280|404:244,1,80.000000298023,2|2,3:0|0:0,0:0:0:0:
372,128,102468,2,0,P|344:168|312:180,1,80.000000298023,8|0,0:0|0:0,0:0:0:0:
332,60,102813,6,0,P|380:52|452:132,1,160.000000596046,2|8,0:0|0:0,0:0:0:0:
444,204,103330,1,8,3:0:0:0:
328,176,103502,2,0,L|248:176,1,80.000000298023,2|2,3:0|0:0,0:0:0:0:
132,136,103847,2,0,P|144:184|132:224,1,80.000000298023,8|0,0:0|0:0,0:0:0:0:
52,128,104192,2,0,P|84:72|172:68,1,160.000000596046,2|8,0:0|0:0,0:0:0:0:
232,120,104709,1,8,3:0:0:0:
204,236,104882,2,0,L|284:208,1,80.000000298023,2|2,3:0|0:0,0:0:0:0:
336,104,105227,2,0,P|296:104|264:132,1,80.000000298023,8|0,0:0|0:0,0:0:0:0:
392,200,105571,6,0,L|436:44,1,160.000000596046,6|8,0:0|0:0,0:0:0:0:
504,112,106089,1,8,3:0:0:0:
384,120,106261,2,0,P|332:116|304:96,1,80.000000298023,2|2,3:0|0:0,0:0:0:0:
196,64,106606,2,0,P|240:40|272:40,1,80.000000298023,8|0,0:0|0:0,0:0:0:0:
216,148,106951,2,0,L|200:312,1,160.000000596046,2|8,0:0|0:0,0:0:0:0:
128,340,107468,1,8,3:0:0:0:
72,232,107640,5,0,0:0:0:0:
80,340,107813,1,2,0:0:0:0:
84,220,107985,1,8,0:0:0:0:
128,340,108158,1,0,0:0:0:0:
8,280,108330,5,4,3:0:0:0:
256,192,108416,12,0,111089,0:0:0:0:
