osu file format v14

[General]
AudioFilename: audio.mp3
AudioLeadIn: 0
PreviewTime: 88502
Countdown: 0
SampleSet: Soft
StackLeniency: 0.7
Mode: 0
LetterboxInBreaks: 0
WidescreenStoryboard: 0

[Editor]
DistanceSpacing: 2
BeatDivisor: 8
GridSize: 4
TimelineZoom: 2.1

[Metadata]
Title:Come Back Down
TitleUnicode:Come Back Down
Artist:Mediks
ArtistUnicode:Mediks
Creator:[Kamiya]
Version:Extra
Source:
Tags:Oiso papapa213 Emilia remix
BeatmapID:1355393
BeatmapSetID:639013

[Difficulty]
HPDrainRate:8
CircleSize:4
OverallDifficulty:8
ApproachRate:9
SliderMultiplier:1.7
SliderTickRate:1

[Events]
//Background and Video events
0,0,"bg.jpg",0,0
//Break Periods
//Storyboard Layer 0 (Background)
//Storyboard Layer 1 (Fail)
//Storyboard Layer 2 (Pass)
//Storyboard Layer 3 (Foreground)
//Storyboard Sound Samples

[TimingPoints]
-635,344.827586206897,4,2,0,50,1,0
54,-200,4,2,0,50,0,0
11260,-200,4,2,0,50,0,0
22812,-133.333333333333,4,2,9,60,0,0
33847,-111.111111111111,4,2,8,60,0,0
42122,-200,4,2,8,70,0,0
44192,-200,4,2,31,70,0,0
44365,-200,4,2,30,70,0,0
44537,-200,4,2,8,70,0,0
44881,-66.6666666666667,4,2,8,70,0,0
45226,-200,4,2,8,70,0,0
46605,-66.6666666666667,4,2,8,70,0,0
47295,-200,4,2,8,70,0,0
47640,-100,4,2,8,70,0,0
49709,-66.6666666666667,4,2,8,70,0,0
50054,-100,4,2,8,70,0,0
50398,-66.6666666666667,4,2,8,70,0,0
50743,-200,4,2,8,70,0,0
51950,-66.6666666666667,4,2,8,70,0,0
52640,-200,4,2,8,70,0,0
53502,-100,4,2,8,70,0,0
54536,-200,4,2,8,70,0,0
55054,-100,4,2,8,70,0,0
55916,-66.6666666666667,4,2,8,70,0,0
56260,-200,4,2,8,70,0,0
57640,-66.6666666666667,4,2,8,70,0,0
58329,-200,4,2,8,70,0,0
58674,-100,4,2,8,70,0,0
60743,-66.6666666666667,4,2,8,70,0,0
61088,-55.5555555555556,4,2,8,70,0,0
61433,-100,4,2,8,70,0,0
61778,-200,4,2,8,70,0,0
62985,-66.6666666666667,4,2,8,70,0,0
63329,-55.5555555555556,4,2,8,70,0,0
63674,-100,4,2,8,70,0,0
66260,-200,4,2,8,70,0,0
66605,-133.333333333333,4,2,8,70,0,0
66950,-66.6666666666667,4,2,8,70,0,0
67295,-200,4,2,8,70,0,0
68674,-66.6666666666667,4,2,8,70,0,0
69709,-100,4,2,8,70,0,0
70054,-200,4,2,8,70,0,0
71260,-133.333333333333,4,2,8,70,0,0
71433,-100,4,2,8,70,0,0
71605,-80,4,2,8,70,0,0
71778,-66.6666666666667,4,2,8,70,0,0
71950,-57.1428571428571,4,2,8,70,0,0
72122,-200,4,2,8,70,0,0
74191,-66.6666666666667,4,2,8,70,0,0
74881,-55.5555555555556,4,2,8,70,0,0
75226,-100,4,2,8,70,0,0
76605,-200,4,2,8,70,0,0
77467,-100,4,2,8,50,0,0
77985,-66.6666666666667,4,2,8,70,0,0
78329,-200,4,2,8,70,0,0
79537,-100,4,2,8,70,0,0
80054,-66.6666666666667,4,2,8,70,0,0
80398,-55.5555555555556,4,2,8,70,0,0
80743,-100,4,2,8,70,0,0
81088,-200,4,2,8,70,0,0
82295,-133.333333333333,4,2,8,70,0,0
82467,-100,4,2,8,70,0,0
82640,-80,4,2,8,70,0,0
82812,-66.6666666666667,4,2,8,70,0,0
82985,-57.1428571428571,4,2,8,70,0,0
83157,-200,4,2,8,70,0,0
85398,-100,4,2,8,70,0,0
85743,-66.6666666666667,4,2,8,70,0,0
87554,-83.3333333333333,4,2,8,70,0,0
87813,-100,4,2,8,70,0,0
89020,-100,4,2,8,85,0,1
93847,-62.5,4,2,8,85,0,1
94020,-100,4,2,8,85,0,1
104882,-62.5,4,2,8,85,0,1
105054,-100,4,2,8,85,0,1
108330,-200,4,2,0,70,0,0
111089,-200,4,2,0,5,0,0

[Colours]
Combo1 : 255,255,111
Combo2 : 128,0,128
Combo3 : 49,141,255
Combo4 : 242,24,57

[HitObjects]
256,192,744,5,2,0:0:0:0:
280,212,3502,5,2,0:0:0:0:
300,228,6261,5,2,0:0:0:0:
324,244,9020,5,2,0:0:0:0:
172,344,10399,1,2,0:0:0:0:
24,248,11261,2,0,L|32:188,1,42.5
140,56,11778,6,0,L|132:148,1,85,2|0,0:0|0:0,0:0:0:0:
120,216,12296,1,0,0:0:0:0:
216,176,12468,2,0,P|188:136|136:128,1,85
76,124,12985,1,0,0:0:0:0:
216,252,13158,2,0,P|264:236|288:192,1,85
312,136,13675,1,0,0:0:0:0:
212,176,13847,2,0,L|268:244,1,85
384,200,14365,1,0,0:0:0:0:
266,241,14537,1,2,0:0:0:0:
440,256,14709,2,0,P|464:216|440:144,1,127.5
444,60,16778,2,0,L|448:112,1,42.5
260,216,17296,6,0,L|276:116,1,85,2|0,0:0|0:0,0:0:0:0:
288,56,17813,1,0,0:0:0:0:
384,160,17985,2,0,P|332:184|288:176,1,85
156,172,18502,2,0,P|192:150|234:149,1,85
305,182,19020,1,0,0:0:0:0:
244,228,19192,1,0,0:0:0:0:
228,64,19365,2,0,L|234:150,1,85
244,228,19882,1,0,0:0:0:0:
364,120,20054,1,2,0:0:0:0:
360,208,20227,1,0,0:0:0:0:
480,124,20399,2,0,B|440:144|396:128|396:128|344:108|304:144,1,170
316,296,21433,5,2,0:0:0:0:
84,340,22123,6,0,L|96:296,1,42.5
160,352,22468,2,0,L|184:256,1,85,0|6,0:0|0:0,0:0:0:0:
208,156,22985,1,0,0:0:0:0:
372,248,23158,1,0,0:0:0:0:
360,248,23244,1,0,0:0:0:0:
348,248,23330,1,2,0:0:0:0:
336,248,23416,1,0,0:0:0:0:
324,248,23502,1,0,0:0:0:0:
188,252,23675,1,2,0:0:0:0:
324,136,23847,5,8,0:0:0:0:
364,344,24020,1,0,0:0:0:0:
108,236,24192,2,0,L|136:104,1,127.500004863739,2|8,0:0|0:0,0:0:0:0:
312,248,24709,1,2,0:0:0:0:
192,188,24882,2,0,L|204:132,1,31.8750012159348
276,104,25054,2,0,L|268:144,1,31.8750012159348
224,260,25227,1,8,0:0:0:0:
134,111,25399,1,2,0:0:0:0:
332,176,25571,6,0,P|393:159|460:184,1,127.500004863739,6|8,0:0|0:0,0:0:0:0:
388,280,26089,1,2,0:0:0:0:
384,84,26261,1,0,0:0:0:0:
384,72,26347,1,0,0:0:0:0:
384,60,26433,1,2,0:0:0:0:
384,48,26520,1,0,0:0:0:0:
384,36,26606,1,8,0:0:0:0:
452,178,26778,1,2,0:0:0:0:
260,216,26951,6,0,L|236:88,1,127.500004863739,2|8,0:0|0:0,0:0:0:0:
60,244,27468,1,2,0:0:0:0:
192,256,27640,2,0,L|184:208,1,31.8750012159348
116,156,27813,2,0,L|124:212,1,31.8750012159348
140,316,27985,1,10,0:0:0:0:
236,90,28158,1,2,0:0:0:0:
2,185,28330,6,0,P|66:165|122:189,1,127.500004863739,6|8,0:0|0:0,0:0:0:0:
236,288,28847,1,2,0:0:0:0:
236,104,29020,1,0,0:0:0:0:
236,120,29106,1,0,0:0:0:0:
236,136,29192,1,2,0:0:0:0:
236,152,29278,1,0,0:0:0:0:
236,168,29365,1,8,0:0:0:0:
132,268,29537,1,0,0:0:0:0:
352,248,29709,6,0,L|384:124,1,127.500004863739,2|8,0:0|0:0,0:0:0:0:
228,168,30227,1,2,0:0:0:0:
428,232,30399,2,0,L|440:192,1,31.8750012159348
383,124,30571,2,0,L|372:168,1,31.8750012159348
404,304,30744,1,10,0:0:0:0:
300,104,30916,1,0,0:0:0:0:
276,264,31089,6,0,P|212:240|156:264,1,127.500004863739,6|8,0:0|0:0,0:0:0:0:
336,320,31606,1,2,0:0:0:0:
212,156,31778,1,0,0:0:0:0:
216,172,31865,1,0,0:0:0:0:
220,188,31951,1,2,0:0:0:0:
224,204,32037,1,0,0:0:0:0:
228,220,32123,1,8,0:0:0:0:
383,124,32296,1,0,0:0:0:0:
236,52,32468,6,0,L|292:52,1,31.8750012159348,2|0,0:0|0:0,0:0:0:0:
256,128,32640,2,0,L|296:128,1,31.8750012159348
432,52,32813,1,8,0:0:0:0:
172,116,32985,1,2,0:0:0:0:
437,201,33158,6,0,P|393:185|345:197,1,95.6250036478044
276,232,33502,1,10,0:0:0:0:
448,344,33675,1,0,0:0:0:0:
256,124,33847,5,6,0:0:0:0:
132,368,34192,1,0,0:0:0:0:
388,264,34537,1,0,0:0:0:0:
144,136,34882,1,0,0:0:0:0:
412,80,35227,5,2,0:0:0:0:
384,356,35571,1,0,0:0:0:0:
132,240,35916,1,0,0:0:0:0:
408,224,36261,1,0,0:0:0:0:
220,60,36606,6,0,L|220:140,1,76.4999976654053,2|0,0:0|0:0,0:0:0:0:
108,108,36951,2,0,L|108:188,1,76.4999976654053
304,356,37296,6,0,L|304:279,1,76.4999976654053
192,320,37640,2,0,L|192:243,1,76.4999976654053
64,64,37985,6,0,L|156:64,1,76.4999976654053,2|0,0:0|0:0,0:0:0:0:
113,172,38330,2,0,L|189:172,1,76.4999976654053
420,228,38675,6,0,L|328:228,1,76.4999976654053
371,120,39020,2,0,L|295:120,1,76.4999976654053
184,231,39365,5,2,0:0:0:0:
294,120,39537,1,0,0:0:0:0:
73,120,39709,1,0,0:0:0:0:
184,9,39882,1,0,0:0:0:0:
184,231,40054,5,2,0:0:0:0:
312,141,40227,1,0,0:0:0:0:
94,102,40399,1,0,0:0:0:0:
222,12,40571,1,0,0:0:0:0:
184,231,40744,5,2,0:0:0:0:
326,164,40916,1,0,0:0:0:0:
117,88,41089,1,0,0:0:0:0:
259,22,41261,1,0,0:0:0:0:
184,231,41433,5,2,0:0:0:0:
335,190,41606,1,0,0:0:0:0:
143,79,41778,1,0,0:0:0:0:
294,38,41951,1,0,0:0:0:0:
40,300,42123,6,0,B|96:284|112:236|112:236|96:284|128:324|128:324|152:356|216:356|216:356|216:300|269:278|269:278|308:324|372:308,1,488.75,4|0,0:0|0:0,0:0:0:0:
388,320,44192,5,8,0:0:0:0:
288,376,44365,1,8,0:0:0:0:
248,160,44537,1,8,0:0:0:0:
352,224,44709,1,0,0:0:0:0:
196,72,44882,6,0,L|128:72,1,63.7500024318696,6|0,0:0|0:0,0:0:0:0:
4,32,45054,2,0,L|67:32,1,63.7500024318696
80,192,45227,6,0,P|64:160|72:104,1,85,8|0,0:0|0:0,0:0:0:0:
196,72,45744,1,2,0:0:0:0:
160,200,45916,2,0,P|140:244|100:272,1,85,8|2,0:0|0:0,0:0:0:0:
240,148,46433,1,0,0:0:0:0:
240,148,46520,1,0,0:0:0:0:
240,148,46606,6,0,L|304:148,1,63.7500024318696,8|0,0:0|0:0,0:0:0:0:
448,196,46778,2,0,L|372:196,1,63.7500024318696
304,300,46951,2,0,L|304:224,1,63.7500024318696
380,48,47123,2,0,L|380:128,1,63.7500024318696
228,348,47296,6,0,L|228:272,1,63.75,8|0,0:0|0:0,0:0:0:0:
184,220,47640,6,0,L|184:172,1,42.5,2|0,0:0|0:0,0:0:0:0:
156,200,47813,2,0,L|156:152,1,42.5
56,40,47985,6,0,L|56:88,1,42.5,8|0,0:0|0:0,0:0:0:0:
84,60,48158,2,0,L|84:108,1,42.5
184,228,48330,6,0,L|184:180,1,42.5
152,208,48502,2,0,L|152:160,1,42.5,2|0,0:0|0:0,0:0:0:0:
56,32,48675,6,0,L|56:80,1,42.5,8|0,0:0|0:0,0:0:0:0:
84,52,48847,2,0,L|84:140,1,85,0|2,0:0|0:0,0:0:0:0:
32,216,49192,1,0,0:0:0:0:
196,104,49365,6,0,L|248:104,1,42.5,8|0,0:0|0:0,0:0:0:0:
220,132,49537,2,0,L|268:132,1,42.5,2|0,0:0|0:0,0:0:0:0:
480,176,49709,6,0,P|452:172|412:176,1,63.7500024318696,2|0,0:0|0:0,0:0:0:0:
320,244,49882,2,0,P|356:248|396:244,1,63.7500024318696,2|0,0:0|0:0,0:0:0:0:
352,96,50054,5,8,0:0:0:0:
448,304,50227,1,2,0:0:0:0:
236,240,50399,2,0,P|200:236|160:240,1,63.7500024318696,2|0,0:0|0:0,0:0:0:0:
48,292,50571,2,0,P|80:296|116:292,1,63.7500024318696
96,128,50744,6,0,P|88:172|96:212,1,85,8|0,0:0|0:0,0:0:0:0:
196,316,51261,1,2,0:0:0:0:
172,124,51433,2,0,P|156:80|116:56,1,85,8|2,0:0|0:0,0:0:0:0:
192,200,51951,6,0,L|264:200,1,63.7500024318696
380,152,52123,2,0,L|304:152,1,63.7500024318696,8|0,0:0|0:0,0:0:0:0:
248,60,52296,6,0,L|248:132,1,63.7500024318696
328,292,52468,2,0,L|328:212,1,63.7500024318696
328,109,52640,5,2,0:0:0:0:
328,24,52813,2,0,L|328:128,1,85,8|2,0:0|0:0,0:0:0:0:
328,228,53330,1,0,0:0:0:0:
48,136,53502,6,0,P|128:168|212:128,1,170,8|0,0:0|0:0,0:0:0:0:
276,68,54020,1,2,0:0:0:0:
128,84,54192,2,0,L|128:188,1,85,8|0,0:0|0:0,0:0:0:0:
172,336,54537,6,0,L|172:244,1,85,2|8,0:0|0:0,0:0:0:0:
248,180,55054,5,2,0:0:0:0:
80,300,55227,1,2,0:0:0:0:
400,224,55399,6,0,P|404:200|400:172,1,42.5,8|0,0:0|0:0,0:0:0:0:
312,120,55571,2,0,P|288:100|268:92,1,42.5,8|0,0:0|0:0,0:0:0:0:
296,296,55744,1,2,0:0:0:0:
472,232,55916,6,0,P|476:192|472:164,1,63.7500024318696,4|0,0:0|0:0,0:0:0:0:
420,40,56089,2,0,P|416:80|420:108,1,63.7500024318696
332,200,56261,6,0,P|288:188|248:200,1,85,8|0,0:0|0:0,0:0:0:0:
192,320,56778,1,2,0:0:0:0:
392,248,56951,2,0,P|408:204|396:156,1,85,8|2,0:0|0:0,0:0:0:0:
172,168,57468,1,0,0:0:0:0:
172,168,57554,1,0,0:0:0:0:
172,168,57640,6,0,L|108:168,1,63.7500024318696,8|0,0:0|0:0,0:0:0:0:
224,272,57813,2,0,L|296:272,1,63.7500024318696
112,248,57985,2,0,L|112:312,1,63.7500024318696
256,164,58158,2,0,L|256:96,1,63.7500024318696,2|0,0:0|0:0,0:0:0:0:
256,36,58330,6,0,L|256:109,1,63.75,8|0,0:0|0:0,0:0:0:0:
316,184,58675,6,0,L|316:232,1,42.5,2|0,0:0|0:0,0:0:0:0:
344,204,58847,2,0,L|344:252,1,42.5
444,364,59020,6,0,L|444:316,1,42.5,8|0,0:0|0:0,0:0:0:0:
416,340,59192,2,0,L|416:292,1,42.5
316,176,59365,6,0,L|316:224,1,42.5
344,196,59537,2,0,L|344:244,1,42.5,2|0,0:0|0:0,0:0:0:0:
444,372,59709,6,0,L|444:324,1,42.5,8|0,0:0|0:0,0:0:0:0:
416,348,59882,2,0,L|416:256,1,85,0|2,0:0|0:0,0:0:0:0:
480,168,60227,1,0,0:0:0:0:
316,280,60399,6,0,L|264:280,1,42.5,8|0,0:0|0:0,0:0:0:0:
292,252,60571,2,0,L|244:252,1,42.5,2|0,0:0|0:0,0:0:0:0:
32,208,60744,6,0,P|60:212|100:208,1,63.7500024318696
192,140,60916,2,0,P|156:136|116:140,1,63.7500024318696,2|0,0:0|0:0,0:0:0:0:
16,212,61089,6,0,P|56:220|96:216,1,76.4999976654053,8|0,0:0|0:0,0:0:0:0:
208,132,61261,2,0,P|168:124|128:128,1,76.4999976654053
176,280,61433,6,0,L|176:228,1,42.5,2|0,0:0|0:0,0:0:0:0:
200,260,61606,2,0,L|200:204,1,42.5
56,56,61778,6,0,P|48:100|56:152,1,85,8|0,0:0|0:0,0:0:0:0:
176,237,62296,1,2,0:0:0:0:
256,100,62468,2,0,P|208:92|168:100,1,85,8|2,0:0|0:0,0:0:0:0:
272,304,62985,6,0,L|344:304,1,63.75
464,252,63158,2,0,L|392:252,1,63.7500024318696,8|0,0:0|0:0,0:0:0:0:
256,316,63330,6,0,P|290:324|332:316,1,76.4999976654053,2|0,0:0|0:0,0:0:0:0:
472,228,63502,2,0,P|432:220|395:228,1,76.4999976654053,2|0,0:0|0:0,0:0:0:0:
172,312,63675,5,0,0:0:0:0:
176,36,63847,1,8,0:0:0:0:
280,112,64020,1,2,0:0:0:0:
48,108,64192,5,2,0:0:0:0:
116,168,64365,2,0,L|136:120,2,42.5
144,288,64709,5,0,0:0:0:0:
180,212,64882,1,0,0:0:0:0:
188,208,64968,1,0,0:0:0:0:
196,204,65054,1,0,0:0:0:0:
204,200,65140,1,0,0:0:0:0:
212,196,65227,1,0,0:0:0:0:
332,224,65399,5,0,0:0:0:0:
332,224,65485,1,0,0:0:0:0:
332,224,65571,1,0,0:0:0:0:
396,276,65744,1,0,0:0:0:0:
316,308,65916,1,0,0:0:0:0:
332,224,66089,1,0,0:0:0:0:
444,60,66261,6,0,L|444:96,1,21.25,2|0,0:0|0:0,0:0:0:0:
408,72,66433,2,0,L|408:100,1,21.25
232,196,66606,6,0,L|232:152,1,31.8750012159348,8|0,0:0|0:0,0:0:0:0:
268,184,66778,2,0,L|268:148,1,31.8750012159348,2|0,0:0|0:0,0:0:0:0:
448,240,66951,6,0,P|420:244|380:240,1,63.7500024318696,6|0,0:0|0:0,0:0:0:0:
268,184,67123,2,0,P|304:180|336:184,1,63.7500024318696
316,344,67296,6,0,P|308:300|312:256,1,85,8|0,0:0|0:0,0:0:0:0:
416,160,67813,1,2,0:0:0:0:
280,76,67985,2,0,L|192:76,1,85,8|2,0:0|0:0,0:0:0:0:
88,192,68502,1,0,0:0:0:0:
248,292,68675,6,0,P|256:256|248:224,1,63.7500024318696,8|0,0:0|0:0,0:0:0:0:
160,152,68847,2,0,L|160:232,1,63.7500024318696
104,344,69020,2,0,L|104:276,1,63.7500024318696
248,292,69192,2,0,L|172:292,1,63.7500024318696,2|0,0:0|0:0,0:0:0:0:
16,208,69365,2,0,L|100:208,1,63.7500024318696,8|0,0:0|0:0,0:0:0:0:
250,230,69537,6,0,P|255:261|248:292,1,63.7500024318696
16,208,69709,6,0,L|16:152,1,42.5,2|0,0:0|0:0,0:0:0:0:
40,192,69882,2,0,L|40:132,1,42.5
160,67,70054,6,0,L|160:163,1,85,8|0,0:0|0:0,0:0:0:0:
156,292,70571,1,2,0:0:0:0:
320,220,70744,2,0,P|280:208|232:220,1,85,8|2,0:0|0:0,0:0:0:0:
488,300,71261,6,0,L|488:260,1,31.8750012159348
424,156,71433,6,0,L|424:208,1,42.5,8|0,0:0|0:0,0:0:0:0:
348,336,71606,6,0,L|348:268,1,53.125
272,104,71778,6,0,L|272:168,1,63.7500024318696
192,376,71951,6,0,L|192:300,1,74.3750007092953,2|0,0:0|0:0,0:0:0:0:
108,76,72123,6,0,P|96:120|108:164,1,85,8|2,0:0|0:0,0:0:0:0:
192,301,72640,5,0,0:0:0:0:
272,168,72813,2,0,L|372:168,1,85,8|0,0:0|0:0,0:0:0:0:
484,168,73330,1,2,0:0:0:0:
364,248,73502,2,0,P|348:200|364:156,1,85,8|2,0:0|0:0,0:0:0:0:
48,200,74020,1,0,0:0:0:0:
48,200,74106,1,0,0:0:0:0:
48,200,74192,6,0,L|120:200,1,63.7500024318696,8|0,0:0|0:0,0:0:0:0:
236,152,74365,2,0,L|160:152,1,63.7500024318696
104,60,74537,6,0,L|104:123,1,63.7500024318696
180,292,74709,2,0,L|180:229,1,63.7500024318696,2|0,0:0|0:0,0:0:0:0:
92,44,74882,6,0,L|92:120,1,76.4999976654053,8|0,0:0|0:0,0:0:0:0:
196,312,75054,2,0,L|196:235,1,76.4999976654053
140,16,75227,6,0,L|140:192,1,170,2|8,0:0|0:0,0:0:0:0:
336,156,75744,1,0,0:0:0:0:
136,268,75916,2,0,P|184:284|228:264,1,85,0|2,0:0|0:0,0:0:0:0:
96,188,76261,1,8,0:0:0:0:
88,344,76433,1,0,0:0:0:0:
300,316,76606,6,0,L|304:220,1,85,2|8,0:0|0:0,0:0:0:0:
376,144,77123,1,2,0:0:0:0:
215,274,77296,1,2,0:0:0:0:
464,288,77468,6,0,P|468:264|464:236,1,42.5,8|0,0:0|0:0,0:0:0:0:
440,88,77640,2,0,P|416:68|396:60,1,42.5,8|0,0:0|0:0,0:0:0:0:
303,231,77813,1,2,0:0:0:0:
120,168,77985,6,0,P|160:164|192:168,1,63.7500024318696,6|0,0:0|0:0,0:0:0:0:
303,231,78158,2,0,P|255:235|231:231,1,63.7500024318696
108,84,78330,6,0,P|160:80|204:84,1,85,8|0,0:0|0:0,0:0:0:0:
344,160,78847,1,2,0:0:0:0:
244,316,79020,2,0,P|236:268|244:216,1,85,8|2,0:0|0:0,0:0:0:0:
436,207,79537,2,0,L|436:259,1,42.5
476,360,79709,6,0,L|476:312,1,42.5,8|0,0:0|0:0,0:0:0:0:
308,60,79882,1,0,0:0:0:0:
308,60,79968,1,0,0:0:0:0:
308,60,80054,6,0,P|300:92|308:132,1,63.7500024318696
360,264,80227,2,0,P|368:224|360:180,1,63.7500024318696,2|0,0:0|0:0,0:0:0:0:
295,43,80399,6,0,P|284:79|287:116,1,76.4999976654053,8|0,0:0|0:0,0:0:0:0:
379,275,80571,2,0,P|391:238|384:201,1,76.4999976654053
452,56,80744,6,0,L|408:56,1,42.5,2|0,0:0|0:0,0:0:0:0:
416,88,80916,2,0,L|368:88,1,42.5
188,196,81089,6,0,P|240:204|284:196,1,85,8|0,0:0|0:0,0:0:0:0:
393,120,81606,1,2,0:0:0:0:
192,120,81778,2,0,P|148:132|116:176,1,85,8|2,0:0|0:0,0:0:0:0:
64,304,82296,6,0,L|64:268,1,31.8750012159348
122,160,82468,6,0,L|122:212,1,42.5,8|0,0:0|0:0,0:0:0:0:
208,336,82640,6,0,L|208:280,1,53.125
272,104,82813,6,0,L|272:172,1,63.7500024318696
352,340,82985,6,0,L|352:264,1,74.3750007092953,2|0,0:0|0:0,0:0:0:0:
438,80,83158,6,0,P|450:124|432:176,1,85,8|2,0:0|0:0,0:0:0:0:
352,265,83675,5,0,0:0:0:0:
272,167,83847,2,0,L|184:167,1,85,8|0,0:0|0:0,0:0:0:0:
60,172,84365,1,2,0:0:0:0:
187,167,84537,2,0,P|203:119|187:75,1,85,8|2,0:0|0:0,0:0:0:0:
76,36,85054,1,0,0:0:0:0:
64,44,85140,1,0,0:0:0:0:
52,56,85227,2,0,L|52:88,1,21.25,8|0,0:0|0:0,0:0:0:0:
108,243,85399,6,0,L|108:195,1,42.5,2|0,0:0|0:0,0:0:0:0:
144,214,85571,2,0,L|144:170,1,42.5
320,244,85744,6,0,P|284:256|248:252,1,63.7500024318696,2|0,0:0|0:0,0:0:0:0:
144,172,85916,2,0,P|180:180|208:204,1,63.7500024318696,8|0,0:0|0:0,0:0:0:0:
156,336,86089,2,0,P|164:296|180:276,1,63.7500024318696
312,148,86261,5,2,0:0:0:0:
324,144,86606,1,0,0:0:0:0:
336,140,86951,1,0,0:0:0:0:
348,136,87296,1,0,0:0:0:0:
432,272,87554,6,8,L|432:236,2,25.4999992218018,8|8|8,3:0|3:0|3:0,3:0:0:0:
372,80,87813,1,0,0:0:0:0:
308,220,87985,1,2,0:0:0:0:
496,180,88158,1,8,0:0:0:0:
368,68,88330,1,2,0:0:0:0:
300,224,88502,1,2,0:0:0:0:
504,176,88675,1,8,0:0:0:0:
204,116,88847,1,2,0:0:0:0:
208,352,89020,6,0,L|260:188,1,170,6|8,0:0|0:0,0:0:0:0:
420,88,89537,1,8,3:0:0:0:
144,64,89709,2,0,L|128:152,1,85,2|2,3:0|0:0,0:0:0:0:
340,192,90054,2,0,P|328:144|288:116,1,85,8|0,0:0|0:0,0:0:0:0:
288,296,90399,2,0,P|344:312|444:232,1,170,2|8,0:0|0:0,0:0:0:0:
259,189,90916,1,8,3:0:0:0:
380,72,91089,2,0,L|468:64,1,85,2|2,3:0|0:0,0:0:0:0:
343,181,91433,2,0,L|255:189,1,85,8|0,0:0|0:0,0:0:0:0:
144,64,91778,6,0,L|108:252,1,170,2|8,0:0|0:0,0:0:0:0:
300,184,92296,1,8,3:0:0:0:
16,324,92468,2,0,L|36:236,1,85,2|2,3:0|0:0,0:0:0:0:
212,160,92813,2,0,P|168:144|128:148,1,85,8|0,0:0|0:0,0:0:0:0:
288,252,93158,2,0,P|332:212|324:108,1,170,2|8,0:0|0:0,0:0:0:0:
184,248,93675,1,8,3:0:0:0:
76,128,93847,6,0,L|88:48,1,68,2|0,3:0|0:0,0:0:0:0:
200,72,94020,6,0,P|188:96|156:112,1,42.5,2|0,0:0|0:0,0:0:0:0:
76,128,94192,1,8,0:0:0:0:
320,24,94365,1,2,0:0:0:0:
481,173,94537,6,0,L|317:105,1,170,6|8,0:0|0:0,0:0:0:0:
112,136,95054,1,8,3:0:0:0:
428,60,95227,2,0,P|420:112|396:152,1,85,2|2,3:0|0:0,0:0:0:0:
256,252,95571,2,0,P|240:200|244:168,1,85,8|0,0:0|0:0,0:0:0:0:
272,360,95916,2,0,P|196:352|152:272,1,170,2|8,0:0|0:0,0:0:0:0:
352,316,96433,1,8,3:0:0:0:
192,204,96606,2,0,L|284:204,1,85,2|2,3:0|0:0,0:0:0:0:
436,312,96951,2,0,L|340:315,1,85,8|0,0:0|0:0,0:0:0:0:
416,44,97296,6,0,L|376:220,1,170,2|8,0:0|0:0,0:0:0:0:
272,360,97813,1,8,3:0:0:0:
196,180,97985,2,0,L|292:180,1,85,2|2,3:0|0:0,0:0:0:0:
136,340,98330,2,0,P|116:296|120:252,1,85,8|0,0:0|0:0,0:0:0:0:
248,104,98675,2,0,P|280:188|236:260,1,170,2|8,0:0|0:0,0:0:0:0:
156,96,99192,2,0,P|168:52|196:20,1,85,2|6,3:0|0:0,0:0:0:0:
348,232,99537,5,8,0:0:0:0:
156,96,99709,1,8,0:0:0:0:
416,32,99882,1,2,0:0:0:0:
416,32,100054,6,0,L|360:208,1,170,6|8,0:0|0:0,0:0:0:0:
184,288,100571,1,8,3:0:0:0:
388,292,100744,2,0,L|304:308,1,85,2|0,3:0|0:0,0:0:0:0:
156,124,101089,2,0,P|192:116|240:132,1,85,8|0,0:0|0:0,0:0:0:0:
120,196,101433,2,0,P|84:152|128:48,1,170,2|8,0:0|0:0,0:0:0:0:
192,248,101951,1,8,3:0:0:0:
336,144,102123,2,0,L|432:140,1,85,2|2,3:0|0:0,0:0:0:0:
276,252,102468,2,0,L|189:248,1,85,8|0,0:0|0:0,0:0:0:0:
408,306,102813,6,0,B|432:218|432:218|420:138,1,170,2|8,0:0|0:0,0:0:0:0:
272,36,103330,1,8,3:0:0:0:
112,144,103502,2,0,L|124:240,1,85,2|2,3:0|0:0,0:0:0:0:
160,56,103847,2,0,P|116:40|68:52,1,85,8|0,0:0|0:0,0:0:0:0:
96,312,104192,2,0,P|148:336|248:276,1,170,2|8,0:0|0:0,0:0:0:0:
40,240,104709,1,8,3:0:0:0:
172,120,104882,6,0,L|256:116,1,68,2|0,3:0|0:0,0:0:0:0:
128,196,105054,6,0,P|104:180|88:156,1,42.5,2|0,0:0|0:0,0:0:0:0:
328,112,105227,1,8,0:0:0:0:
200,240,105399,1,0,0:0:0:0:
268,32,105571,6,0,B|252:112|252:112|268:208,1,170,6|8,0:0|0:0,0:0:0:0:
408,304,106089,1,8,3:0:0:0:
464,128,106261,2,0,L|376:124,1,85,2|2,3:0|0:0,0:0:0:0:
192,236,106606,2,0,P|220:272|264:284,1,85,8|0,0:0|0:0,0:0:0:0:
236,140,106951,2,0,P|156:132|92:208,1,170,2|8,0:0|0:0,0:0:0:0:
288,220,107468,1,8,3:0:0:0:
116,52,107640,5,0,0:0:0:0:
180,216,107813,1,2,0:0:0:0:
112,36,107985,1,8,0:0:0:0:
96,191,108158,1,0,0:0:0:0:
344,136,108330,6,0,P|384:116|368:192,1,170,4|0,3:0|0:0,0:0:0:0:
256,192,109106,12,0,111089,0:0:0:0:
