osu file format v14

[General]
AudioFilename: audio.mp3
AudioLeadIn: 0
PreviewTime: -1
Countdown: 0
SampleSet: Normal
StackLeniency: 0.3
Mode: 0
LetterboxInBreaks: 0
WidescreenStoryboard: 0

[Editor]
Bookmarks: 22361,33524,39105,41896,44687,45559,46954,48349,49745,51140,52536,53059,53931,55326,56722,58117,59512,60908,62303,63698,64222,65617,67012,67884,69280,70675,72070,73466,74861,75384,89338,108873,110268,111663,133989,145152,150733,153524,156315,175849,177245,178640,220501,221896,223291,242826,244222,245617
DistanceSpacing: 1.4
BeatDivisor: 2
GridSize: 32
TimelineZoom: 1.3

[Metadata]
Title:Blown Away
TitleUnicode:Blown Away
Artist:Mediks
ArtistUnicode:Mediks
Creator:Zedriv
Version:hwhehwhe
Source:
Tags:Astronaut drum and bass mediks electronic
BeatmapID:1524592
BeatmapSetID:722091

[Difficulty]
HPDrainRate:6
CircleSize:4
OverallDifficulty:8
ApproachRate:9
SliderMultiplier:2.99999990463257
SliderTickRate:1

[Events]
//Background and Video events
0,0,"blade-runner-2049-3360x1398-ryan-gosling-best-movies-13171.jpg",0,0
//Break Periods
//Storyboard Layer 0 (Background)
//Storyboard Layer 1 (Fail)
//Storyboard Layer 2 (Pass)
//Storyboard Layer 3 (Foreground)
//Storyboard Sound Samples

[TimingPoints]
36,348.837209302326,4,1,0,100,1,0
22361,-200,4,1,0,100,0,0

[HitObjects]
63,303,22361,5,0,0:0:0:0:
97,126,22710,1,0,0:0:0:0:
188,242,23233,2,0,L|274:259,1,74.9999976158143
97,126,23756,5,0,0:0:0:0:
246,24,24105,1,0,0:0:0:0:
228,171,24628,2,0,L|276:243,1,74.9999976158143
246,24,25152,5,0,0:0:0:0:
423,58,25501,1,0,0:0:0:0:
307,149,26024,2,0,L|290:235,1,74.9999976158143
284,255,26547,5,0,0:0:0:0:
129,347,26896,1,0,0:0:0:0:
147,200,27419,2,0,L|98:127,1,74.9999976158143
105,137,27942,5,0,0:0:0:0:
254,35,28291,1,0,0:0:0:0:
236,182,28814,2,0,L|284:254,1,74.9999976158143
277,244,29338,5,0,0:0:0:0:
175,94,29687,1,0,0:0:0:0:
322,112,30210,2,0,L|394:63,1,74.9999976158143
214,285,30733,5,0,0:0:0:0:
112,135,31082,1,0,0:0:0:0:
259,153,31605,2,0,L|331:104,1,74.9999976158143
321,111,32129,5,0,0:0:0:0:
498,145,32478,1,0,0:0:0:0:
382,236,33001,2,0,L|365:322,1,74.9999976158143
136,309,33524,5,0,0:0:0:0:
136,217,33698,5,0,0:0:0:0:
136,217,33786,1,0,0:0:0:0:
136,217,33873,1,0,0:0:0:0:
199,153,34047,5,0,0:0:0:0:
199,153,34134,1,0,0:0:0:0:
199,153,34222,1,0,0:0:0:0:
286,132,34396,5,0,0:0:0:0:
286,132,34483,1,0,0:0:0:0:
286,132,34570,1,0,0:0:0:0:
371,161,34745,5,0,0:0:0:0:
371,161,34832,1,0,0:0:0:0:
371,161,34919,1,0,0:0:0:0:
411,241,35094,5,0,0:0:0:0:
411,241,35181,1,0,0:0:0:0:
411,241,35268,1,0,0:0:0:0:
321,241,35442,5,0,0:0:0:0:
321,241,35530,1,0,0:0:0:0:
321,241,35617,1,0,0:0:0:0:
269,167,35791,5,0,0:0:0:0:
269,167,35879,1,0,0:0:0:0:
269,167,35966,1,0,0:0:0:0:
198,110,36140,5,0,0:0:0:0:
198,110,36227,1,0,0:0:0:0:
198,110,36315,1,0,0:0:0:0:
113,140,36489,5,0,0:0:0:0:
113,140,36576,1,0,0:0:0:0:
113,140,36663,1,0,0:0:0:0:
92,227,36838,5,0,0:0:0:0:
92,227,36925,1,0,0:0:0:0:
92,227,37012,1,0,0:0:0:0:
148,297,37187,5,0,0:0:0:0:
148,297,37274,1,0,0:0:0:0:
148,297,37361,1,0,0:0:0:0:
234,271,37536,5,0,0:0:0:0:
234,271,37623,1,0,0:0:0:0:
234,271,37710,1,0,0:0:0:0:
241,181,37884,5,0,0:0:0:0:
241,181,37972,1,0,0:0:0:0:
241,181,38059,1,0,0:0:0:0:
269,95,38233,5,0,0:0:0:0:
269,95,38320,1,0,0:0:0:0:
269,95,38408,1,0,0:0:0:0:
351,59,38582,5,0,0:0:0:0:
351,59,38669,1,0,0:0:0:0:
351,59,38756,1,0,0:0:0:0:
430,102,38931,6,0,L|450:136,2,37.4999988079071
460,215,39280,1,0,0:0:0:0:
415,293,39454,1,0,0:0:0:0:
331,326,39629,1,0,0:0:0:0:
241,325,39803,1,0,0:0:0:0:
157,292,39977,1,0,0:0:0:0:
113,212,40152,1,0,0:0:0:0:
123,122,40326,1,0,0:0:0:0:
194,67,40501,1,0,0:0:0:0:
283,62,40675,1,0,0:0:0:0:
344,127,40849,1,0,0:0:0:0:
347,217,41024,1,0,0:0:0:0:
283,280,41198,1,0,0:0:0:0:
192,280,41373,1,0,0:0:0:0:
145,203,41547,1,0,0:0:0:0:
170,116,41722,1,0,0:0:0:0:
252,79,41896,5,0,0:0:0:0:
303,72,41983,1,0,0:0:0:0:
354,79,42070,1,0,0:0:0:0:
392,114,42158,1,0,0:0:0:0:
399,165,42245,1,0,0:0:0:0:
387,216,42332,1,0,0:0:0:0:
356,258,42419,1,0,0:0:0:0:
305,270,42506,1,0,0:0:0:0:
264,236,42594,1,0,0:0:0:0:
270,184,42681,1,0,0:0:0:0:
321,173,42768,1,0,0:0:0:0:
341,221,42855,1,0,0:0:0:0:
331,272,42942,1,0,0:0:0:0:
297,312,43030,1,0,0:0:0:0:
248,331,43117,1,0,0:0:0:0:
196,342,43204,1,0,0:0:0:0:
144,332,43291,1,0,0:0:0:0:
115,287,43379,1,0,0:0:0:0:
109,234,43466,1,0,0:0:0:0:
148,199,43553,1,0,0:0:0:0:
200,202,43640,1,0,0:0:0:0:
236,239,43727,1,0,0:0:0:0:
288,246,43815,1,0,0:0:0:0:
336,225,43902,1,0,0:0:0:0:
360,178,43989,1,0,0:0:0:0:
353,126,44076,1,0,0:0:0:0:
324,81,44163,1,0,0:0:0:0:
271,73,44251,1,0,0:0:0:0:
220,85,44338,1,0,0:0:0:0:
184,123,44425,1,0,0:0:0:0:
179,175,44512,1,0,0:0:0:0:
209,217,44599,1,0,0:0:0:0:
260,227,44687,5,0,0:0:0:0:
479,197,44861,1,0,0:0:0:0:
160,59,45036,1,0,0:0:0:0:
406,308,45210,1,0,0:0:0:0:
96,318,45559,5,0,0:0:0:0:
458,230,45733,1,0,0:0:0:0:
66,229,45908,1,0,0:0:0:0:
430,325,46082,1,0,0:0:0:0:
90,137,46256,1,0,0:0:0:0:
422,137,46431,1,0,0:0:0:0:
98,324,46605,1,0,0:0:0:0:
410,270,46954,5,0,0:0:0:0:
216,48,47129,1,0,0:0:0:0:
292,327,47303,1,0,0:0:0:0:
144,147,47477,1,0,0:0:0:0:
440,146,47652,1,0,0:0:0:0:
174,275,47826,1,0,0:0:0:0:
349,41,48001,1,0,0:0:0:0:
387,329,48349,5,0,0:0:0:0:
326,66,48524,1,0,0:0:0:0:
272,329,48698,1,0,0:0:0:0:
203,64,48873,1,0,0:0:0:0:
152,328,49047,1,0,0:0:0:0:
95,65,49222,1,0,0:0:0:0:
35,328,49396,1,0,0:0:0:0:
393,238,49745,5,0,0:0:0:0:
80,153,49919,1,0,0:0:0:0:
403,50,50094,1,0,0:0:0:0:
86,290,50268,1,0,0:0:0:0:
403,149,50442,1,0,0:0:0:0:
66,37,50617,1,0,0:0:0:0:
398,281,50791,1,0,0:0:0:0:
111,314,51140,5,0,0:0:0:0:
260,53,51315,1,0,0:0:0:0:
262,339,51489,1,0,0:0:0:0:
95,93,51663,1,0,0:0:0:0:
395,166,51838,1,0,0:0:0:0:
69,233,52012,1,0,0:0:0:0:
260,53,52187,1,0,0:0:0:0:
345,274,52536,6,0,P|327:312|285:335,1,74.9999976158143
150,320,53059,5,0,0:0:0:0:
149,53,53233,1,0,0:0:0:0:
40,319,53408,1,0,0:0:0:0:
40,53,53582,1,0,0:0:0:0:
207,245,53931,5,0,0:0:0:0:
453,168,54105,1,0,0:0:0:0:
129,113,54280,1,0,0:0:0:0:
439,298,54454,1,0,0:0:0:0:
119,291,54629,1,0,0:0:0:0:
458,68,54803,1,0,0:0:0:0:
120,202,54977,1,0,0:0:0:0:
373,295,55326,5,0,0:0:0:0:
224,72,55501,1,0,0:0:0:0:
149,316,55675,1,0,0:0:0:0:
405,84,55849,1,0,0:0:0:0:
265,344,56024,1,0,0:0:0:0:
57,105,56198,1,0,0:0:0:0:
378,199,56373,1,0,0:0:0:0:
104,318,56722,5,0,0:0:0:0:
283,66,56896,1,0,0:0:0:0:
175,331,57070,1,0,0:0:0:0:
217,49,57245,1,0,0:0:0:0:
242,314,57419,1,0,0:0:0:0:
152,62,57594,1,0,0:0:0:0:
290,269,57768,1,0,0:0:0:0:
419,274,58117,5,0,0:0:0:0:
65,120,58291,1,0,0:0:0:0:
460,122,58466,1,0,0:0:0:0:
103,315,58640,1,0,0:0:0:0:
256,41,58815,1,0,0:0:0:0:
427,312,58989,1,0,0:0:0:0:
65,120,59163,1,0,0:0:0:0:
216,321,59512,5,0,0:0:0:0:
363,61,59687,1,0,0:0:0:0:
113,229,59861,1,0,0:0:0:0:
418,176,60036,1,0,0:0:0:0:
124,99,60210,1,0,0:0:0:0:
357,292,60384,1,0,0:0:0:0:
234,29,60559,1,0,0:0:0:0:
127,298,60908,5,0,0:0:0:0:
186,50,61082,1,0,0:0:0:0:
233,301,61256,1,0,0:0:0:0:
60,123,61431,1,0,0:0:0:0:
319,177,61605,1,0,0:0:0:0:
60,222,61780,1,0,0:0:0:0:
186,50,61954,1,0,0:0:0:0:
349,325,62303,5,0,0:0:0:0:
379,33,62477,1,0,0:0:0:0:
168,243,62652,1,0,0:0:0:0:
482,178,62826,1,0,0:0:0:0:
186,50,63001,1,0,0:0:0:0:
349,325,63175,1,0,0:0:0:0:
379,33,63349,1,0,0:0:0:0:
194,285,63698,5,0,0:0:0:0:
430,167,63873,1,0,0:0:0:0:
179,135,64047,1,0,0:0:0:0:
426,284,64222,5,0,0:0:0:0:
382,313,64309,1,0,0:0:0:0:
336,338,64396,1,0,0:0:0:0:
283,337,64483,1,0,0:0:0:0:
235,314,64570,1,0,0:0:0:0:
196,277,64658,1,0,0:0:0:0:
187,225,64745,1,0,0:0:0:0:
213,179,64832,1,0,0:0:0:0:
264,172,64919,1,0,0:0:0:0:
298,210,65006,1,0,0:0:0:0:
293,262,65094,1,0,0:0:0:0:
257,300,65181,1,0,0:0:0:0:
205,310,65268,1,0,0:0:0:0:
153,301,65355,1,0,0:0:0:0:
113,266,65442,1,0,0:0:0:0:
90,217,65530,1,0,0:0:0:0:
97,165,65617,1,0,0:0:0:0:
