osu file format v14

[General]
AudioFilename: audio.mp3
AudioLeadIn: 0
PreviewTime: 80516
Countdown: 0
SampleSet: Normal
StackLeniency: 0.7
Mode: 1
LetterboxInBreaks: 0
WidescreenStoryboard: 1

[Editor]
Bookmarks: 25496,56971,64840,80577,96315,112053,143528,159266,175004,175127,175250,175373,175495,175618,175741,175864,175987,176110,176233,176356,176479,176602,176725,176848,176971,177094,177217,177340,177463,177586,177709,177832,177955,178077,178200,178323,182873,188774
DistanceSpacing: 0.8
BeatDivisor: 4
GridSize: 32
TimelineZoom: 2.099999

[Metadata]
Title:Tyrannos (Cut Ver.)
TitleUnicode:Tyrannos (Cut Ver.)
Artist:Mechina
ArtistUnicode:Mechina
Creator:Heaxys
Version:Futsuu
Source:
Tags:Atmospheric Symphonic Progressive Industrial Death Metal Telesterion English
BeatmapID:3495495
BeatmapSetID:1429573

[Difficulty]
HPDrainRate:8
CircleSize:2
OverallDifficulty:3
ApproachRate:10
SliderMultiplier:1.4
SliderTickRate:1

[Events]
//Background and Video events
0,0,"futsuuBG.jpg",0,50
//Break Periods
//Storyboard Layer 0 (Background)
//Storyboard Layer 1 (Fail)
//Storyboard Layer 2 (Pass)
//Storyboard Layer 3 (Foreground)
//Storyboard Layer 4 (Overlay)
//Storyboard Sound Samples

[TimingPoints]
415,491.803278688525,4,1,0,10,1,0
25374,-100,4,1,0,25,0,0
25496,245.901639344262,4,1,0,25,1,0
25496,-200,4,1,0,25,0,0
41172,-181.818181818182,4,1,0,60,0,0
41418,-181.818181818182,4,1,0,25,0,0
49041,-166.666666666667,4,1,0,65,0,0
49286,-166.666666666667,4,1,0,25,0,0
56909,-153.846153846154,4,1,0,75,0,0
57155,-153.846153846154,4,1,0,35,0,0
62853,-152.671755725191,4,1,0,40,0,0
63221,-151.515151515152,4,1,0,45,0,0
63344,-150.375939849624,4,1,0,50,0,0
63713,-149.253731343284,4,1,0,55,0,0
63836,-148.148148148148,4,1,0,60,0,0
64205,-145.985401459854,4,1,0,70,0,0
64574,-143.884892086331,4,1,0,80,0,0
64840,-142.857142857143,4,1,0,85,0,0
80577,-133.333333333333,4,1,0,90,0,1
94840,-133.333333333333,4,1,0,90,0,0
94963,-133.333333333333,4,1,0,30,0,0
96192,-142.857142857143,4,1,0,90,0,0
110209,-142.857142857143,4,1,0,30,0,0
111930,-153.846153846154,4,1,0,80,0,0
126807,-151.515151515152,4,1,0,80,0,0
126930,-150.375939849624,4,1,0,80,0,0
127053,-149.253731343284,4,1,0,80,0,0
127299,-147.058823529412,4,1,0,80,0,0
127422,-145.985401459854,4,1,0,80,0,0
127545,-144.927536231884,4,1,0,80,0,0
127791,-142.857142857143,4,1,0,80,0,0
127955,-142.857142857143,4,1,0,90,0,0
143651,-143.884892086331,4,1,0,80,0,0
144266,-144.927536231884,4,1,0,80,0,0
144512,-145.985401459854,4,1,0,80,0,0
144635,-147.058823529412,4,1,0,80,0,0
145004,-148.148148148148,4,1,0,80,0,0
145495,-149.253731343284,4,1,0,80,0,0
145618,-150.375939849624,4,1,0,80,0,0
145864,-151.515151515152,4,1,0,80,0,0
146233,-152.671755725191,4,1,0,80,0,0
146479,-153.846153846154,4,1,0,80,0,0
155823,-152.671755725191,4,1,0,80,0,0
156315,-151.515151515152,4,1,0,80,0,0
156684,-150.375939849624,4,1,0,80,0,0
157053,-149.253731343284,4,1,0,80,0,0
157299,-148.148148148148,4,1,0,80,0,0
157545,-147.058823529412,4,1,0,80,0,0
157791,-145.985401459854,4,1,0,80,0,0
158036,-144.927536231884,4,1,0,80,0,0
158282,-143.884892086331,4,1,0,80,0,0
159266,-142.857142857143,4,1,0,80,0,0
175127,-142.857142857143,4,1,0,30,0,0
178323,-142.857142857143,4,1,0,80,0,0
180885,-141.843971631206,4,1,0,81,0,0
181377,-139.86013986014,4,1,0,83,0,0
181500,-138.888888888889,4,1,0,84,0,0
181746,-137.931034482759,4,1,0,85,0,0
181992,-136.986301369863,4,1,0,86,0,0
182238,-136.054421768707,4,1,0,87,0,0
182484,-135.135135135135,4,1,0,88,0,0
182607,-134.228187919463,4,1,0,89,0,0
182853,-133.333333333333,4,1,0,90,0,0
182873,-133.333333333333,4,1,0,90,0,1
188774,-133.333333333333,4,1,0,90,0,0

[HitObjects]
256,192,25496,5,0,0:0:0:0:
256,192,25864,1,8,0:0:0:0:
256,192,26479,1,8,0:0:0:0:
256,192,26971,1,0,0:0:0:0:
256,192,27463,1,8,0:0:0:0:
256,192,27832,1,0,0:0:0:0:
256,192,28446,1,8,0:0:0:0:
256,192,29430,5,0,0:0:0:0:
256,192,29799,1,0,0:0:0:0:
256,192,30414,1,8,0:0:0:0:
256,192,30905,1,0,0:0:0:0:
256,192,31397,1,8,0:0:0:0:
256,192,31766,1,0,0:0:0:0:
256,192,32381,1,8,0:0:0:0:
256,192,32750,1,8,0:0:0:0:
256,192,33364,5,4,0:0:0:0:
256,192,34348,1,8,0:0:0:0:
256,192,34840,1,8,0:0:0:0:
256,192,35332,5,0,0:0:0:0:
256,192,35700,1,0,0:0:0:0:
256,192,36315,1,8,0:0:0:0:
256,192,36684,1,8,0:0:0:0:
256,192,37299,5,0,0:0:0:0:
256,192,37668,1,0,0:0:0:0:
256,192,38282,1,8,0:0:0:0:
256,192,38774,1,0,0:0:0:0:
256,192,39266,5,8,0:0:0:0:
256,192,39635,1,0,0:0:0:0:
256,192,40250,1,8,0:0:0:0:
256,192,40618,1,8,0:0:0:0:
256,192,41233,5,4,0:0:0:0:
256,192,41602,1,8,0:0:0:0:
256,192,41971,1,0,0:0:0:0:
256,192,42217,1,8,0:0:0:0:
256,192,42709,1,0,0:0:0:0:
256,192,43200,1,8,0:0:0:0:
256,192,43569,1,8,0:0:0:0:
256,192,43938,1,0,0:0:0:0:
256,192,44184,1,8,0:0:0:0:
256,192,44676,1,0,0:0:0:0:
256,192,45168,5,8,0:0:0:0:
256,192,45536,1,0,0:0:0:0:
256,192,45905,1,0,0:0:0:0:
256,192,46151,1,8,0:0:0:0:
256,192,46643,1,0,0:0:0:0:
256,192,47135,1,8,0:0:0:0:
256,192,47504,1,8,0:0:0:0:
256,192,47873,1,0,0:0:0:0:
256,192,48118,1,8,0:0:0:0:
256,192,48610,1,8,0:0:0:0:
256,192,49102,5,4,0:0:0:0:
256,192,49594,1,0,0:0:0:0:
256,192,49840,1,0,0:0:0:0:
256,192,50086,1,8,0:0:0:0:
256,192,50577,1,0,0:0:0:0:
256,192,50823,1,8,0:0:0:0:
256,192,51069,1,8,0:0:0:0:
256,192,51438,1,8,0:0:0:0:
256,192,51807,1,0,0:0:0:0:
256,192,52053,1,8,0:0:0:0:
256,192,52299,1,0,0:0:0:0:
256,192,52545,1,8,0:0:0:0:
256,192,52791,1,8,0:0:0:0:
256,192,53036,5,0,0:0:0:0:
256,192,53405,1,0,0:0:0:0:
256,192,53774,1,0,0:0:0:0:
256,192,54020,1,8,0:0:0:0:
256,192,54512,1,0,0:0:0:0:
256,192,54758,1,8,0:0:0:0:
256,192,55004,1,0,0:0:0:0:
256,192,55373,1,8,0:0:0:0:
256,192,55741,1,8,0:0:0:0:
256,192,56110,1,8,0:0:0:0:
256,192,56479,1,0,0:0:0:0:
256,192,56725,1,8,0:0:0:0:
256,192,56971,5,4,0:0:0:0:
256,192,57463,1,8,0:0:0:0:
256,192,57586,1,0,0:0:0:0:
256,192,57832,1,8,0:0:0:0:
256,192,58200,1,8,0:0:0:0:
256,192,58446,1,0,0:0:0:0:
256,192,58692,1,8,0:0:0:0:
256,192,58938,1,8,0:0:0:0:
256,192,59307,5,8,0:0:0:0:
256,192,59430,1,8,0:0:0:0:
256,192,59676,1,0,0:0:0:0:
256,192,59922,1,8,0:0:0:0:
256,192,60291,1,8,0:0:0:0:
256,192,60659,1,0,0:0:0:0:
256,192,60905,5,8,0:0:0:0:
256,192,61274,1,8,0:0:0:0:
256,192,61397,1,8,0:0:0:0:
256,192,61766,1,8,0:0:0:0:
256,192,62135,1,0,0:0:0:0:
256,192,62258,1,8,0:0:0:0:
256,192,62627,1,8,0:0:0:0:
256,192,62873,5,8,0:0:0:0:
256,192,63241,1,8,0:0:0:0:
256,192,63364,1,8,0:0:0:0:
256,192,63733,1,0,0:0:0:0:
256,192,63856,1,8,0:0:0:0:
256,192,64225,1,8,0:0:0:0:
256,192,64594,1,0,0:0:0:0:
256,192,64840,5,4,0:0:0:0:
256,192,65332,1,8,0:0:0:0:
256,192,65455,1,0,0:0:0:0:
256,192,65700,1,8,0:0:0:0:
256,192,65946,1,0,0:0:0:0:
256,192,66192,1,8,0:0:0:0:
256,192,66438,1,8,0:0:0:0:
256,192,66561,1,8,0:0:0:0:
256,192,66807,1,0,0:0:0:0:
256,192,67299,5,8,0:0:0:0:
256,192,67422,1,0,0:0:0:0:
256,192,67667,1,8,0:0:0:0:
256,192,67914,1,0,0:0:0:0:
256,192,68159,1,8,0:0:0:0:
256,192,68282,1,8,0:0:0:0:
256,192,68528,1,0,0:0:0:0:
256,192,68774,1,0,0:0:0:0:
256,192,69266,5,8,0:0:0:0:
256,192,69389,1,0,0:0:0:0:
256,192,69634,1,8,0:0:0:0:
256,192,69880,1,8,0:0:0:0:
256,192,70127,1,0,0:0:0:0:
256,192,70372,1,0,0:0:0:0:
256,192,70495,1,8,0:0:0:0:
256,192,70741,1,0,0:0:0:0:
256,192,71233,5,8,0:0:0:0:
256,192,71356,1,0,0:0:0:0:
256,192,71601,1,8,0:0:0:0:
256,192,71848,1,8,0:0:0:0:
256,192,72093,1,0,0:0:0:0:
256,192,72216,1,0,0:0:0:0:
256,192,72462,1,8,0:0:0:0:
256,192,72708,1,8,0:0:0:0:
256,192,73200,5,8,0:0:0:0:
256,192,73323,1,8,0:0:0:0:
256,192,73568,1,8,0:0:0:0:
256,192,73814,1,0,0:0:0:0:
256,192,74060,1,8,0:0:0:0:
256,192,74306,1,0,0:0:0:0:
256,192,74429,1,8,0:0:0:0:
256,192,74675,1,8,0:0:0:0:
256,192,75167,5,8,0:0:0:0:
256,192,75290,1,8,0:0:0:0:
256,192,75535,1,8,0:0:0:0:
256,192,75782,1,0,0:0:0:0:
256,192,76027,1,0,0:0:0:0:
256,192,76151,1,8,0:0:0:0:
256,192,76396,1,0,0:0:0:0:
256,192,76642,1,8,0:0:0:0:
256,192,77134,5,8,0:0:0:0:
256,192,77257,1,8,0:0:0:0:
256,192,77504,1,8,0:0:0:0:
256,192,77750,1,8,0:0:0:0:
256,192,77995,1,0,0:0:0:0:
256,192,78240,1,8,0:0:0:0:
256,192,78363,1,0,0:0:0:0:
256,192,78609,1,4,0:0:0:0:
256,192,80577,5,12,0:0:0:0:
256,192,81069,1,8,0:0:0:0:
256,192,81315,1,0,0:0:0:0:
256,192,81438,1,8,0:0:0:0:
256,192,81684,1,0,0:0:0:0:
256,192,81930,1,8,0:0:0:0:
256,192,82053,1,0,0:0:0:0:
256,192,82176,1,8,0:0:0:0:
256,192,82299,1,8,0:0:0:0:
256,192,82545,5,8,0:0:0:0:
256,192,83036,1,8,0:0:0:0:
256,192,83159,1,0,0:0:0:0:
256,192,83405,1,8,0:0:0:0:
256,192,83651,1,0,0:0:0:0:
256,192,83897,1,8,0:0:0:0:
256,192,84020,1,8,0:0:0:0:
256,192,84143,1,0,0:0:0:0:
256,192,84266,1,8,0:0:0:0:
256,192,84512,1,8,0:0:0:0:
256,192,85004,5,8,0:0:0:0:
256,192,85250,1,0,0:0:0:0:
256,192,85373,1,8,0:0:0:0:
256,192,85618,1,0,0:0:0:0:
256,192,85864,1,8,0:0:0:0:
256,192,85987,1,0,0:0:0:0:
256,192,86110,1,8,0:0:0:0:
256,192,86233,1,8,0:0:0:0:
256,192,86479,5,8,0:0:0:0:
256,192,86971,1,8,0:0:0:0:
256,192,87094,1,0,0:0:0:0:
256,192,87340,1,8,0:0:0:0:
256,192,87463,1,8,0:0:0:0:
256,192,87586,1,0,0:0:0:0:
256,192,87832,1,8,0:0:0:0:
256,192,88077,1,0,0:0:0:0:
256,192,88200,1,8,0:0:0:0:
256,192,88446,5,12,0:0:0:0:
256,192,88938,1,8,0:0:0:0:
256,192,89061,1,0,0:0:0:0:
256,192,89307,1,8,0:0:0:0:
256,192,89553,1,0,0:0:0:0:
256,192,89799,1,8,0:0:0:0:
256,192,89922,1,0,0:0:0:0:
256,192,90045,1,8,0:0:0:0:
256,192,90168,1,8,0:0:0:0:
256,192,90414,5,8,0:0:0:0:
256,192,90905,1,8,0:0:0:0:
256,192,91151,1,0,0:0:0:0:
256,192,91274,1,8,0:0:0:0:
256,192,91520,1,0,0:0:0:0:
256,192,91766,1,8,0:0:0:0:
256,192,91889,1,8,0:0:0:0:
256,192,92012,1,0,0:0:0:0:
256,192,92135,1,8,0:0:0:0:
256,192,92381,1,8,0:0:0:0:
256,192,92873,5,8,0:0:0:0:
256,192,92995,1,0,0:0:0:0:
256,192,93242,1,8,0:0:0:0:
256,192,93488,1,0,0:0:0:0:
256,192,93733,1,8,0:0:0:0:
256,192,93856,1,0,0:0:0:0:
256,192,93979,1,8,0:0:0:0:
256,192,94102,1,8,0:0:0:0:
256,192,94348,5,8,0:0:0:0:
256,192,94471,1,8,0:0:0:0:
256,192,94594,1,0,0:0:0:0:
256,192,94840,1,8,0:0:0:0:
256,192,96315,5,4,0:0:0:0:
256,192,96807,1,8,0:0:0:0:
256,192,97053,1,0,0:0:0:0:
256,192,97299,1,8,0:0:0:0:
256,192,97545,1,8,0:0:0:0:
256,192,97791,1,8,0:0:0:0:
256,192,97914,1,0,0:0:0:0:
256,192,98159,1,8,0:0:0:0:
256,192,98282,1,8,0:0:0:0:
256,192,98528,5,0,0:0:0:0:
256,192,98774,1,8,0:0:0:0:
256,192,99020,1,0,0:0:0:0:
256,192,99266,1,8,0:0:0:0:
256,192,99512,1,8,0:0:0:0:
256,192,99635,1,0,0:0:0:0:
256,192,99758,1,0,0:0:0:0:
256,192,100004,1,8,0:0:0:0:
256,192,100127,1,8,0:0:0:0:
256,192,100250,1,8,0:0:0:0:
256,192,100741,5,8,0:0:0:0:
256,192,100987,1,0,0:0:0:0:
256,192,101233,1,8,0:0:0:0:
256,192,101479,1,8,0:0:0:0:
256,192,101725,1,8,0:0:0:0:
256,192,101848,1,0,0:0:0:0:
256,192,102094,1,8,0:0:0:0:
256,192,102217,5,8,0:0:0:0:
256,192,102463,1,0,0:0:0:0:
256,192,102709,1,8,0:0:0:0:
256,192,102955,1,0,0:0:0:0:
256,192,103200,1,8,0:0:0:0:
256,192,103446,1,8,0:0:0:0:
256,192,103569,1,0,0:0:0:0:
256,192,103692,1,8,0:0:0:0:
256,192,103938,1,0,0:0:0:0:
256,192,104061,1,8,0:0:0:0:
256,192,104184,1,8,0:0:0:0:
256,192,104676,5,8,0:0:0:0:
256,192,104922,1,0,0:0:0:0:
256,192,105168,1,8,0:0:0:0:
256,192,105414,1,8,0:0:0:0:
256,192,105536,1,8,0:0:0:0:
256,192,105783,1,8,0:0:0:0:
256,192,105905,1,0,0:0:0:0:
256,192,106151,1,8,0:0:0:0:
256,192,106397,5,0,0:0:0:0:
256,192,106643,1,8,0:0:0:0:
256,192,106889,1,0,0:0:0:0:
256,192,107135,1,8,0:0:0:0:
256,192,107258,1,8,0:0:0:0:
256,192,107381,1,0,0:0:0:0:
256,192,107627,1,8,0:0:0:0:
256,192,107750,1,0,0:0:0:0:
256,192,107873,1,8,0:0:0:0:
256,192,108119,1,8,0:0:0:0:
256,192,108610,5,8,0:0:0:0:
256,192,108856,1,0,0:0:0:0:
256,192,109102,1,8,0:0:0:0:
256,192,109348,1,8,0:0:0:0:
256,192,109594,1,0,0:0:0:0:
256,192,109717,1,8,0:0:0:0:
256,192,109840,1,8,0:0:0:0:
256,192,110086,5,8,0:0:0:0:
256,192,112053,1,0,0:0:0:0:
256,192,112422,1,8,0:0:0:0:
256,192,112545,1,0,0:0:0:0:
256,192,112791,1,0,0:0:0:0:
256,192,113036,1,8,0:0:0:0:
256,192,113405,1,8,0:0:0:0:
256,192,113651,1,0,0:0:0:0:
256,192,113774,1,8,0:0:0:0:
256,192,114020,1,8,0:0:0:0:
256,192,114266,1,0,0:0:0:0:
256,192,114389,1,8,0:0:0:0:
256,192,114758,1,8,0:0:0:0:
256,192,115004,1,8,0:0:0:0:
256,192,115250,1,0,0:0:0:0:
256,192,115495,1,8,0:0:0:0:
256,192,115987,5,0,0:0:0:0:
256,192,116356,1,8,0:0:0:0:
256,192,116479,1,0,0:0:0:0:
256,192,116725,1,0,0:0:0:0:
256,192,116971,1,8,0:0:0:0:
256,192,117217,1,8,0:0:0:0:
256,192,117340,1,8,0:0:0:0:
256,192,117709,1,8,0:0:0:0:
256,192,117955,1,8,0:0:0:0:
256,192,118200,1,0,0:0:0:0:
256,192,118323,1,8,0:0:0:0:
256,192,118569,1,0,0:0:0:0:
256,192,118692,1,8,0:0:0:0:
256,192,118938,1,8,0:0:0:0:
256,192,119184,1,0,0:0:0:0:
256,192,119430,1,8,0:0:0:0:
256,192,119922,5,0,0:0:0:0:
256,192,120168,1,8,0:0:0:0:
256,192,120414,1,8,0:0:0:0:
256,192,120659,1,8,0:0:0:0:
256,192,120782,1,0,0:0:0:0:
256,192,120905,1,8,0:0:0:0:
256,192,121151,1,8,0:0:0:0:
256,192,121397,1,0,0:0:0:0:
256,192,121643,1,8,0:0:0:0:
256,192,121889,1,8,0:0:0:0:
256,192,122135,1,0,0:0:0:0:
256,192,122258,1,8,0:0:0:0:
256,192,122627,1,8,0:0:0:0:
256,192,122873,1,8,0:0:0:0:
256,192,123118,1,0,0:0:0:0:
256,192,123364,1,8,0:0:0:0:
256,192,123856,5,0,0:0:0:0:
256,192,124102,1,8,0:0:0:0:
256,192,124348,1,8,0:0:0:0:
256,192,124717,1,8,0:0:0:0:
256,192,124840,1,0,0:0:0:0:
256,192,125086,1,8,0:0:0:0:
256,192,125332,1,0,0:0:0:0:
256,192,125577,1,8,0:0:0:0:
256,192,125823,5,8,0:0:0:0:
256,192,126192,1,8,0:0:0:0:
256,192,126561,1,8,0:0:0:0:
256,192,126807,1,8,0:0:0:0:
256,192,126930,1,8,0:0:0:0:
256,192,127053,1,0,0:0:0:0:
256,192,127299,1,8,0:0:0:0:
256,192,127422,1,0,0:0:0:0:
256,192,127545,1,0,0:0:0:0:
256,192,127791,5,4,0:0:0:0:
256,192,128282,1,8,0:0:0:0:
256,192,128528,1,8,0:0:0:0:
256,192,128651,1,0,0:0:0:0:
256,192,128774,1,8,0:0:0:0:
256,192,129143,1,0,0:0:0:0:
256,192,129266,1,8,0:0:0:0:
256,192,129511,1,0,0:0:0:0:
256,192,129758,5,8,0:0:0:0:
256,192,130250,1,0,0:0:0:0:
256,192,130495,1,8,0:0:0:0:
256,192,130741,1,8,0:0:0:0:
256,192,130987,1,8,0:0:0:0:
256,192,131110,1,0,0:0:0:0:
256,192,131233,1,8,0:0:0:0:
256,192,131479,1,8,0:0:0:0:
256,192,131725,5,8,0:0:0:0:
256,192,132217,1,0,0:0:0:0:
256,192,132463,1,8,0:0:0:0:
256,192,132709,1,8,0:0:0:0:
256,192,132832,1,0,0:0:0:0:
256,192,132955,1,8,0:0:0:0:
256,192,133201,1,8,0:0:0:0:
256,192,133447,1,0,0:0:0:0:
256,192,133693,5,8,0:0:0:0:
256,192,134061,1,8,0:0:0:0:
256,192,134184,1,0,0:0:0:0:
256,192,134430,1,8,0:0:0:0:
256,192,134676,1,8,0:0:0:0:
256,192,134922,1,0,0:0:0:0:
256,192,135168,1,8,0:0:0:0:
256,192,135659,5,4,0:0:0:0:
256,192,136151,1,0,0:0:0:0:
256,192,136397,1,8,0:0:0:0:
256,192,136643,1,8,0:0:0:0:
256,192,136889,1,8,0:0:0:0:
256,192,137012,1,8,0:0:0:0:
256,192,137381,1,0,0:0:0:0:
256,192,137627,5,8,0:0:0:0:
256,192,137873,1,8,0:0:0:0:
256,192,137995,1,8,0:0:0:0:
256,192,138241,1,0,0:0:0:0:
256,192,138364,1,8,0:0:0:0:
256,192,138610,1,8,0:0:0:0:
256,192,138856,1,0,0:0:0:0:
256,192,139102,1,8,0:0:0:0:
256,192,139348,1,0,0:0:0:0:
256,192,139594,5,8,0:0:0:0:
256,192,139840,1,8,0:0:0:0:
256,192,139963,1,8,0:0:0:0:
256,192,140332,1,8,0:0:0:0:
256,192,140577,1,8,0:0:0:0:
256,192,140823,1,0,0:0:0:0:
256,192,141069,1,0,0:0:0:0:
256,192,141315,1,8,0:0:0:0:
256,192,141561,5,4,0:0:0:0:
256,192,142053,1,8,0:0:0:0:
256,192,142176,1,0,0:0:0:0:
256,192,142299,1,0,0:0:0:0:
256,192,142422,1,8,0:0:0:0:
256,192,142668,1,8,0:0:0:0:
256,192,142791,1,0,0:0:0:0:
256,192,143036,1,8,0:0:0:0:
256,192,143528,5,12,0:0:0:0:
256,192,143897,1,0,0:0:0:0:
256,192,144266,1,8,0:0:0:0:
256,192,144512,1,0,0:0:0:0:
256,192,144635,1,8,0:0:0:0:
256,192,145004,1,8,0:0:0:0:
256,192,145495,5,8,0:0:0:0:
256,192,145618,1,0,0:0:0:0:
256,192,145864,1,8,0:0:0:0:
256,192,146233,1,0,0:0:0:0:
256,192,146479,1,8,0:0:0:0:
256,192,146725,1,8,0:0:0:0:
256,192,146971,1,8,0:0:0:0:
256,192,147217,1,8,0:0:0:0:
256,192,147463,5,4,0:0:0:0:
256,192,147832,1,8,0:0:0:0:
256,192,148200,1,0,0:0:0:0:
256,192,148446,1,8,0:0:0:0:
256,192,148815,1,0,0:0:0:0:
256,192,149184,1,0,0:0:0:0:
256,192,149430,5,8,0:0:0:0:
256,192,149922,1,8,0:0:0:0:
256,192,150414,1,8,0:0:0:0:
256,192,150659,1,8,0:0:0:0:
256,192,150905,1,8,0:0:0:0:
256,192,151151,1,8,0:0:0:0:
256,192,151397,5,4,0:0:0:0:
256,192,151766,1,8,0:0:0:0:
256,192,152135,1,0,0:0:0:0:
256,192,152381,1,8,0:0:0:0:
256,192,152627,1,8,0:0:0:0:
256,192,152873,1,0,0:0:0:0:
256,192,153364,1,8,0:0:0:0:
256,192,153733,1,8,0:0:0:0:
256,192,154102,1,0,0:0:0:0:
256,192,154348,1,8,0:0:0:0:
256,192,154840,1,0,0:0:0:0:
256,192,155086,1,8,0:0:0:0:
256,192,155332,5,8,0:0:0:0:
256,192,155823,1,0,0:0:0:0:
256,192,156315,1,8,0:0:0:0:
256,192,156684,1,8,0:0:0:0:
256,192,157053,1,0,0:0:0:0:
256,192,157299,5,8,0:0:0:0:
256,192,157545,1,0,0:0:0:0:
256,192,157791,1,8,0:0:0:0:
256,192,158036,1,0,0:0:0:0:
256,192,158282,1,8,0:0:0:0:
256,192,158774,1,8,0:0:0:0:
256,192,158897,1,8,0:0:0:0:
256,192,159020,1,8,0:0:0:0:
256,192,159266,1,4,0:0:0:0:
256,192,159758,5,8,0:0:0:0:
256,192,160250,1,8,0:0:0:0:
256,192,160741,1,0,0:0:0:0:
256,192,160987,1,8,0:0:0:0:
256,192,161233,1,0,0:0:0:0:
256,192,161725,1,8,0:0:0:0:
256,192,162217,1,8,0:0:0:0:
256,192,162709,1,0,0:0:0:0:
256,192,163200,5,0,0:0:0:0:
256,192,163692,1,8,0:0:0:0:
256,192,164184,1,8,0:0:0:0:
256,192,164430,1,0,0:0:0:0:
256,192,164676,1,8,0:0:0:0:
256,192,165168,1,8,0:0:0:0:
256,192,165536,1,8,0:0:0:0:
256,192,165905,1,0,0:0:0:0:
256,192,166151,1,8,0:0:0:0:
256,192,166643,1,8,0:0:0:0:
256,192,166889,1,8,0:0:0:0:
256,192,167135,5,0,0:0:0:0:
256,192,167627,1,8,0:0:0:0:
256,192,168118,1,8,0:0:0:0:
256,192,168610,1,0,0:0:0:0:
256,192,168856,1,8,0:0:0:0:
256,192,169102,1,0,0:0:0:0:
256,192,169594,1,8,0:0:0:0:
256,192,170086,1,8,0:0:0:0:
256,192,170332,1,0,0:0:0:0:
256,192,170577,1,0,0:0:0:0:
256,192,171069,5,0,0:0:0:0:
256,192,171561,1,8,0:0:0:0:
256,192,172053,1,8,0:0:0:0:
256,192,172299,1,0,0:0:0:0:
256,192,172545,1,8,0:0:0:0:
256,192,173036,1,8,0:0:0:0:
256,192,173405,1,0,0:0:0:0:
256,192,173774,1,0,0:0:0:0:
256,192,174020,1,8,0:0:0:0:
256,192,174266,1,8,0:0:0:0:
256,192,174512,1,0,0:0:0:0:
256,192,175004,1,12,0:0:0:0:
256,192,178446,5,0,0:0:0:0:
256,192,178569,1,0,0:0:0:0:
256,192,178692,1,8,0:0:0:0:
256,192,178938,5,0,0:0:0:0:
256,192,179430,1,8,0:0:0:0:
256,192,179553,1,0,0:0:0:0:
256,192,179799,1,8,0:0:0:0:
256,192,180045,1,0,0:0:0:0:
256,192,180291,1,8,0:0:0:0:
256,192,180536,1,8,0:0:0:0:
256,192,180659,1,8,0:0:0:0:
256,192,180905,5,0,0:0:0:0:
256,192,181397,1,8,0:0:0:0:
256,192,181520,1,0,0:0:0:0:
256,192,181766,1,8,0:0:0:0:
256,192,182012,1,0,0:0:0:0:
256,192,182258,1,8,0:0:0:0:
256,192,182504,1,8,0:0:0:0:
256,192,182627,1,8,0:0:0:0:
256,192,182873,1,12,0:0:0:0:
256,192,183364,5,8,0:0:0:0:
256,192,183487,1,0,0:0:0:0:
256,192,183733,1,8,0:0:0:0:
256,192,183979,1,0,0:0:0:0:
256,192,184225,1,8,0:0:0:0:
256,192,184348,1,0,0:0:0:0:
256,192,184471,1,8,0:0:0:0:
256,192,184594,1,8,0:0:0:0:
256,192,184840,5,8,0:0:0:0:
256,192,185331,1,8,0:0:0:0:
256,192,185577,1,0,0:0:0:0:
256,192,185700,1,8,0:0:0:0:
256,192,185946,1,0,0:0:0:0:
256,192,186192,1,8,0:0:0:0:
256,192,186315,1,8,0:0:0:0:
256,192,186438,1,0,0:0:0:0:
256,192,186561,1,8,0:0:0:0:
256,192,186807,1,8,0:0:0:0:
256,192,187299,5,8,0:0:0:0:
256,192,187422,1,0,0:0:0:0:
256,192,187668,1,8,0:0:0:0:
256,192,187914,1,0,0:0:0:0:
256,192,188159,1,8,0:0:0:0:
256,192,188282,1,0,0:0:0:0:
256,192,188405,1,8,0:0:0:0:
256,192,188528,1,8,0:0:0:0:
256,192,188774,1,8,0:0:0:0:
