osu file format v14

[General]
AudioFilename: audio.mp3
AudioLeadIn: 0
PreviewTime: 43104
Countdown: 1
SampleSet: Soft
StackLeniency: 0.7
Mode: 3
LetterboxInBreaks: 0
SpecialStyle: 0
WidescreenStoryboard: 0

[Editor]
Bookmarks: 7104,16704,35904,40704,43104,45504,70704,74304,79104,81504,83904,88704,97104,98304,107604,112704,115104,117504,122304,131904,136704,146304,153504,155904,164304,173304,175104,177504,191904,194304,206304,209904,212304
DistanceSpacing: 0.8
BeatDivisor: 2
GridSize: 32
TimelineZoom: 1.8

[Metadata]
Title:Forever more
TitleUnicode:Forever more
Artist:Meccano Twins
ArtistUnicode:Meccano Twins
Creator:Tauianer
Version:Insane
Source:
Tags:Hardcore
BeatmapID:1468837
BeatmapSetID:694261

[Difficulty]
HPDrainRate:8
CircleSize:4
OverallDifficulty:7
ApproachRate:5
SliderMultiplier:1.4
SliderTickRate:1

[Events]
//Background and Video events
0,0,"maxresdefault.jpg",0,0
//Break Periods
//Storyboard Layer 0 (Background)
//Storyboard Layer 1 (Fail)
//Storyboard Layer 2 (Pass)
//Storyboard Layer 3 (Foreground)
//Storyboard Sound Samples

[TimingPoints]
7104,300,4,2,0,100,1,0
45504,-100,4,2,0,100,0,1
70704,-100,4,2,0,100,0,0
88704,-100,4,2,0,100,0,1
97104,-100,4,2,0,100,0,0
98304,-100,4,2,0,100,0,1
115104,-100,4,2,0,100,0,0
155904,-100,4,2,0,100,0,1
173304,-100,4,2,0,100,0,0
177504,-100,4,2,0,100,0,1
191904,-100,4,2,0,100,0,0

[HitObjects]
64,192,7104,5,0,0:0:0:0:
192,192,7104,1,0,0:0:0:0:
320,192,7104,1,0,0:0:0:0:
448,192,7104,1,0,0:0:0:0:
448,192,7704,1,0,0:0:0:0:
64,192,8304,1,0,0:0:0:0:
320,192,8904,1,0,0:0:0:0:
192,192,9504,1,0,0:0:0:0:
64,192,10104,1,0,0:0:0:0:
192,192,10404,1,0,0:0:0:0:
320,192,10404,1,0,0:0:0:0:
448,192,10704,1,0,0:0:0:0:
320,192,11004,128,0,11904:0:0:0:0:
64,192,11304,1,0,0:0:0:0:
192,192,11904,1,0,0:0:0:0:
448,192,11904,1,0,0:0:0:0:
64,192,12504,1,0,0:0:0:0:
320,192,12504,1,0,0:0:0:0:
192,192,13104,1,0,0:0:0:0:
448,192,13104,1,0,0:0:0:0:
64,192,13704,1,0,0:0:0:0:
320,192,13704,1,0,0:0:0:0:
192,192,14304,1,0,0:0:0:0:
64,192,14304,128,0,16104:0:0:0:0:
448,192,14304,128,0,16104:0:0:0:0:
320,192,14604,1,0,0:0:0:0:
192,192,14904,1,0,0:0:0:0:
320,192,15204,1,0,0:0:0:0:
192,192,15504,1,0,0:0:0:0:
192,192,16104,1,0,0:0:0:0:
320,192,16104,1,0,0:0:0:0:
192,192,16704,1,0,0:0:0:0:
320,192,16704,1,0,0:0:0:0:
448,192,16704,1,0,0:0:0:0:
64,192,16704,128,0,17904:0:0:0:0:
320,192,17004,1,0,0:0:0:0:
320,192,17304,1,0,0:0:0:0:
320,192,17604,1,0,0:0:0:0:
448,192,17904,128,0,19104:0:0:0:0:
192,192,17904,1,0,0:0:0:0:
320,192,17904,1,0,0:0:0:0:
192,192,18204,1,0,0:0:0:0:
192,192,18504,1,0,0:0:0:0:
192,192,18804,1,0,0:0:0:0:
192,192,19104,128,0,20304:0:0:0:0:
320,192,19404,1,0,0:0:0:0:
320,192,19704,1,0,0:0:0:0:
320,192,20004,1,0,0:0:0:0:
320,192,20304,128,0,21504:0:0:0:0:
448,192,20304,1,0,0:0:0:0:
64,192,20304,1,0,0:0:0:0:
192,192,20604,1,0,0:0:0:0:
192,192,20904,1,0,0:0:0:0:
192,192,21204,1,0,0:0:0:0:
64,192,21504,1,0,0:0:0:0:
448,192,21504,1,0,0:0:0:0:
64,192,21804,1,0,0:0:0:0:
448,192,21804,1,0,0:0:0:0:
192,192,22104,1,0,0:0:0:0:
320,192,22104,1,0,0:0:0:0:
192,192,22404,1,0,0:0:0:0:
320,192,22404,1,0,0:0:0:0:
64,192,22704,1,0,0:0:0:0:
448,192,22704,1,0,0:0:0:0:
64,192,23004,1,0,0:0:0:0:
448,192,23004,1,0,0:0:0:0:
192,192,23304,128,0,23904:0:0:0:0:
320,192,23304,128,0,23904:0:0:0:0:
448,192,23904,1,0,0:0:0:0:
64,192,23904,1,0,0:0:0:0:
192,192,24504,1,0,0:0:0:0:
320,192,24504,1,0,0:0:0:0:
448,192,24504,1,0,0:0:0:0:
64,192,25104,1,0,0:0:0:0:
192,192,25104,1,0,0:0:0:0:
320,192,25104,1,0,0:0:0:0:
192,192,25704,1,0,0:0:0:0:
320,192,25704,1,0,0:0:0:0:
448,192,25704,1,0,0:0:0:0:
64,192,26304,128,0,27504:0:0:0:0:
320,192,26304,128,0,27504:0:0:0:0:
192,192,26604,1,0,0:0:0:0:
448,192,26904,1,0,0:0:0:0:
192,192,27204,1,0,0:0:0:0:
192,192,27504,128,0,28704:0:0:0:0:
448,192,27504,128,0,28704:0:0:0:0:
320,192,27804,1,0,0:0:0:0:
64,192,28104,1,0,0:0:0:0:
320,192,28404,1,0,0:0:0:0:
320,192,28704,128,0,29904:0:0:0:0:
64,192,28704,128,0,29904:0:0:0:0:
192,192,29004,1,0,0:0:0:0:
448,192,29304,1,0,0:0:0:0:
192,192,29604,1,0,0:0:0:0:
192,192,29904,128,0,31104:0:0:0:0:
448,192,29904,128,0,31104:0:0:0:0:
320,192,30204,1,0,0:0:0:0:
64,192,30504,1,0,0:0:0:0:
320,192,30804,1,0,0:0:0:0:
64,192,31104,128,0,32304:0:0:0:0:
320,192,31104,128,0,32304:0:0:0:0:
192,192,31404,1,0,0:0:0:0:
448,192,31704,1,0,0:0:0:0:
192,192,32004,1,0,0:0:0:0:
192,192,32304,128,0,33504:0:0:0:0:
448,192,32304,128,0,33504:0:0:0:0:
320,192,32604,1,0,0:0:0:0:
64,192,32904,1,0,0:0:0:0:
320,192,33204,1,0,0:0:0:0:
64,192,33504,128,0,34704:0:0:0:0:
320,192,33504,128,0,34704:0:0:0:0:
192,192,33804,1,0,0:0:0:0:
448,192,34104,1,0,0:0:0:0:
192,192,34404,1,0,0:0:0:0:
320,192,35904,1,0,0:0:0:0:
448,192,35904,1,0,0:0:0:0:
192,192,36054,1,0,0:0:0:0:
64,192,36054,1,0,0:0:0:0:
192,192,36204,1,0,0:0:0:0:
64,192,36204,1,0,0:0:0:0:
320,192,36354,1,0,0:0:0:0:
448,192,36354,1,0,0:0:0:0:
192,192,36504,1,0,0:0:0:0:
64,192,36579,1,0,0:0:0:0:
192,192,36654,1,0,0:0:0:0:
320,192,36804,1,0,0:0:0:0:
448,192,36804,1,0,0:0:0:0:
192,192,36954,1,0,0:0:0:0:
64,192,36954,1,0,0:0:0:0:
64,192,37104,1,0,0:0:0:0:
192,192,37104,1,0,0:0:0:0:
320,192,37254,1,0,0:0:0:0:
448,192,37254,1,0,0:0:0:0:
192,192,37404,1,0,0:0:0:0:
64,192,37479,1,0,0:0:0:0:
192,192,37554,1,0,0:0:0:0:
320,192,37704,1,0,0:0:0:0:
448,192,37704,1,0,0:0:0:0:
192,192,37854,1,0,0:0:0:0:
64,192,38004,1,0,0:0:0:0:
192,192,38079,1,0,0:0:0:0:
320,192,38154,1,0,0:0:0:0:
448,192,38229,1,0,0:0:0:0:
320,192,38304,1,0,0:0:0:0:
192,192,38304,1,0,0:0:0:0:
64,192,38304,1,0,0:0:0:0:
448,192,38454,1,0,0:0:0:0:
64,192,38604,1,0,0:0:0:0:
192,192,38754,1,0,0:0:0:0:
320,192,38754,1,0,0:0:0:0:
448,192,38754,1,0,0:0:0:0:
64,192,38904,1,0,0:0:0:0:
192,192,39054,1,0,0:0:0:0:
64,192,39204,1,0,0:0:0:0:
320,192,39204,1,0,0:0:0:0:
448,192,39204,1,0,0:0:0:0:
192,192,39354,1,0,0:0:0:0:
320,192,39504,1,0,0:0:0:0:
192,192,39654,1,0,0:0:0:0:
448,192,39654,1,0,0:0:0:0:
64,192,39654,1,0,0:0:0:0:
320,192,39804,1,0,0:0:0:0:
448,192,39954,1,0,0:0:0:0:
64,192,39954,1,0,0:0:0:0:
192,192,40104,128,0,40554:0:0:0:0:
320,192,40104,128,0,40554:0:0:0:0:
64,192,40704,1,0,0:0:0:0:
448,192,40704,1,0,0:0:0:0:
192,192,40854,1,0,0:0:0:0:
320,192,41004,1,0,0:0:0:0:
448,192,41154,1,0,0:0:0:0:
64,192,41154,1,0,0:0:0:0:
320,192,41304,1,0,0:0:0:0:
192,192,41454,1,0,0:0:0:0:
64,192,41604,1,0,0:0:0:0:
448,192,41604,1,0,0:0:0:0:
192,192,41754,1,0,0:0:0:0:
320,192,41904,1,0,0:0:0:0:
448,192,42054,1,0,0:0:0:0:
64,192,42054,1,0,0:0:0:0:
320,192,42204,1,0,0:0:0:0:
192,192,42354,1,0,0:0:0:0:
64,192,42504,128,0,42954:0:0:0:0:
448,192,42504,128,0,42954:0:0:0:0:
64,192,43104,1,0,0:0:0:0:
448,192,43104,1,0,0:0:0:0:
320,192,43254,1,0,0:0:0:0:
192,192,43329,1,0,0:0:0:0:
64,192,43404,1,0,0:0:0:0:
192,192,43479,1,0,0:0:0:0:
320,192,43554,1,0,0:0:0:0:
64,192,43704,1,0,0:0:0:0:
192,192,43779,1,0,0:0:0:0:
320,192,43854,1,0,0:0:0:0:
448,192,43929,1,0,0:0:0:0:
320,192,44004,1,0,0:0:0:0:
192,192,44079,1,0,0:0:0:0:
64,192,44154,1,0,0:0:0:0:
64,192,44304,1,0,0:0:0:0:
192,192,44379,1,0,0:0:0:0:
320,192,44454,1,0,0:0:0:0:
448,192,44529,1,0,0:0:0:0:
320,192,44604,1,0,0:0:0:0:
192,192,44679,1,0,0:0:0:0:
64,192,44754,1,0,0:0:0:0:
192,192,44829,1,0,0:0:0:0:
320,192,44904,128,0,45504:0:0:0:0:
448,192,44904,128,0,45504:0:0:0:0:
64,192,45504,1,0,0:0:0:0:
192,192,45504,1,0,0:0:0:0:
320,192,45654,1,0,0:0:0:0:
192,192,45804,1,0,0:0:0:0:
448,192,45804,1,0,0:0:0:0:
320,192,45954,1,0,0:0:0:0:
64,192,46104,1,0,0:0:0:0:
192,192,46104,1,0,0:0:0:0:
448,192,46104,1,0,0:0:0:0:
320,192,46254,1,0,0:0:0:0:
64,192,46404,1,0,0:0:0:0:
448,192,46404,1,0,0:0:0:0:
192,192,46554,1,0,0:0:0:0:
320,192,46704,1,0,0:0:0:0:
448,192,46704,1,0,0:0:0:0:
64,192,46704,1,0,0:0:0:0:
192,192,46854,1,0,0:0:0:0:
64,192,47004,1,0,0:0:0:0:
320,192,47004,1,0,0:0:0:0:
448,192,47154,1,0,0:0:0:0:
64,192,47304,1,0,0:0:0:0:
320,192,47304,1,0,0:0:0:0:
192,192,47304,1,0,0:0:0:0:
448,192,47454,1,0,0:0:0:0:
320,192,47604,1,0,0:0:0:0:
192,192,47604,1,0,0:0:0:0:
64,192,47754,1,0,0:0:0:0:
192,192,47904,1,0,0:0:0:0:
320,192,47904,1,0,0:0:0:0:
448,192,47904,1,0,0:0:0:0:
64,192,48054,1,0,0:0:0:0:
320,192,48204,1,0,0:0:0:0:
448,192,48204,1,0,0:0:0:0:
192,192,48354,1,0,0:0:0:0:
448,192,48504,1,0,0:0:0:0:
64,192,48504,1,0,0:0:0:0:
320,192,48504,1,0,0:0:0:0:
192,192,48654,1,0,0:0:0:0:
320,192,48804,1,0,0:0:0:0:
64,192,48804,1,0,0:0:0:0:
448,192,48954,1,0,0:0:0:0:
64,192,49104,1,0,0:0:0:0:
192,192,49104,1,0,0:0:0:0:
320,192,49104,1,0,0:0:0:0:
448,192,49254,1,0,0:0:0:0:
64,192,49404,128,0,49704:0:0:0:0:
192,192,49404,128,0,49704:0:0:0:0:
64,192,49854,1,0,0:0:0:0:
192,192,49854,1,0,0:0:0:0:
320,192,49929,1,0,0:0:0:0:
448,192,50004,1,0,0:0:0:0:
320,192,50079,1,0,0:0:0:0:
192,192,50154,1,0,0:0:0:0:
64,192,50229,1,0,0:0:0:0:
192,192,50304,1,0,0:0:0:0:
320,192,50304,1,0,0:0:0:0:
448,192,50304,1,0,0:0:0:0:
320,192,50454,1,0,0:0:0:0:
448,192,50454,1,0,0:0:0:0:
192,192,50604,1,0,0:0:0:0:
64,192,50604,1,0,0:0:0:0:
320,192,50754,1,0,0:0:0:0:
192,192,50904,1,0,0:0:0:0:
448,192,50904,1,0,0:0:0:0:
64,192,50904,1,0,0:0:0:0:
320,192,51054,1,0,0:0:0:0:
64,192,51204,1,0,0:0:0:0:
448,192,51204,1,0,0:0:0:0:
192,192,51354,1,0,0:0:0:0:
320,192,51504,1,0,0:0:0:0:
448,192,51504,1,0,0:0:0:0:
64,192,51504,1,0,0:0:0:0:
192,192,51654,1,0,0:0:0:0:
64,192,51804,1,0,0:0:0:0:
320,192,51804,1,0,0:0:0:0:
448,192,51954,1,0,0:0:0:0:
320,192,52104,1,0,0:0:0:0:
192,192,52104,1,0,0:0:0:0:
64,192,52104,1,0,0:0:0:0:
448,192,52254,1,0,0:0:0:0:
320,192,52404,1,0,0:0:0:0:
192,192,52404,1,0,0:0:0:0:
64,192,52554,1,0,0:0:0:0:
192,192,52704,1,0,0:0:0:0:
320,192,52704,1,0,0:0:0:0:
448,192,52704,1,0,0:0:0:0:
64,192,52854,1,0,0:0:0:0:
192,192,53004,1,0,0:0:0:0:
448,192,53004,1,0,0:0:0:0:
320,192,53154,1,0,0:0:0:0:
192,192,53304,1,0,0:0:0:0:
448,192,53304,1,0,0:0:0:0:
64,192,53304,1,0,0:0:0:0:
320,192,53454,1,0,0:0:0:0:
192,192,53604,1,0,0:0:0:0:
64,192,53604,1,0,0:0:0:0:
448,192,53754,1,0,0:0:0:0:
320,192,53904,1,0,0:0:0:0:
192,192,53904,1,0,0:0:0:0:
64,192,53904,1,0,0:0:0:0:
448,192,54054,1,0,0:0:0:0:
320,192,54204,1,0,0:0:0:0:
192,192,54204,1,0,0:0:0:0:
448,192,54354,1,0,0:0:0:0:
64,192,54504,128,0,54954:0:0:0:0:
192,192,54579,1,0,0:0:0:0:
448,192,54654,1,0,0:0:0:0:
320,192,54729,1,0,0:0:0:0:
192,192,55104,1,0,0:0:0:0:
448,192,55104,1,0,0:0:0:0:
192,192,55254,1,0,0:0:0:0:
448,192,55254,1,0,0:0:0:0:
64,192,55404,1,0,0:0:0:0:
320,192,55404,1,0,0:0:0:0:
192,192,55554,1,0,0:0:0:0:
320,192,55704,1,0,0:0:0:0:
448,192,55704,1,0,0:0:0:0:
64,192,55704,1,0,0:0:0:0:
192,192,55854,1,0,0:0:0:0:
320,192,56004,1,0,0:0:0:0:
64,192,56004,1,0,0:0:0:0:
448,192,56154,1,0,0:0:0:0:
320,192,56304,1,0,0:0:0:0:
192,192,56304,1,0,0:0:0:0:
64,192,56304,1,0,0:0:0:0:
448,192,56454,1,0,0:0:0:0:
192,192,56604,1,0,0:0:0:0:
320,192,56604,1,0,0:0:0:0:
64,192,56754,1,0,0:0:0:0:
192,192,56904,1,0,0:0:0:0:
320,192,56904,1,0,0:0:0:0:
448,192,56904,1,0,0:0:0:0:
64,192,57054,1,0,0:0:0:0:
192,192,57204,1,0,0:0:0:0:
448,192,57204,1,0,0:0:0:0:
320,192,57354,1,0,0:0:0:0:
64,192,57504,1,0,0:0:0:0:
192,192,57504,1,0,0:0:0:0:
448,192,57504,1,0,0:0:0:0:
320,192,57654,1,0,0:0:0:0:
192,192,57804,1,0,0:0:0:0:
64,192,57804,1,0,0:0:0:0:
448,192,57954,1,0,0:0:0:0:
320,192,58104,1,0,0:0:0:0:
192,192,58104,1,0,0:0:0:0:
64,192,58104,1,0,0:0:0:0:
448,192,58254,1,0,0:0:0:0:
64,192,58404,1,0,0:0:0:0:
320,192,58404,1,0,0:0:0:0:
192,192,58554,1,0,0:0:0:0:
64,192,58704,1,0,0:0:0:0:
320,192,58704,1,0,0:0:0:0:
448,192,58704,1,0,0:0:0:0:
192,192,58854,1,0,0:0:0:0:
320,192,59004,1,0,0:0:0:0:
64,192,59004,1,0,0:0:0:0:
192,192,59154,1,0,0:0:0:0:
64,192,59304,1,0,0:0:0:0:
320,192,59304,1,0,0:0:0:0:
448,192,59304,1,0,0:0:0:0:
64,192,59454,1,0,0:0:0:0:
192,192,59454,1,0,0:0:0:0:
448,192,59604,1,0,0:0:0:0:
320,192,59679,1,0,0:0:0:0:
192,192,59904,1,0,0:0:0:0:
64,192,59904,1,0,0:0:0:0:
192,192,60054,1,0,0:0:0:0:
64,192,60054,1,0,0:0:0:0:
320,192,60204,1,0,0:0:0:0:
448,192,60204,1,0,0:0:0:0:
192,192,60354,1,0,0:0:0:0:
64,192,60504,1,0,0:0:0:0:
320,192,60504,1,0,0:0:0:0:
448,192,60504,1,0,0:0:0:0:
192,192,60654,1,0,0:0:0:0:
64,192,60804,1,0,0:0:0:0:
320,192,60804,1,0,0:0:0:0:
448,192,60954,1,0,0:0:0:0:
320,192,61104,1,0,0:0:0:0:
192,192,61104,1,0,0:0:0:0:
64,192,61104,1,0,0:0:0:0:
448,192,61254,1,0,0:0:0:0:
192,192,61404,1,0,0:0:0:0:
64,192,61404,1,0,0:0:0:0:
320,192,61554,1,0,0:0:0:0:
192,192,61704,1,0,0:0:0:0:
448,192,61704,1,0,0:0:0:0:
64,192,61704,1,0,0:0:0:0:
320,192,61854,1,0,0:0:0:0:
192,192,62004,1,0,0:0:0:0:
448,192,62004,1,0,0:0:0:0:
64,192,62154,1,0,0:0:0:0:
192,192,62304,1,0,0:0:0:0:
448,192,62304,1,0,0:0:0:0:
320,192,62304,1,0,0:0:0:0:
64,192,62454,1,0,0:0:0:0:
320,192,62604,1,0,0:0:0:0:
448,192,62604,1,0,0:0:0:0:
192,192,62754,1,0,0:0:0:0:
64,192,62904,1,0,0:0:0:0:
320,192,62904,1,0,0:0:0:0:
448,192,62904,1,0,0:0:0:0:
192,192,63054,1,0,0:0:0:0:
64,192,63204,1,0,0:0:0:0:
320,192,63204,1,0,0:0:0:0:
448,192,63354,1,0,0:0:0:0:
64,192,63504,128,0,64704:0:0:0:0:
192,192,63504,1,0,0:0:0:0:
320,192,63579,1,0,0:0:0:0:
448,192,63654,1,0,0:0:0:0:
320,192,63729,1,0,0:0:0:0:
192,192,63804,1,0,0:0:0:0:
320,192,63879,1,0,0:0:0:0:
448,192,63954,1,0,0:0:0:0:
320,192,64029,1,0,0:0:0:0:
192,192,64104,1,0,0:0:0:0:
320,192,64179,1,0,0:0:0:0:
448,192,64254,1,0,0:0:0:0:
192,192,64404,1,0,0:0:0:0:
320,192,64554,1,0,0:0:0:0:
448,192,64704,1,0,0:0:0:0:
192,192,64704,1,0,0:0:0:0:
320,192,64854,1,0,0:0:0:0:
192,192,65004,1,0,0:0:0:0:
64,192,65004,1,0,0:0:0:0:
448,192,65004,1,0,0:0:0:0:
320,192,65154,1,0,0:0:0:0:
192,192,65304,1,0,0:0:0:0:
64,192,65304,1,0,0:0:0:0:
448,192,65454,1,0,0:0:0:0:
320,192,65604,1,0,0:0:0:0:
192,192,65604,1,0,0:0:0:0:
64,192,65604,1,0,0:0:0:0:
448,192,65754,1,0,0:0:0:0:
320,192,65904,1,0,0:0:0:0:
192,192,65904,1,0,0:0:0:0:
64,192,66054,1,0,0:0:0:0:
192,192,66204,1,0,0:0:0:0:
320,192,66204,1,0,0:0:0:0:
448,192,66204,1,0,0:0:0:0:
64,192,66354,1,0,0:0:0:0:
448,192,66504,1,0,0:0:0:0:
320,192,66504,1,0,0:0:0:0:
192,192,66654,1,0,0:0:0:0:
64,192,66804,1,0,0:0:0:0:
320,192,66804,1,0,0:0:0:0:
448,192,66804,1,0,0:0:0:0:
192,192,66954,1,0,0:0:0:0:
64,192,67104,1,0,0:0:0:0:
320,192,67104,1,0,0:0:0:0:
448,192,67254,1,0,0:0:0:0:
320,192,67404,1,0,0:0:0:0:
192,192,67404,1,0,0:0:0:0:
64,192,67404,1,0,0:0:0:0:
448,192,67554,1,0,0:0:0:0:
320,192,67704,1,0,0:0:0:0:
192,192,67704,1,0,0:0:0:0:
64,192,67854,1,0,0:0:0:0:
192,192,68004,1,0,0:0:0:0:
320,192,68004,1,0,0:0:0:0:
448,192,68004,1,0,0:0:0:0:
64,192,68154,1,0,0:0:0:0:
192,192,68304,1,0,0:0:0:0:
448,192,68304,1,0,0:0:0:0:
320,192,68454,1,0,0:0:0:0:
448,192,68604,1,0,0:0:0:0:
192,192,68604,1,0,0:0:0:0:
64,192,68604,1,0,0:0:0:0:
320,192,68754,1,0,0:0:0:0:
448,192,68904,1,0,0:0:0:0:
64,192,68904,1,0,0:0:0:0:
192,192,69054,1,0,0:0:0:0:
320,192,69204,1,0,0:0:0:0:
448,192,69204,1,0,0:0:0:0:
64,192,69204,1,0,0:0:0:0:
192,192,69354,5,0,0:0:0:0:
320,192,69504,1,0,0:0:0:0:
448,192,69504,1,0,0:0:0:0:
64,192,69654,1,0,0:0:0:0:
192,192,69804,1,0,0:0:0:0:
320,192,69804,1,0,0:0:0:0:
448,192,69804,1,0,0:0:0:0:
64,192,69954,1,0,0:0:0:0:
192,192,70104,1,0,0:0:0:0:
320,192,70104,1,0,0:0:0:0:
448,192,70254,1,0,0:0:0:0:
64,192,70404,5,0,0:0:0:0:
192,192,70404,1,0,0:0:0:0:
320,192,70404,1,0,0:0:0:0:
64,192,70554,1,0,0:0:0:0:
320,192,70554,1,0,0:0:0:0:
192,192,70554,1,0,0:0:0:0:
448,192,70704,128,0,71154:0:0:0:0:
192,192,70704,1,0,0:0:0:0:
320,192,70704,1,0,0:0:0:0:
192,192,70929,1,0,0:0:0:0:
64,192,71154,128,0,71604:0:0:0:0:
192,192,71154,1,0,0:0:0:0:
320,192,71154,1,0,0:0:0:0:
320,192,71379,1,0,0:0:0:0:
448,192,71604,128,0,72054:0:0:0:0:
192,192,71604,1,0,0:0:0:0:
320,192,71604,1,0,0:0:0:0:
320,192,71754,1,0,0:0:0:0:
192,192,71754,1,0,0:0:0:0:
64,192,72054,128,0,74304:0:0:0:0:
320,192,72504,1,0,0:0:0:0:
192,192,72654,1,0,0:0:0:0:
320,192,72804,1,0,0:0:0:0:
448,192,72954,1,0,0:0:0:0:
320,192,73104,1,0,0:0:0:0:
192,192,73254,1,0,0:0:0:0:
448,192,73404,1,0,0:0:0:0:
320,192,73479,1,0,0:0:0:0:
192,192,73554,1,0,0:0:0:0:
320,192,73629,1,0,0:0:0:0:
448,192,73704,1,0,0:0:0:0:
320,192,73779,1,0,0:0:0:0:
192,192,73854,1,0,0:0:0:0:
320,192,73929,1,0,0:0:0:0:
448,192,74004,1,0,0:0:0:0:
320,192,74304,128,0,74904:0:0:0:0:
448,192,74304,128,0,74904:0:0:0:0:
192,192,74454,1,0,0:0:0:0:
64,192,74604,1,0,0:0:0:0:
192,192,74754,1,0,0:0:0:0:
64,192,74904,1,0,0:0:0:0:
192,192,75054,1,0,0:0:0:0:
320,192,75204,1,0,0:0:0:0:
64,192,75204,1,0,0:0:0:0:
448,192,75354,1,0,0:0:0:0:
192,192,75354,1,0,0:0:0:0:
64,192,75504,1,0,0:0:0:0:
320,192,75654,1,0,0:0:0:0:
192,192,75654,1,0,0:0:0:0:
448,192,75804,128,0,76704:0:0:0:0:
64,192,75804,1,0,0:0:0:0:
192,192,75954,1,0,0:0:0:0:
64,192,76104,1,0,0:0:0:0:
192,192,76254,1,0,0:0:0:0:
64,192,76404,1,0,0:0:0:0:
192,192,76554,1,0,0:0:0:0:
320,192,76704,128,0,77154:0:0:0:0:
64,192,76704,128,0,77154:0:0:0:0:
192,192,76854,1,0,0:0:0:0:
448,192,77004,1,0,0:0:0:0:
192,192,77304,1,0,0:0:0:0:
448,192,77304,1,0,0:0:0:0:
192,192,77454,1,0,0:0:0:0:
448,192,77454,1,0,0:0:0:0:
64,192,77604,1,0,0:0:0:0:
320,192,77604,1,0,0:0:0:0:
192,192,77754,1,0,0:0:0:0:
320,192,77904,1,0,0:0:0:0:
448,192,77904,1,0,0:0:0:0:
64,192,77904,1,0,0:0:0:0:
192,192,78054,5,0,0:0:0:0:
320,192,78204,1,0,0:0:0:0:
448,192,78204,1,0,0:0:0:0:
64,192,78354,1,0,0:0:0:0:
192,192,78504,1,0,0:0:0:0:
320,192,78504,1,0,0:0:0:0:
448,192,78504,1,0,0:0:0:0:
64,192,78654,1,0,0:0:0:0:
192,192,78804,1,0,0:0:0:0:
320,192,78804,1,0,0:0:0:0:
448,192,78954,1,0,0:0:0:0:
64,192,78954,1,0,0:0:0:0:
64,192,79104,5,0,0:0:0:0:
320,192,79104,1,0,0:0:0:0:
192,192,79104,1,0,0:0:0:0:
448,192,79104,1,0,0:0:0:0:
320,192,79254,128,0,79404:0:0:0:0:
64,192,79254,128,0,79404:0:0:0:0:
448,192,79404,1,0,0:0:0:0:
192,192,79554,1,0,0:0:0:0:
448,192,79554,1,0,0:0:0:0:
192,192,79704,128,0,79854:0:0:0:0:
448,192,79704,128,0,79854:0:0:0:0:
64,192,79854,1,0,0:0:0:0:
192,192,80004,1,0,0:0:0:0:
320,192,80004,1,0,0:0:0:0:
320,192,80154,128,0,80304:0:0:0:0:
192,192,80154,128,0,80304:0:0:0:0:
64,192,80304,1,0,0:0:0:0:
448,192,80304,1,0,0:0:0:0:
64,192,80454,1,0,0:0:0:0:
448,192,80454,1,0,0:0:0:0:
64,192,80604,128,0,81054:0:0:0:0:
448,192,80604,128,0,81054:0:0:0:0:
192,192,80604,1,0,0:0:0:0:
320,192,80754,1,0,0:0:0:0:
192,192,80904,1,0,0:0:0:0:
320,192,81054,1,0,0:0:0:0:
320,192,81204,1,0,0:0:0:0:
64,192,81204,1,0,0:0:0:0:
192,192,81354,1,0,0:0:0:0:
448,192,81354,1,0,0:0:0:0:
64,192,81504,128,0,83904:0:0:0:0:
320,192,81504,128,0,81804:0:0:0:0:
448,192,81804,128,0,82104:0:0:0:0:
192,192,81804,1,0,0:0:0:0:
320,192,82104,128,0,82404:0:0:0:0:
192,192,82104,1,0,0:0:0:0:
192,192,82404,128,0,82704:0:0:0:0:
448,192,82404,1,0,0:0:0:0:
320,192,82704,128,0,83304:0:0:0:0:
448,192,82704,1,0,0:0:0:0:
448,192,83004,1,0,0:0:0:0:
448,192,83304,128,0,83904:0:0:0:0:
192,192,83304,1,0,0:0:0:0:
192,192,83904,1,0,0:0:0:0:
320,192,83904,1,0,0:0:0:0:
64,192,84054,1,0,0:0:0:0:
448,192,84054,1,0,0:0:0:0:
192,192,84204,1,0,0:0:0:0:
320,192,84354,1,0,0:0:0:0:
448,192,84504,1,0,0:0:0:0:
64,192,84504,1,0,0:0:0:0:
320,192,84654,1,0,0:0:0:0:
192,192,84804,1,0,0:0:0:0:
64,192,84954,1,0,0:0:0:0:
448,192,84954,1,0,0:0:0:0:
192,192,85104,1,0,0:0:0:0:
320,192,85254,1,0,0:0:0:0:
448,192,85404,1,0,0:0:0:0:
64,192,85404,1,0,0:0:0:0:
320,192,85554,1,0,0:0:0:0:
192,192,85704,1,0,0:0:0:0:
64,192,85854,1,0,0:0:0:0:
448,192,85854,1,0,0:0:0:0:
192,192,86004,1,0,0:0:0:0:
320,192,86154,1,0,0:0:0:0:
64,192,86304,1,0,0:0:0:0:
448,192,86304,1,0,0:0:0:0:
192,192,86304,1,0,0:0:0:0:
320,192,86454,1,0,0:0:0:0:
192,192,86604,1,0,0:0:0:0:
64,192,86754,1,0,0:0:0:0:
448,192,86754,1,0,0:0:0:0:
192,192,86904,1,0,0:0:0:0:
320,192,87054,1,0,0:0:0:0:
448,192,87204,1,0,0:0:0:0:
64,192,87204,1,0,0:0:0:0:
320,192,87354,1,0,0:0:0:0:
192,192,87504,1,0,0:0:0:0:
64,192,87654,1,0,0:0:0:0:
448,192,87654,1,0,0:0:0:0:
192,192,87804,1,0,0:0:0:0:
320,192,87954,1,0,0:0:0:0:
448,192,88104,1,0,0:0:0:0:
64,192,88104,1,0,0:0:0:0:
320,192,88254,1,0,0:0:0:0:
192,192,88404,1,0,0:0:0:0:
64,192,88554,1,0,0:0:0:0:
192,192,88704,1,0,0:0:0:0:
320,192,88704,1,0,0:0:0:0:
448,192,88704,1,0,0:0:0:0:
64,192,88854,1,0,0:0:0:0:
192,192,89004,1,0,0:0:0:0:
320,192,89004,1,0,0:0:0:0:
448,192,89154,1,0,0:0:0:0:
320,192,89304,1,0,0:0:0:0:
192,192,89304,1,0,0:0:0:0:
64,192,89304,1,0,0:0:0:0:
448,192,89454,1,0,0:0:0:0:
64,192,89604,1,0,0:0:0:0:
192,192,89604,1,0,0:0:0:0:
320,192,89754,1,0,0:0:0:0:
448,192,89904,1,0,0:0:0:0:
192,192,89904,1,0,0:0:0:0:
64,192,89904,1,0,0:0:0:0:
320,192,90054,1,0,0:0:0:0:
448,192,90204,1,0,0:0:0:0:
192,192,90204,1,0,0:0:0:0:
64,192,90354,1,0,0:0:0:0:
192,192,90504,1,0,0:0:0:0:
320,192,90504,1,0,0:0:0:0:
448,192,90504,1,0,0:0:0:0:
64,192,90654,1,0,0:0:0:0:
320,192,90804,1,0,0:0:0:0:
448,192,90804,1,0,0:0:0:0:
192,192,90954,1,0,0:0:0:0:
64,192,91104,1,0,0:0:0:0:
320,192,91104,1,0,0:0:0:0:
448,192,91104,1,0,0:0:0:0:
192,192,91254,1,0,0:0:0:0:
64,192,91404,1,0,0:0:0:0:
320,192,91404,1,0,0:0:0:0:
448,192,91554,1,0,0:0:0:0:
64,192,91704,1,0,0:0:0:0:
192,192,91704,1,0,0:0:0:0:
320,192,91704,1,0,0:0:0:0:
448,192,91854,1,0,0:0:0:0:
320,192,92004,1,0,0:0:0:0:
192,192,92004,1,0,0:0:0:0:
64,192,92154,1,0,0:0:0:0:
192,192,92304,128,0,92604:0:0:0:0:
448,192,92304,128,0,92604:0:0:0:0:
320,192,92304,1,0,0:0:0:0:
64,192,92454,1,0,0:0:0:0:
320,192,92604,1,0,0:0:0:0:
192,192,92754,1,0,0:0:0:0:
448,192,92754,1,0,0:0:0:0:
320,192,92904,128,0,93504:0:0:0:0:
64,192,92904,128,0,93504:0:0:0:0:
448,192,93054,1,0,0:0:0:0:
192,192,93204,1,0,0:0:0:0:
448,192,93354,1,0,0:0:0:0:
192,192,93504,1,0,0:0:0:0:
448,192,93504,1,0,0:0:0:0:
320,192,93654,1,0,0:0:0:0:
64,192,93654,1,0,0:0:0:0:
192,192,93804,1,0,0:0:0:0:
448,192,93804,1,0,0:0:0:0:
320,192,93954,1,0,0:0:0:0:
192,192,94104,1,0,0:0:0:0:
64,192,94104,1,0,0:0:0:0:
448,192,94104,1,0,0:0:0:0:
320,192,94254,1,0,0:0:0:0:
192,192,94404,1,0,0:0:0:0:
64,192,94404,1,0,0:0:0:0:
448,192,94554,1,0,0:0:0:0:
320,192,94704,1,0,0:0:0:0:
192,192,94704,1,0,0:0:0:0:
64,192,94704,1,0,0:0:0:0:
448,192,94854,1,0,0:0:0:0:
320,192,95004,1,0,0:0:0:0:
192,192,95004,1,0,0:0:0:0:
64,192,95154,1,0,0:0:0:0:
192,192,95304,1,0,0:0:0:0:
320,192,95304,1,0,0:0:0:0:
448,192,95304,1,0,0:0:0:0:
64,192,95454,1,0,0:0:0:0:
448,192,95604,1,0,0:0:0:0:
320,192,95604,1,0,0:0:0:0:
192,192,95754,1,0,0:0:0:0:
64,192,95904,1,0,0:0:0:0:
448,192,95904,1,0,0:0:0:0:
320,192,95904,1,0,0:0:0:0:
192,192,96054,1,0,0:0:0:0:
64,192,96204,1,0,0:0:0:0:
320,192,96204,1,0,0:0:0:0:
448,192,96354,1,0,0:0:0:0:
320,192,96504,1,0,0:0:0:0:
192,192,96504,1,0,0:0:0:0:
64,192,96504,1,0,0:0:0:0:
448,192,96654,1,0,0:0:0:0:
64,192,96804,1,0,0:0:0:0:
192,192,96804,1,0,0:0:0:0:
320,192,96804,1,0,0:0:0:0:
320,192,96954,1,0,0:0:0:0:
448,192,96954,1,0,0:0:0:0:
64,192,97104,1,0,0:0:0:0:
448,192,97104,1,0,0:0:0:0:
320,192,97104,1,0,0:0:0:0:
192,192,97404,128,0,98154:0:0:0:0:
320,192,97404,128,0,98154:0:0:0:0:
448,192,97854,128,0,98304:0:0:0:0:
64,192,97854,128,0,98304:0:0:0:0:
192,192,98304,1,0,0:0:0:0:
320,192,98304,1,0,0:0:0:0:
64,192,98454,1,0,0:0:0:0:
448,192,98454,1,0,0:0:0:0:
320,192,98604,1,0,0:0:0:0:
192,192,98604,1,0,0:0:0:0:
64,192,98754,1,0,0:0:0:0:
448,192,98754,1,0,0:0:0:0:
320,192,98904,1,0,0:0:0:0:
192,192,98904,1,0,0:0:0:0:
448,192,99054,1,0,0:0:0:0:
320,192,99204,1,0,0:0:0:0:
192,192,99204,1,0,0:0:0:0:
64,192,99204,1,0,0:0:0:0:
448,192,99354,1,0,0:0:0:0:
64,192,99504,1,0,0:0:0:0:
320,192,99504,1,0,0:0:0:0:
192,192,99654,1,0,0:0:0:0:
64,192,99804,1,0,0:0:0:0:
448,192,99804,1,0,0:0:0:0:
320,192,99804,1,0,0:0:0:0:
192,192,99954,1,0,0:0:0:0:
64,192,100104,1,0,0:0:0:0:
320,192,100104,1,0,0:0:0:0:
448,192,100254,1,0,0:0:0:0:
320,192,100404,1,0,0:0:0:0:
192,192,100404,1,0,0:0:0:0:
64,192,100404,1,0,0:0:0:0:
448,192,100554,1,0,0:0:0:0:
320,192,100704,1,0,0:0:0:0:
192,192,100704,1,0,0:0:0:0:
64,192,100854,1,0,0:0:0:0:
192,192,101004,1,0,0:0:0:0:
320,192,101004,1,0,0:0:0:0:
448,192,101004,1,0,0:0:0:0:
64,192,101154,1,0,0:0:0:0:
448,192,101304,1,0,0:0:0:0:
320,192,101304,1,0,0:0:0:0:
192,192,101454,1,0,0:0:0:0:
64,192,101604,1,0,0:0:0:0:
448,192,101604,1,0,0:0:0:0:
320,192,101604,1,0,0:0:0:0:
192,192,101754,1,0,0:0:0:0:
64,192,101904,1,0,0:0:0:0:
320,192,101904,1,0,0:0:0:0:
448,192,102054,1,0,0:0:0:0:
64,192,102204,1,0,0:0:0:0:
320,192,102204,1,0,0:0:0:0:
192,192,102204,1,0,0:0:0:0:
448,192,102354,1,0,0:0:0:0:
320,192,102504,1,0,0:0:0:0:
192,192,102504,1,0,0:0:0:0:
64,192,102654,1,0,0:0:0:0:
192,192,102804,1,0,0:0:0:0:
320,192,102804,1,0,0:0:0:0:
448,192,102804,1,0,0:0:0:0:
64,192,102954,1,0,0:0:0:0:
320,192,103104,1,0,0:0:0:0:
448,192,103104,1,0,0:0:0:0:
192,192,103254,1,0,0:0:0:0:
448,192,103404,1,0,0:0:0:0:
64,192,103404,1,0,0:0:0:0:
320,192,103404,1,0,0:0:0:0:
192,192,103554,1,0,0:0:0:0:
320,192,103704,1,0,0:0:0:0:
64,192,103704,1,0,0:0:0:0:
448,192,103854,1,0,0:0:0:0:
64,192,104004,1,0,0:0:0:0:
192,192,104004,1,0,0:0:0:0:
320,192,104004,1,0,0:0:0:0:
448,192,104154,1,0,0:0:0:0:
64,192,104304,1,0,0:0:0:0:
192,192,104304,1,0,0:0:0:0:
320,192,104454,1,0,0:0:0:0:
192,192,104604,1,0,0:0:0:0:
448,192,104604,1,0,0:0:0:0:
64,192,104604,1,0,0:0:0:0:
320,192,104754,1,0,0:0:0:0:
448,192,104904,1,0,0:0:0:0:
192,192,104904,1,0,0:0:0:0:
64,192,105054,1,0,0:0:0:0:
192,192,105204,1,0,0:0:0:0:
320,192,105204,1,0,0:0:0:0:
448,192,105204,1,0,0:0:0:0:
64,192,105354,1,0,0:0:0:0:
320,192,105504,1,0,0:0:0:0:
448,192,105504,1,0,0:0:0:0:
192,192,105654,1,0,0:0:0:0:
64,192,105804,1,0,0:0:0:0:
320,192,105804,1,0,0:0:0:0:
448,192,105804,1,0,0:0:0:0:
192,192,105954,1,0,0:0:0:0:
64,192,106104,1,0,0:0:0:0:
320,192,106104,1,0,0:0:0:0:
448,192,106254,1,0,0:0:0:0:
320,192,106404,1,0,0:0:0:0:
192,192,106404,1,0,0:0:0:0:
64,192,106404,1,0,0:0:0:0:
448,192,106554,5,0,0:0:0:0:
320,192,106704,1,0,0:0:0:0:
192,192,106704,1,0,0:0:0:0:
64,192,106854,1,0,0:0:0:0:
192,192,107004,1,0,0:0:0:0:
320,192,107004,1,0,0:0:0:0:
448,192,107004,1,0,0:0:0:0:
64,192,107154,1,0,0:0:0:0:
320,192,107304,1,0,0:0:0:0:
448,192,107304,1,0,0:0:0:0:
192,192,107454,1,0,0:0:0:0:
320,192,107604,128,0,107904:0:0:0:0:
448,192,107604,128,0,107904:0:0:0:0:
64,192,107604,128,0,107904:0:0:0:0:
192,192,107904,1,0,0:0:0:0:
192,192,108204,1,0,0:0:0:0:
64,192,108204,128,0,108504:0:0:0:0:
320,192,108354,1,0,0:0:0:0:
448,192,108504,1,0,0:0:0:0:
320,192,108504,128,0,108804:0:0:0:0:
64,192,108654,1,0,0:0:0:0:
192,192,108804,1,0,0:0:0:0:
64,192,108804,128,0,109104:0:0:0:0:
320,192,108954,1,0,0:0:0:0:
448,192,109104,1,0,0:0:0:0:
320,192,109104,128,0,109404:0:0:0:0:
64,192,109254,1,0,0:0:0:0:
192,192,109404,1,0,0:0:0:0:
64,192,109404,128,0,109704:0:0:0:0:
320,192,109554,1,0,0:0:0:0:
448,192,109704,1,0,0:0:0:0:
320,192,109704,128,0,110004:0:0:0:0:
64,192,109854,1,0,0:0:0:0:
192,192,110004,1,0,0:0:0:0:
448,192,110004,128,0,110304:0:0:0:0:
192,192,110154,1,0,0:0:0:0:
192,192,110304,128,0,110604:0:0:0:0:
64,192,110304,1,0,0:0:0:0:
448,192,110454,1,0,0:0:0:0:
448,192,110604,128,0,110904:0:0:0:0:
320,192,110604,1,0,0:0:0:0:
192,192,110754,1,0,0:0:0:0:
192,192,110904,128,0,111204:0:0:0:0:
64,192,110904,1,0,0:0:0:0:
448,192,111054,1,0,0:0:0:0:
448,192,111204,128,0,111504:0:0:0:0:
320,192,111204,1,0,0:0:0:0:
192,192,111354,1,0,0:0:0:0:
192,192,111504,128,0,111804:0:0:0:0:
64,192,111504,1,0,0:0:0:0:
448,192,111654,1,0,0:0:0:0:
320,192,111804,1,0,0:0:0:0:
448,192,111954,1,0,0:0:0:0:
64,192,111954,1,0,0:0:0:0:
192,192,112104,128,0,112404:0:0:0:0:
320,192,112104,128,0,112404:0:0:0:0:
64,192,112404,1,0,0:0:0:0:
448,192,112404,1,0,0:0:0:0:
192,192,112704,1,0,0:0:0:0:
320,192,112704,1,0,0:0:0:0:
448,192,112704,1,0,0:0:0:0:
64,192,112854,1,0,0:0:0:0:
192,192,112854,1,0,0:0:0:0:
192,192,113004,1,0,0:0:0:0:
448,192,113004,1,0,0:0:0:0:
64,192,113004,1,0,0:0:0:0:
320,192,113154,1,0,0:0:0:0:
448,192,113154,1,0,0:0:0:0:
64,192,113304,1,0,0:0:0:0:
320,192,113304,1,0,0:0:0:0:
448,192,113304,1,0,0:0:0:0:
192,192,113454,1,0,0:0:0:0:
320,192,113454,1,0,0:0:0:0:
320,192,113604,1,0,0:0:0:0:
192,192,113604,1,0,0:0:0:0:
64,192,113604,1,0,0:0:0:0:
64,192,113754,1,0,0:0:0:0:
448,192,113754,1,0,0:0:0:0:
192,192,113904,1,0,0:0:0:0:
320,192,113904,1,0,0:0:0:0:
448,192,113904,1,0,0:0:0:0:
64,192,114054,1,0,0:0:0:0:
192,192,114129,1,0,0:0:0:0:
320,192,114204,1,0,0:0:0:0:
448,192,114354,1,0,0:0:0:0:
320,192,114429,1,0,0:0:0:0:
192,192,114504,1,0,0:0:0:0:
64,192,114654,1,0,0:0:0:0:
192,192,114729,1,0,0:0:0:0:
320,192,114804,1,0,0:0:0:0:
448,192,114954,1,0,0:0:0:0:
320,192,115029,1,0,0:0:0:0:
64,192,115104,128,0,117504:0:0:0:0:
192,192,115104,1,0,0:0:0:0:
320,192,115254,1,0,0:0:0:0:
192,192,115404,1,0,0:0:0:0:
320,192,115554,1,0,0:0:0:0:
448,192,115704,1,0,0:0:0:0:
320,192,115854,1,0,0:0:0:0:
192,192,116004,1,0,0:0:0:0:
320,192,116154,1,0,0:0:0:0:
448,192,116304,128,0,117504:0:0:0:0:
192,192,117504,128,0,118104:0:0:0:0:
320,192,117504,1,0,0:0:0:0:
320,192,117804,1,0,0:0:0:0:
448,192,118104,128,0,118704:0:0:0:0:
320,192,118104,1,0,0:0:0:0:
64,192,118104,1,0,0:0:0:0:
320,192,118404,1,0,0:0:0:0:
64,192,118704,128,0,119304:0:0:0:0:
192,192,118704,1,0,0:0:0:0:
320,192,118704,1,0,0:0:0:0:
192,192,119004,1,0,0:0:0:0:
320,192,119304,128,0,119904:0:0:0:0:
192,192,119304,1,0,0:0:0:0:
448,192,119304,1,0,0:0:0:0:
192,192,119604,1,0,0:0:0:0:
192,192,119904,1,0,0:0:0:0:
448,192,119904,128,0,120504:0:0:0:0:
64,192,119904,1,0,0:0:0:0:
320,192,120204,1,0,0:0:0:0:
192,192,120504,128,0,121104:0:0:0:0:
320,192,120504,1,0,0:0:0:0:
64,192,120504,1,0,0:0:0:0:
320,192,120804,1,0,0:0:0:0:
320,192,121104,1,0,0:0:0:0:
448,192,121104,1,0,0:0:0:0:
64,192,121104,1,0,0:0:0:0:
192,192,121404,1,0,0:0:0:0:
320,192,121404,1,0,0:0:0:0:
448,192,121554,128,0,122304:0:0:0:0:
64,192,121554,128,0,122304:0:0:0:0:
192,192,121704,1,0,0:0:0:0:
320,192,121854,1,0,0:0:0:0:
192,192,122004,1,0,0:0:0:0:
320,192,122154,1,0,0:0:0:0:
192,192,122304,1,0,0:0:0:0:
320,192,122304,1,0,0:0:0:0:
192,192,122604,1,0,0:0:0:0:
64,192,122904,1,0,0:0:0:0:
448,192,122904,1,0,0:0:0:0:
320,192,123204,1,0,0:0:0:0:
64,192,123504,1,0,0:0:0:0:
448,192,123504,1,0,0:0:0:0:
192,192,123804,1,0,0:0:0:0:
320,192,123804,1,0,0:0:0:0:
448,192,124104,1,0,0:0:0:0:
64,192,124104,1,0,0:0:0:0:
192,192,124404,1,0,0:0:0:0:
320,192,124404,1,0,0:0:0:0:
64,192,124704,1,0,0:0:0:0:
192,192,124779,1,0,0:0:0:0:
320,192,124854,1,0,0:0:0:0:
448,192,125004,1,0,0:0:0:0:
320,192,125079,1,0,0:0:0:0:
192,192,125154,1,0,0:0:0:0:
64,192,125304,1,0,0:0:0:0:
192,192,125379,1,0,0:0:0:0:
320,192,125454,1,0,0:0:0:0:
448,192,125604,1,0,0:0:0:0:
320,192,125679,1,0,0:0:0:0:
192,192,125754,1,0,0:0:0:0:
64,192,125904,128,0,127104:0:0:0:0:
192,192,126054,1,0,0:0:0:0:
448,192,126204,1,0,0:0:0:0:
192,192,126354,1,0,0:0:0:0:
448,192,126504,1,0,0:0:0:0:
192,192,126654,1,0,0:0:0:0:
320,192,126804,1,0,0:0:0:0:
192,192,126954,1,0,0:0:0:0:
320,192,127104,128,0,131829:0:0:0:0:
448,192,127104,128,0,131829:0:0:0:0:
192,192,127704,1,0,0:0:0:0:
64,192,128304,1,0,0:0:0:0:
192,192,128304,1,0,0:0:0:0:
64,192,128904,1,0,0:0:0:0:
64,192,129504,1,0,0:0:0:0:
192,192,129504,1,0,0:0:0:0:
192,192,130104,1,0,0:0:0:0:
64,192,130704,1,0,0:0:0:0:
192,192,130704,1,0,0:0:0:0:
64,192,131004,1,0,0:0:0:0:
64,192,131304,128,0,131829:0:0:0:0:
192,192,131304,128,0,131829:0:0:0:0:
64,192,131904,1,0,0:0:0:0:
192,192,131904,1,0,0:0:0:0:
448,192,131904,1,0,0:0:0:0:
320,192,131904,1,0,0:0:0:0:
192,192,132504,1,0,0:0:0:0:
320,192,132504,1,0,0:0:0:0:
448,192,132504,1,0,0:0:0:0:
64,192,132504,128,0,133104:0:0:0:0:
448,192,133104,128,0,133704:0:0:0:0:
320,192,133104,1,0,0:0:0:0:
192,192,133104,1,0,0:0:0:0:
192,192,133704,128,0,134304:0:0:0:0:
64,192,133704,1,0,0:0:0:0:
320,192,133704,1,0,0:0:0:0:
320,192,134304,128,0,134904:0:0:0:0:
448,192,134304,1,0,0:0:0:0:
64,192,134304,1,0,0:0:0:0:
64,192,134904,128,0,135504:0:0:0:0:
192,192,134904,1,0,0:0:0:0:
448,192,134904,1,0,0:0:0:0:
448,192,135504,128,0,136104:0:0:0:0:
320,192,135504,1,0,0:0:0:0:
192,192,135504,1,0,0:0:0:0:
192,192,136104,128,0,136704:0:0:0:0:
320,192,136104,1,0,0:0:0:0:
64,192,136104,1,0,0:0:0:0:
64,192,136704,1,0,0:0:0:0:
448,192,136704,1,0,0:0:0:0:
320,192,136704,1,0,0:0:0:0:
64,192,137004,1,0,0:0:0:0:
320,192,137004,1,0,0:0:0:0:
448,192,137004,1,0,0:0:0:0:
192,192,137304,1,0,0:0:0:0:
320,192,137304,1,0,0:0:0:0:
448,192,137304,1,0,0:0:0:0:
320,192,137604,1,0,0:0:0:0:
192,192,137604,1,0,0:0:0:0:
64,192,137604,1,0,0:0:0:0:
192,192,137904,1,0,0:0:0:0:
320,192,137904,1,0,0:0:0:0:
448,192,137904,1,0,0:0:0:0:
64,192,138204,1,0,0:0:0:0:
320,192,138204,1,0,0:0:0:0:
448,192,138204,1,0,0:0:0:0:
192,192,138504,1,0,0:0:0:0:
448,192,138504,1,0,0:0:0:0:
64,192,138504,1,0,0:0:0:0:
64,192,138804,1,0,0:0:0:0:
192,192,138804,1,0,0:0:0:0:
320,192,138804,1,0,0:0:0:0:
448,192,139104,1,0,0:0:0:0:
192,192,139104,1,0,0:0:0:0:
64,192,139104,1,0,0:0:0:0:
320,192,139404,1,0,0:0:0:0:
448,192,139404,1,0,0:0:0:0:
64,192,139404,1,0,0:0:0:0:
448,192,139704,1,0,0:0:0:0:
320,192,139704,1,0,0:0:0:0:
192,192,139704,1,0,0:0:0:0:
320,192,140004,1,0,0:0:0:0:
192,192,140004,1,0,0:0:0:0:
64,192,140004,1,0,0:0:0:0:
192,192,140304,1,0,0:0:0:0:
448,192,140304,1,0,0:0:0:0:
64,192,140304,1,0,0:0:0:0:
192,192,140604,1,0,0:0:0:0:
320,192,140604,1,0,0:0:0:0:
448,192,140604,1,0,0:0:0:0:
64,192,140904,1,0,0:0:0:0:
320,192,140904,1,0,0:0:0:0:
448,192,140904,1,0,0:0:0:0:
320,192,141204,1,0,0:0:0:0:
192,192,141204,1,0,0:0:0:0:
64,192,141204,1,0,0:0:0:0:
64,192,141504,1,0,0:0:0:0:
448,192,141504,1,0,0:0:0:0:
192,192,141654,1,0,0:0:0:0:
320,192,141804,1,0,0:0:0:0:
448,192,141954,1,0,0:0:0:0:
64,192,141954,1,0,0:0:0:0:
320,192,142104,1,0,0:0:0:0:
192,192,142254,1,0,0:0:0:0:
64,192,142404,1,0,0:0:0:0:
448,192,142404,1,0,0:0:0:0:
192,192,142554,1,0,0:0:0:0:
320,192,142704,1,0,0:0:0:0:
448,192,142854,1,0,0:0:0:0:
64,192,142854,1,0,0:0:0:0:
320,192,143004,1,0,0:0:0:0:
192,192,143154,1,0,0:0:0:0:
64,192,143304,1,0,0:0:0:0:
448,192,143454,1,0,0:0:0:0:
320,192,143529,1,0,0:0:0:0:
192,192,143604,1,0,0:0:0:0:
64,192,143679,1,0,0:0:0:0:
192,192,143754,1,0,0:0:0:0:
320,192,143829,128,0,146304:0:0:0:0:
64,192,144804,128,0,144954:0:0:0:0:
192,192,144954,128,0,145104:0:0:0:0:
448,192,145104,128,0,145554:0:0:0:0:
192,192,145554,128,0,146304:0:0:0:0:
64,192,146304,1,0,0:0:0:0:
448,192,146304,1,0,0:0:0:0:
64,192,146454,1,0,0:0:0:0:
448,192,146454,1,0,0:0:0:0:
192,192,146604,1,0,0:0:0:0:
320,192,146754,1,0,0:0:0:0:
64,192,146904,1,0,0:0:0:0:
448,192,146904,1,0,0:0:0:0:
64,192,147054,1,0,0:0:0:0:
448,192,147054,1,0,0:0:0:0:
320,192,147204,1,0,0:0:0:0:
192,192,147354,1,0,0:0:0:0:
64,192,147504,1,0,0:0:0:0:
448,192,147504,1,0,0:0:0:0:
64,192,147654,1,0,0:0:0:0:
448,192,147654,1,0,0:0:0:0:
192,192,147804,1,0,0:0:0:0:
320,192,147954,1,0,0:0:0:0:
64,192,148104,1,0,0:0:0:0:
448,192,148104,1,0,0:0:0:0:
192,192,148254,1,0,0:0:0:0:
320,192,148404,1,0,0:0:0:0:
448,192,148554,1,0,0:0:0:0:
320,192,148704,1,0,0:0:0:0:
192,192,148854,1,0,0:0:0:0:
64,192,149004,1,0,0:0:0:0:
192,192,149154,1,0,0:0:0:0:
320,192,149304,1,0,0:0:0:0:
448,192,149454,1,0,0:0:0:0:
320,192,149604,1,0,0:0:0:0:
192,192,149754,1,0,0:0:0:0:
64,192,149904,1,0,0:0:0:0:
320,192,149904,1,0,0:0:0:0:
448,192,149904,1,0,0:0:0:0:
192,192,150054,1,0,0:0:0:0:
64,192,150204,1,0,0:0:0:0:
192,192,150354,1,0,0:0:0:0:
320,192,150504,1,0,0:0:0:0:
448,192,150654,1,0,0:0:0:0:
320,192,150804,1,0,0:0:0:0:
192,192,150954,1,0,0:0:0:0:
64,192,151104,1,0,0:0:0:0:
448,192,151104,1,0,0:0:0:0:
320,192,151104,1,0,0:0:0:0:
192,192,151254,1,0,0:0:0:0:
320,192,151404,1,0,0:0:0:0:
448,192,151554,1,0,0:0:0:0:
320,192,151704,1,0,0:0:0:0:
192,192,151854,1,0,0:0:0:0:
64,192,152004,1,0,0:0:0:0:
192,192,152154,1,0,0:0:0:0:
64,192,152304,1,0,0:0:0:0:
320,192,152304,1,0,0:0:0:0:
448,192,152304,1,0,0:0:0:0:
192,192,152454,1,0,0:0:0:0:
320,192,152604,1,0,0:0:0:0:
448,192,152754,1,0,0:0:0:0:
64,192,152754,1,0,0:0:0:0:
320,192,152904,1,0,0:0:0:0:
192,192,153054,1,0,0:0:0:0:
64,192,153204,1,0,0:0:0:0:
448,192,153204,1,0,0:0:0:0:
192,192,153354,1,0,0:0:0:0:
320,192,153354,1,0,0:0:0:0:
64,192,153504,1,0,0:0:0:0:
192,192,153579,1,0,0:0:0:0:
320,192,153654,1,0,0:0:0:0:
448,192,153729,1,0,0:0:0:0:
320,192,153804,1,0,0:0:0:0:
192,192,153879,1,0,0:0:0:0:
64,192,153954,1,0,0:0:0:0:
192,192,154029,1,0,0:0:0:0:
320,192,154104,1,0,0:0:0:0:
64,192,154179,1,0,0:0:0:0:
192,192,154254,1,0,0:0:0:0:
320,192,154329,1,0,0:0:0:0:
448,192,154404,1,0,0:0:0:0:
320,192,154479,1,0,0:0:0:0:
192,192,154554,1,0,0:0:0:0:
448,192,154704,1,0,0:0:0:0:
320,192,154741,1,0,0:0:0:0:
192,192,154779,1,0,0:0:0:0:
64,192,154816,1,0,0:0:0:0:
320,192,154854,1,0,0:0:0:0:
448,192,154891,1,0,0:0:0:0:
192,192,154929,1,0,0:0:0:0:
64,192,154966,1,0,0:0:0:0:
320,192,155004,1,0,0:0:0:0:
448,192,155041,1,0,0:0:0:0:
192,192,155079,1,0,0:0:0:0:
64,192,155116,1,0,0:0:0:0:
320,192,155154,1,0,0:0:0:0:
448,192,155191,1,0,0:0:0:0:
192,192,155304,128,0,155904:0:0:0:0:
64,192,155304,128,0,155904:0:0:0:0:
320,192,155904,1,0,0:0:0:0:
448,192,155904,1,0,0:0:0:0:
448,192,156054,1,0,0:0:0:0:
320,192,156054,1,0,0:0:0:0:
320,192,156204,1,0,0:0:0:0:
192,192,156204,1,0,0:0:0:0:
64,192,156204,1,0,0:0:0:0:
64,192,156354,1,0,0:0:0:0:
320,192,156354,1,0,0:0:0:0:
192,192,156504,1,0,0:0:0:0:
448,192,156504,1,0,0:0:0:0:
64,192,156504,1,0,0:0:0:0:
64,192,156654,1,0,0:0:0:0:
192,192,156654,1,0,0:0:0:0:
448,192,156804,1,0,0:0:0:0:
320,192,156804,1,0,0:0:0:0:
192,192,156804,1,0,0:0:0:0:
320,192,156954,1,0,0:0:0:0:
448,192,156954,1,0,0:0:0:0:
448,192,157104,1,0,0:0:0:0:
64,192,157104,1,0,0:0:0:0:
320,192,157104,1,0,0:0:0:0:
192,192,157254,1,0,0:0:0:0:
64,192,157254,1,0,0:0:0:0:
192,192,157404,1,0,0:0:0:0:
320,192,157404,1,0,0:0:0:0:
448,192,157404,1,0,0:0:0:0:
448,192,157554,1,0,0:0:0:0:
192,192,157554,1,0,0:0:0:0:
192,192,157704,1,0,0:0:0:0:
448,192,157704,1,0,0:0:0:0:
64,192,157704,1,0,0:0:0:0:
320,192,157854,1,0,0:0:0:0:
448,192,157854,1,0,0:0:0:0:
192,192,158004,1,0,0:0:0:0:
448,192,158004,1,0,0:0:0:0:
64,192,158004,1,0,0:0:0:0:
192,192,158154,1,0,0:0:0:0:
320,192,158154,1,0,0:0:0:0:
448,192,158304,1,0,0:0:0:0:
320,192,158304,1,0,0:0:0:0:
64,192,158304,1,0,0:0:0:0:
64,192,158454,1,0,0:0:0:0:
320,192,158454,1,0,0:0:0:0:
192,192,158604,1,0,0:0:0:0:
320,192,158604,1,0,0:0:0:0:
448,192,158604,1,0,0:0:0:0:
192,192,158754,1,0,0:0:0:0:
448,192,158754,1,0,0:0:0:0:
320,192,158904,1,0,0:0:0:0:
192,192,158904,1,0,0:0:0:0:
64,192,158904,1,0,0:0:0:0:
192,192,159054,1,0,0:0:0:0:
320,192,159054,1,0,0:0:0:0:
320,192,159204,1,0,0:0:0:0:
192,192,159204,1,0,0:0:0:0:
64,192,159204,1,0,0:0:0:0:
448,192,159354,1,0,0:0:0:0:
64,192,159354,1,0,0:0:0:0:
192,192,159504,1,0,0:0:0:0:
448,192,159504,1,0,0:0:0:0:
64,192,159504,1,0,0:0:0:0:
320,192,159654,1,0,0:0:0:0:
448,192,159804,1,0,0:0:0:0:
192,192,159804,1,0,0:0:0:0:
64,192,159804,1,0,0:0:0:0:
320,192,159954,1,0,0:0:0:0:
448,192,160104,1,0,0:0:0:0:
192,192,160104,1,0,0:0:0:0:
64,192,160104,128,0,160704:0:0:0:0:
320,192,160254,1,0,0:0:0:0:
192,192,160404,1,0,0:0:0:0:
320,192,160554,1,0,0:0:0:0:
448,192,160704,1,0,0:0:0:0:
320,192,160779,1,0,0:0:0:0:
64,192,160854,1,0,0:0:0:0:
192,192,160929,1,0,0:0:0:0:
320,192,161004,1,0,0:0:0:0:
448,192,161004,1,0,0:0:0:0:
448,192,161154,1,0,0:0:0:0:
320,192,161154,1,0,0:0:0:0:
192,192,161154,1,0,0:0:0:0:
192,192,161304,1,0,0:0:0:0:
64,192,161304,1,0,0:0:0:0:
320,192,161304,1,0,0:0:0:0:
320,192,161454,1,0,0:0:0:0:
192,192,161454,1,0,0:0:0:0:
192,192,161604,1,0,0:0:0:0:
448,192,161604,1,0,0:0:0:0:
64,192,161604,1,0,0:0:0:0:
320,192,161754,1,0,0:0:0:0:
64,192,161754,1,0,0:0:0:0:
192,192,161904,1,0,0:0:0:0:
320,192,161904,1,0,0:0:0:0:
448,192,161904,1,0,0:0:0:0:
192,192,162054,1,0,0:0:0:0:
448,192,162054,1,0,0:0:0:0:
448,192,162204,1,0,0:0:0:0:
320,192,162204,1,0,0:0:0:0:
64,192,162204,1,0,0:0:0:0:
448,192,162354,1,0,0:0:0:0:
64,192,162354,1,0,0:0:0:0:
64,192,162504,1,0,0:0:0:0:
192,192,162504,1,0,0:0:0:0:
320,192,162504,1,0,0:0:0:0:
320,192,162654,1,0,0:0:0:0:
192,192,162654,1,0,0:0:0:0:
192,192,162804,1,0,0:0:0:0:
64,192,162804,1,0,0:0:0:0:
448,192,162804,1,0,0:0:0:0:
192,192,162954,1,0,0:0:0:0:
448,192,162954,1,0,0:0:0:0:
320,192,163104,1,0,0:0:0:0:
448,192,163104,1,0,0:0:0:0:
64,192,163104,1,0,0:0:0:0:
192,192,163254,1,0,0:0:0:0:
64,192,163254,1,0,0:0:0:0:
192,192,163404,1,0,0:0:0:0:
320,192,163404,1,0,0:0:0:0:
448,192,163404,1,0,0:0:0:0:
320,192,163554,1,0,0:0:0:0:
448,192,163554,1,0,0:0:0:0:
192,192,163704,1,0,0:0:0:0:
64,192,163704,1,0,0:0:0:0:
448,192,163704,1,0,0:0:0:0:
320,192,163854,1,0,0:0:0:0:
192,192,163854,1,0,0:0:0:0:
320,192,164004,1,0,0:0:0:0:
192,192,164004,1,0,0:0:0:0:
64,192,164004,1,0,0:0:0:0:
448,192,164154,1,0,0:0:0:0:
64,192,164154,1,0,0:0:0:0:
64,192,164304,1,0,0:0:0:0:
448,192,164304,1,0,0:0:0:0:
320,192,164304,128,0,164604:0:0:0:0:
192,192,164304,128,0,164604:0:0:0:0:
64,192,164604,128,0,164904:0:0:0:0:
448,192,164604,128,0,164904:0:0:0:0:
192,192,164904,128,0,165204:0:0:0:0:
320,192,164904,128,0,165204:0:0:0:0:
448,192,165204,1,0,0:0:0:0:
64,192,165204,1,0,0:0:0:0:
448,192,165504,1,0,0:0:0:0:
320,192,165504,1,0,0:0:0:0:
192,192,165504,1,0,0:0:0:0:
448,192,165654,1,0,0:0:0:0:
192,192,165654,1,0,0:0:0:0:
64,192,165804,1,0,0:0:0:0:
320,192,165804,1,0,0:0:0:0:
448,192,165804,1,0,0:0:0:0:
192,192,165954,1,0,0:0:0:0:
320,192,165954,1,0,0:0:0:0:
320,192,166104,1,0,0:0:0:0:
192,192,166104,1,0,0:0:0:0:
64,192,166104,1,0,0:0:0:0:
64,192,166254,1,0,0:0:0:0:
448,192,166254,1,0,0:0:0:0:
192,192,166404,1,0,0:0:0:0:
320,192,166404,1,0,0:0:0:0:
448,192,166404,1,0,0:0:0:0:
64,192,166554,1,0,0:0:0:0:
448,192,166554,1,0,0:0:0:0:
320,192,166704,1,0,0:0:0:0:
448,192,166704,1,0,0:0:0:0:
64,192,166704,1,0,0:0:0:0:
192,192,166854,1,0,0:0:0:0:
320,192,166854,1,0,0:0:0:0:
192,192,167004,1,0,0:0:0:0:
64,192,167004,1,0,0:0:0:0:
448,192,167004,1,0,0:0:0:0:
192,192,167154,1,0,0:0:0:0:
448,192,167154,1,0,0:0:0:0:
448,192,167304,1,0,0:0:0:0:
320,192,167304,1,0,0:0:0:0:
192,192,167304,1,0,0:0:0:0:
64,192,167454,1,0,0:0:0:0:
320,192,167454,1,0,0:0:0:0:
192,192,167604,1,0,0:0:0:0:
64,192,167604,1,0,0:0:0:0:
448,192,167604,1,0,0:0:0:0:
320,192,167754,1,0,0:0:0:0:
192,192,167754,1,0,0:0:0:0:
448,192,167904,1,0,0:0:0:0:
192,192,167904,1,0,0:0:0:0:
64,192,167904,1,0,0:0:0:0:
64,192,168054,1,0,0:0:0:0:
448,192,168054,1,0,0:0:0:0:
192,192,168204,1,0,0:0:0:0:
320,192,168204,1,0,0:0:0:0:
448,192,168204,1,0,0:0:0:0:
320,192,168354,1,0,0:0:0:0:
64,192,168354,1,0,0:0:0:0:
448,192,168504,1,0,0:0:0:0:
64,192,168504,1,0,0:0:0:0:
320,192,168504,1,0,0:0:0:0:
192,192,168654,1,0,0:0:0:0:
448,192,168654,1,0,0:0:0:0:
320,192,168804,1,0,0:0:0:0:
192,192,168804,1,0,0:0:0:0:
64,192,168804,1,0,0:0:0:0:
320,192,168954,1,0,0:0:0:0:
192,192,168954,1,0,0:0:0:0:
448,192,169104,1,0,0:0:0:0:
192,192,169104,1,0,0:0:0:0:
320,192,169104,1,0,0:0:0:0:
192,192,169254,1,0,0:0:0:0:
320,192,169254,1,0,0:0:0:0:
64,192,169404,1,0,0:0:0:0:
448,192,169404,1,0,0:0:0:0:
192,192,169554,1,0,0:0:0:0:
320,192,169554,1,0,0:0:0:0:
64,192,169704,1,0,0:0:0:0:
448,192,169704,1,0,0:0:0:0:
192,192,169854,1,0,0:0:0:0:
320,192,169854,128,0,170304:0:0:0:0:
448,192,170004,1,0,0:0:0:0:
192,192,170154,1,0,0:0:0:0:
64,192,170304,1,0,0:0:0:0:
192,192,170379,1,0,0:0:0:0:
448,192,170454,1,0,0:0:0:0:
320,192,170529,1,0,0:0:0:0:
64,192,170604,1,0,0:0:0:0:
192,192,170604,1,0,0:0:0:0:
64,192,170754,1,0,0:0:0:0:
192,192,170754,1,0,0:0:0:0:
64,192,170904,1,0,0:0:0:0:
192,192,170904,1,0,0:0:0:0:
448,192,170904,1,0,0:0:0:0:
192,192,171054,1,0,0:0:0:0:
448,192,171054,1,0,0:0:0:0:
320,192,171204,1,0,0:0:0:0:
192,192,171204,1,0,0:0:0:0:
64,192,171204,1,0,0:0:0:0:
320,192,171354,1,0,0:0:0:0:
448,192,171354,1,0,0:0:0:0:
448,192,171504,1,0,0:0:0:0:
320,192,171504,1,0,0:0:0:0:
64,192,171504,1,0,0:0:0:0:
64,192,171654,1,0,0:0:0:0:
192,192,171654,1,0,0:0:0:0:
192,192,171804,1,0,0:0:0:0:
320,192,171804,1,0,0:0:0:0:
448,192,171804,1,0,0:0:0:0:
192,192,171954,1,0,0:0:0:0:
320,192,171954,1,0,0:0:0:0:
64,192,172104,1,0,0:0:0:0:
320,192,172104,1,0,0:0:0:0:
448,192,172104,1,0,0:0:0:0:
320,192,172254,1,0,0:0:0:0:
64,192,172254,1,0,0:0:0:0:
192,192,172404,1,0,0:0:0:0:
64,192,172404,1,0,0:0:0:0:
448,192,172404,1,0,0:0:0:0:
192,192,172554,1,0,0:0:0:0:
320,192,172554,1,0,0:0:0:0:
64,192,172704,128,0,173304:0:0:0:0:
448,192,172704,128,0,173304:0:0:0:0:
192,192,172704,1,0,0:0:0:0:
320,192,172854,1,0,0:0:0:0:
192,192,173004,1,0,0:0:0:0:
320,192,173154,1,0,0:0:0:0:
192,192,173304,1,0,0:0:0:0:
320,192,173304,1,0,0:0:0:0:
448,192,173604,1,0,0:0:0:0:
320,192,173604,1,0,0:0:0:0:
64,192,173754,1,0,0:0:0:0:
192,192,173754,1,0,0:0:0:0:
320,192,173904,1,0,0:0:0:0:
320,192,174054,1,0,0:0:0:0:
448,192,174204,1,0,0:0:0:0:
448,192,174354,1,0,0:0:0:0:
64,192,174504,128,0,174954:0:0:0:0:
192,192,174504,128,0,174954:0:0:0:0:
320,192,174804,128,0,175104:0:0:0:0:
448,192,174804,128,0,175104:0:0:0:0:
64,192,175104,5,0,0:0:0:0:
192,192,175104,1,0,0:0:0:0:
192,192,175254,1,0,0:0:0:0:
320,192,175254,1,0,0:0:0:0:
320,192,175404,1,0,0:0:0:0:
448,192,175404,1,0,0:0:0:0:
192,192,175554,1,0,0:0:0:0:
64,192,175554,1,0,0:0:0:0:
320,192,175704,1,0,0:0:0:0:
192,192,175704,1,0,0:0:0:0:
192,192,175854,1,0,0:0:0:0:
448,192,175854,1,0,0:0:0:0:
320,192,176004,1,0,0:0:0:0:
64,192,176004,1,0,0:0:0:0:
448,192,176154,1,0,0:0:0:0:
320,192,176154,1,0,0:0:0:0:
192,192,176304,1,0,0:0:0:0:
320,192,176304,1,0,0:0:0:0:
320,192,176454,1,0,0:0:0:0:
64,192,176454,1,0,0:0:0:0:
192,192,176604,1,0,0:0:0:0:
448,192,176604,1,0,0:0:0:0:
64,192,176754,1,0,0:0:0:0:
192,192,176754,1,0,0:0:0:0:
64,192,176904,128,0,177204:0:0:0:0:
192,192,176904,1,0,0:0:0:0:
320,192,176904,1,0,0:0:0:0:
448,192,177054,128,0,177204:0:0:0:0:
320,192,177204,1,0,0:0:0:0:
192,192,177354,1,0,0:0:0:0:
320,192,177504,1,0,0:0:0:0:
448,192,177504,1,0,0:0:0:0:
64,192,177504,1,0,0:0:0:0:
320,192,177654,1,0,0:0:0:0:
448,192,177654,1,0,0:0:0:0:
192,192,177804,1,0,0:0:0:0:
320,192,177804,1,0,0:0:0:0:
448,192,177804,1,0,0:0:0:0:
192,192,177954,1,0,0:0:0:0:
448,192,177954,1,0,0:0:0:0:
192,192,178104,1,0,0:0:0:0:
448,192,178104,1,0,0:0:0:0:
64,192,178104,1,0,0:0:0:0:
192,192,178254,1,0,0:0:0:0:
64,192,178254,1,0,0:0:0:0:
64,192,178404,1,0,0:0:0:0:
192,192,178404,1,0,0:0:0:0:
320,192,178404,1,0,0:0:0:0:
192,192,178554,1,0,0:0:0:0:
320,192,178554,1,0,0:0:0:0:
64,192,178704,1,0,0:0:0:0:
320,192,178704,1,0,0:0:0:0:
192,192,178854,1,0,0:0:0:0:
448,192,178854,1,0,0:0:0:0:
448,192,179004,1,0,0:0:0:0:
192,192,179004,1,0,0:0:0:0:
320,192,179154,1,0,0:0:0:0:
64,192,179154,1,0,0:0:0:0:
64,192,179304,128,0,179904:0:0:0:0:
448,192,179304,128,0,179904:0:0:0:0:
192,192,179454,1,0,0:0:0:0:
320,192,179604,1,0,0:0:0:0:
192,192,179754,1,0,0:0:0:0:
192,192,179904,1,0,0:0:0:0:
320,192,179904,1,0,0:0:0:0:
192,192,180054,1,0,0:0:0:0:
448,192,180054,1,0,0:0:0:0:
192,192,180204,1,0,0:0:0:0:
448,192,180204,1,0,0:0:0:0:
64,192,180204,1,0,0:0:0:0:
320,192,180354,1,0,0:0:0:0:
448,192,180354,1,0,0:0:0:0:
192,192,180504,1,0,0:0:0:0:
320,192,180504,1,0,0:0:0:0:
448,192,180504,1,0,0:0:0:0:
64,192,180654,1,0,0:0:0:0:
192,192,180654,1,0,0:0:0:0:
320,192,180804,1,0,0:0:0:0:
448,192,180804,1,0,0:0:0:0:
64,192,180804,1,0,0:0:0:0:
64,192,180954,1,0,0:0:0:0:
448,192,180954,1,0,0:0:0:0:
320,192,181104,1,0,0:0:0:0:
192,192,181104,1,0,0:0:0:0:
64,192,181104,1,0,0:0:0:0:
192,192,181254,1,0,0:0:0:0:
320,192,181254,1,0,0:0:0:0:
192,192,181404,1,0,0:0:0:0:
64,192,181404,1,0,0:0:0:0:
448,192,181404,1,0,0:0:0:0:
192,192,181554,1,0,0:0:0:0:
320,192,181554,1,0,0:0:0:0:
320,192,181704,1,0,0:0:0:0:
448,192,181704,1,0,0:0:0:0:
192,192,181704,1,0,0:0:0:0:
320,192,181854,1,0,0:0:0:0:
448,192,181854,1,0,0:0:0:0:
64,192,182004,1,0,0:0:0:0:
320,192,182004,1,0,0:0:0:0:
448,192,182004,1,0,0:0:0:0:
192,192,182154,1,0,0:0:0:0:
64,192,182154,1,0,0:0:0:0:
320,192,182304,1,0,0:0:0:0:
64,192,182304,1,0,0:0:0:0:
192,192,182304,1,0,0:0:0:0:
192,192,182454,1,0,0:0:0:0:
448,192,182454,1,0,0:0:0:0:
192,192,182604,1,0,0:0:0:0:
64,192,182604,1,0,0:0:0:0:
320,192,182604,1,0,0:0:0:0:
320,192,182754,1,0,0:0:0:0:
64,192,182754,1,0,0:0:0:0:
192,192,182904,1,0,0:0:0:0:
320,192,182904,1,0,0:0:0:0:
448,192,182904,1,0,0:0:0:0:
64,192,183054,1,0,0:0:0:0:
448,192,183054,1,0,0:0:0:0:
192,192,183204,1,0,0:0:0:0:
64,192,183204,1,0,0:0:0:0:
448,192,183204,1,0,0:0:0:0:
320,192,183354,1,0,0:0:0:0:
448,192,183354,1,0,0:0:0:0:
320,192,183504,1,0,0:0:0:0:
448,192,183504,1,0,0:0:0:0:
64,192,183504,1,0,0:0:0:0:
64,192,183654,1,0,0:0:0:0:
192,192,183654,1,0,0:0:0:0:
64,192,183804,1,0,0:0:0:0:
192,192,183804,1,0,0:0:0:0:
320,192,183804,1,0,0:0:0:0:
320,192,183954,1,0,0:0:0:0:
448,192,183954,1,0,0:0:0:0:
192,192,184104,128,0,184704:0:0:0:0:
64,192,184104,1,0,0:0:0:0:
320,192,184254,1,0,0:0:0:0:
448,192,184404,1,0,0:0:0:0:
320,192,184554,1,0,0:0:0:0:
448,192,184704,1,0,0:0:0:0:
64,192,184704,1,0,0:0:0:0:
320,192,184854,1,0,0:0:0:0:
64,192,185004,128,0,185304:0:0:0:0:
192,192,185154,1,0,0:0:0:0:
320,192,185304,128,0,185604:0:0:0:0:
192,192,185454,1,0,0:0:0:0:
192,192,185604,128,0,185904:0:0:0:0:
320,192,185754,1,0,0:0:0:0:
448,192,185904,128,0,186204:0:0:0:0:
320,192,186054,1,0,0:0:0:0:
64,192,186204,128,0,186504:0:0:0:0:
192,192,186354,1,0,0:0:0:0:
320,192,186504,128,0,186804:0:0:0:0:
192,192,186654,1,0,0:0:0:0:
192,192,186804,128,0,187104:0:0:0:0:
320,192,186954,1,0,0:0:0:0:
448,192,187104,128,0,187404:0:0:0:0:
320,192,187254,1,0,0:0:0:0:
64,192,187404,128,0,187704:0:0:0:0:
192,192,187554,1,0,0:0:0:0:
320,192,187704,128,0,188004:0:0:0:0:
192,192,187854,1,0,0:0:0:0:
192,192,188004,128,0,188304:0:0:0:0:
320,192,188154,1,0,0:0:0:0:
448,192,188304,128,0,188604:0:0:0:0:
320,192,188454,1,0,0:0:0:0:
64,192,188604,128,0,188904:0:0:0:0:
192,192,188754,1,0,0:0:0:0:
320,192,188904,128,0,189204:0:0:0:0:
192,192,189054,1,0,0:0:0:0:
192,192,189204,128,0,189504:0:0:0:0:
320,192,189354,1,0,0:0:0:0:
64,192,189504,1,0,0:0:0:0:
448,192,189654,1,0,0:0:0:0:
320,192,189804,1,0,0:0:0:0:
192,192,189954,1,0,0:0:0:0:
64,192,190104,1,0,0:0:0:0:
192,192,190179,1,0,0:0:0:0:
320,192,190254,1,0,0:0:0:0:
448,192,190404,1,0,0:0:0:0:
320,192,190554,1,0,0:0:0:0:
192,192,190704,1,0,0:0:0:0:
64,192,190854,1,0,0:0:0:0:
192,192,191004,1,0,0:0:0:0:
320,192,191154,1,0,0:0:0:0:
448,192,191304,1,0,0:0:0:0:
320,192,191379,1,0,0:0:0:0:
192,192,191454,1,0,0:0:0:0:
64,192,191604,1,0,0:0:0:0:
192,192,191754,1,0,0:0:0:0:
448,192,191904,128,0,194304:0:0:0:0:
64,192,191904,1,0,0:0:0:0:
192,192,192054,1,0,0:0:0:0:
320,192,192204,1,0,0:0:0:0:
192,192,192354,1,0,0:0:0:0:
64,192,192504,1,0,0:0:0:0:
192,192,192654,1,0,0:0:0:0:
320,192,192804,1,0,0:0:0:0:
192,192,192954,128,0,194304:0:0:0:0:
64,192,194304,128,0,195504:0:0:0:0:
320,192,194304,1,0,0:0:0:0:
320,192,194454,1,0,0:0:0:0:
192,192,194604,1,0,0:0:0:0:
320,192,194754,1,0,0:0:0:0:
448,192,194904,1,0,0:0:0:0:
320,192,195054,1,0,0:0:0:0:
192,192,195204,1,0,0:0:0:0:
320,192,195354,1,0,0:0:0:0:
448,192,195504,128,0,196704:0:0:0:0:
192,192,195504,1,0,0:0:0:0:
320,192,195654,1,0,0:0:0:0:
192,192,195804,1,0,0:0:0:0:
64,192,195954,1,0,0:0:0:0:
192,192,196104,1,0,0:0:0:0:
320,192,196254,1,0,0:0:0:0:
192,192,196404,1,0,0:0:0:0:
192,192,196704,128,0,197904:0:0:0:0:
320,192,196704,1,0,0:0:0:0:
64,192,196704,1,0,0:0:0:0:
64,192,197004,1,0,0:0:0:0:
64,192,197304,1,0,0:0:0:0:
64,192,197604,1,0,0:0:0:0:
320,192,197904,128,0,199104:0:0:0:0:
64,192,197904,1,0,0:0:0:0:
448,192,198054,1,0,0:0:0:0:
192,192,198204,1,0,0:0:0:0:
64,192,198204,1,0,0:0:0:0:
448,192,198354,1,0,0:0:0:0:
192,192,198504,1,0,0:0:0:0:
64,192,198504,1,0,0:0:0:0:
448,192,198654,1,0,0:0:0:0:
192,192,198804,1,0,0:0:0:0:
64,192,198804,1,0,0:0:0:0:
448,192,198954,1,0,0:0:0:0:
64,192,199104,128,0,200304:0:0:0:0:
192,192,199104,1,0,0:0:0:0:
448,192,199254,1,0,0:0:0:0:
320,192,199404,1,0,0:0:0:0:
192,192,199554,1,0,0:0:0:0:
320,192,199704,1,0,0:0:0:0:
448,192,199854,1,0,0:0:0:0:
320,192,200004,1,0,0:0:0:0:
192,192,200154,1,0,0:0:0:0:
448,192,200304,128,0,201504:0:0:0:0:
320,192,200304,1,0,0:0:0:0:
192,192,200454,1,0,0:0:0:0:
320,192,200604,1,0,0:0:0:0:
64,192,200604,1,0,0:0:0:0:
192,192,200754,1,0,0:0:0:0:
64,192,200904,1,0,0:0:0:0:
320,192,200904,1,0,0:0:0:0:
192,192,201054,1,0,0:0:0:0:
320,192,201204,1,0,0:0:0:0:
64,192,201204,1,0,0:0:0:0:
192,192,201354,1,0,0:0:0:0:
192,192,201504,128,0,202704:0:0:0:0:
64,192,201504,1,0,0:0:0:0:
64,192,201804,1,0,0:0:0:0:
64,192,202104,1,0,0:0:0:0:
64,192,202404,1,0,0:0:0:0:
448,192,202554,1,0,0:0:0:0:
320,192,202704,128,0,203904:0:0:0:0:
64,192,202704,1,0,0:0:0:0:
448,192,202854,1,0,0:0:0:0:
192,192,203004,1,0,0:0:0:0:
64,192,203154,1,0,0:0:0:0:
192,192,203304,1,0,0:0:0:0:
64,192,203454,1,0,0:0:0:0:
448,192,203604,1,0,0:0:0:0:
192,192,203754,1,0,0:0:0:0:
64,192,203904,128,0,205104:0:0:0:0:
448,192,203904,1,0,0:0:0:0:
192,192,204054,1,0,0:0:0:0:
320,192,204204,1,0,0:0:0:0:
448,192,204204,1,0,0:0:0:0:
192,192,204354,1,0,0:0:0:0:
320,192,204504,1,0,0:0:0:0:
448,192,204504,1,0,0:0:0:0:
192,192,204654,1,0,0:0:0:0:
448,192,204804,1,0,0:0:0:0:
320,192,204804,1,0,0:0:0:0:
192,192,204954,1,0,0:0:0:0:
448,192,205104,128,0,206304:0:0:0:0:
320,192,205104,1,0,0:0:0:0:
192,192,205254,1,0,0:0:0:0:
64,192,205404,1,0,0:0:0:0:
192,192,205554,1,0,0:0:0:0:
320,192,205704,1,0,0:0:0:0:
192,192,205854,1,0,0:0:0:0:
64,192,206004,1,0,0:0:0:0:
192,192,206154,1,0,0:0:0:0:
192,192,206304,128,0,207504:0:0:0:0:
64,192,206304,1,0,0:0:0:0:
64,192,206604,1,0,0:0:0:0:
64,192,206904,1,0,0:0:0:0:
64,192,207204,1,0,0:0:0:0:
320,192,207504,128,0,208704:0:0:0:0:
64,192,207504,1,0,0:0:0:0:
448,192,207654,1,0,0:0:0:0:
192,192,207804,1,0,0:0:0:0:
448,192,207954,1,0,0:0:0:0:
64,192,208104,1,0,0:0:0:0:
448,192,208254,1,0,0:0:0:0:
192,192,208404,1,0,0:0:0:0:
448,192,208554,1,0,0:0:0:0:
64,192,208704,128,0,209904:0:0:0:0:
192,192,208704,1,0,0:0:0:0:
320,192,208854,1,0,0:0:0:0:
448,192,209004,1,0,0:0:0:0:
320,192,209154,1,0,0:0:0:0:
192,192,209304,1,0,0:0:0:0:
320,192,209454,1,0,0:0:0:0:
448,192,209604,1,0,0:0:0:0:
320,192,209754,1,0,0:0:0:0:
448,192,209904,1,0,0:0:0:0:
320,192,210204,1,0,0:0:0:0:
64,192,210504,1,0,0:0:0:0:
192,192,210804,1,0,0:0:0:0:
448,192,211104,1,0,0:0:0:0:
320,192,211404,1,0,0:0:0:0:
64,192,211704,1,0,0:0:0:0:
192,192,212004,1,0,0:0:0:0:
448,192,212304,128,0,216654:0:0:0:0:
320,192,212304,128,0,216654:0:0:0:0:
192,192,212304,128,0,216654:0:0:0:0:
64,192,212304,128,0,216654:0:0:0:0:
