osu file format v14

[General]
AudioFilename: WA.mp3
AudioLeadIn: 0
PreviewTime: -1
Countdown: 0
SampleSet: Soft
StackLeniency: 0.7
Mode: 3
LetterboxInBreaks: 0
SpecialStyle: 0
WidescreenStoryboard: 1

[Editor]
DistanceSpacing: 0.8
BeatDivisor: 4
GridSize: 8
TimelineZoom: 2.999998

[Metadata]
Title:Random pack 4
TitleUnicode:Random pack 4
Artist:Me
ArtistUnicode:Me
Creator:Manuel1341
Version:in to a pre
Source:
Tags:
BeatmapID:4569821
BeatmapSetID:2130809

[Difficulty]
HPDrainRate:9
CircleSize:4
OverallDifficulty:7
ApproachRate:7
SliderMultiplier:1.10000000596046
SliderTickRate:1

[Events]
//Background and Video events
0,0,"wasa.jpg",0,0
//Break Periods
//Storyboard Layer 0 (Background)
//Storyboard Layer 1 (Fail)
//Storyboard Layer 2 (Pass)
//Storyboard Layer 3 (Foreground)
//Storyboard Layer 4 (Overlay)
//Storyboard Sound Samples

[TimingPoints]
0,655.737704918033,4,2,0,100,1,0
0,-57.1428571428571,4,2,0,100,0,0
327,-50,4,2,0,100,0,0
2663,655.737704918033,4,2,0,100,1,0
2663,-57.1428571428571,4,2,0,100,0,0
11761,-40,4,2,0,100,0,0
11843,-57.1428571428571,4,2,0,100,0,0
11925,-40,4,2,0,100,0,0
12007,-57.1428571428571,4,2,0,100,0,0
12089,-40,4,2,0,100,0,0
12171,-57.1428571428571,4,2,0,100,0,0
12253,-40,4,2,0,100,0,0
12335,-57.1428571428571,4,2,0,100,0,0
12417,-40,4,2,0,100,0,0
12499,-57.1428571428571,4,2,0,100,0,0
12744,-40,4,2,0,100,0,0
12826,-57.1428571428571,4,2,0,100,0,0
13154,327.868852459016,4,2,0,100,1,0
35449,-111.111111111111,4,2,0,100,0,0
38891,-100,4,2,0,100,0,0
41514,-111.111111111111,4,2,0,100,0,0
44137,-100,4,2,0,100,0,0
46760,-111.111111111111,4,2,0,100,0,0
49383,-100,4,2,0,100,0,0
52006,-111.111111111111,4,2,0,100,0,0
53809,-100,4,2,0,100,0,0
54383,-80,4,2,0,100,0,0
54465,-100,4,2,0,100,0,0
54711,-80,4,2,0,100,0,0
54793,-100,4,2,0,100,0,0
55121,-100,4,2,0,100,0,0
65203,-80,4,2,0,100,0,0
65285,-100,4,2,0,100,0,0
76104,-100,4,2,0,100,0,1
97088,-100,4,2,0,100,0,0
97252,-133.333333333333,4,2,0,100,0,0
101678,-100,4,2,0,100,0,0
133727,-66.6666666666667,4,2,0,100,0,0
133809,-200,4,2,0,100,0,1
133973,-50,4,2,0,100,0,0
134137,-200,4,2,0,100,0,1
134301,-50,4,2,0,100,0,0
134465,-200,4,2,0,100,0,1
134629,-50,4,2,0,100,0,0
134793,-200,4,2,0,100,0,1
134957,-50,4,2,0,100,0,0
135121,-200,4,2,0,100,0,1
135285,-50,4,2,0,100,0,0
135449,-200,4,2,0,100,0,1
135613,-50,4,2,0,100,0,0
135776,-200,4,2,0,100,0,1
135940,-50,4,2,0,100,0,0
136104,-200,4,2,0,100,0,1
136268,-133.333333333333,4,2,0,100,0,0
136432,-100,4,2,0,100,0,0
139055,-100,4,2,0,100,0,0
149137,-66.6666666666667,4,2,0,100,0,0
149219,-100,4,2,0,100,0,0
158809,-80,4,2,0,100,0,0
159055,-100,4,2,0,100,0,0
159465,-66.6666666666667,4,2,0,100,0,0
159793,-100,4,2,0,100,0,0
160039,-100,4,2,0,100,0,0
168563,-80,4,2,0,100,0,0
169301,-100,4,2,0,100,0,0
170039,-100,4,2,0,100,0,0
170121,-100,4,2,0,100,0,0
170449,-100,4,2,0,100,0,1
180694,-66.6666666666667,4,2,0,100,0,0
180858,-95.2380952380952,4,2,0,100,0,1
192826,-100,4,2,0,100,0,0

[HitObjects]
320,192,81,128,0,2663:0:0:0:0:
448,192,2663,128,0,3318:0:0:0:0:
192,192,2663,128,0,3318:0:0:0:0:
64,192,3318,128,0,3482:0:0:0:0:
192,192,3482,128,0,3646:0:0:0:0:
448,192,3646,128,0,4138:0:0:0:0:
320,192,4138,128,0,4302:0:0:0:0:
64,192,4302,128,0,4466:0:0:0:0:
448,192,4466,128,0,4958:0:0:0:0:
320,192,4466,128,0,4958:0:0:0:0:
192,192,5285,128,0,5941:0:0:0:0:
448,192,5285,128,0,5613:0:0:0:0:
64,192,5941,128,0,6105:0:0:0:0:
192,192,6105,128,0,6269:0:0:0:0:
448,192,6269,128,0,6925:0:0:0:0:
64,192,6269,128,0,6597:0:0:0:0:
320,192,6925,128,0,7089:0:0:0:0:
64,192,7089,128,0,7253:0:0:0:0:
448,192,7089,128,0,7253:0:0:0:0:
64,192,7417,128,0,7581:0:0:0:0:
320,192,7417,128,0,7581:0:0:0:0:
192,192,7908,128,0,8236:0:0:0:0:
448,192,7908,128,0,8236:0:0:0:0:
448,192,8564,128,0,8892:0:0:0:0:
192,192,8564,128,0,8728:0:0:0:0:
64,192,8728,128,0,8892:0:0:0:0:
320,192,8892,128,0,9548:0:0:0:0:
192,192,9548,128,0,9712:0:0:0:0:
64,192,9712,128,0,9876:0:0:0:0:
448,192,9712,128,0,9876:0:0:0:0:
64,192,10040,128,0,10203:0:0:0:0:
320,192,10040,128,0,10203:0:0:0:0:
448,192,10531,1,0,0:0:0:0:
320,192,10641,1,0,0:0:0:0:
192,192,10750,1,0,0:0:0:0:
64,192,10859,1,0,0:0:0:0:
192,192,10969,1,0,0:0:0:0:
448,192,11078,1,0,0:0:0:0:
192,192,11187,1,0,0:0:0:0:
64,192,11296,1,0,0:0:0:0:
448,192,11406,1,0,0:0:0:0:
320,192,11515,1,0,0:0:0:0:
64,192,11624,1,0,0:0:0:0:
192,192,11734,1,0,0:0:0:0:
448,192,11843,1,0,0:0:0:0:
64,192,11843,1,0,0:0:0:0:
320,192,11843,1,0,0:0:0:0:
320,192,12007,1,0,0:0:0:0:
192,192,12007,1,0,0:0:0:0:
320,192,12171,1,0,0:0:0:0:
448,192,12171,1,0,0:0:0:0:
64,192,12171,1,0,0:0:0:0:
192,192,12335,1,0,0:0:0:0:
64,192,12335,1,0,0:0:0:0:
448,192,12499,128,0,12990:0:0:0:0:
192,192,12826,128,0,12990:0:0:0:0:
64,192,12826,128,0,12990:0:0:0:0:
320,192,12826,128,0,12990:0:0:0:0:
64,192,13154,128,0,13973:0:0:0:0:
320,192,13154,128,0,13317:0:0:0:0:
448,192,13481,1,0,0:0:0:0:
320,192,13481,1,0,0:0:0:0:
192,192,13645,1,0,0:0:0:0:
448,192,13645,1,0,0:0:0:0:
448,192,13973,128,0,14301:0:0:0:0:
192,192,13973,128,0,14137:0:0:0:0:
64,192,14301,1,0,0:0:0:0:
320,192,14301,1,0,0:0:0:0:
64,192,14465,128,0,15285:0:0:0:0:
192,192,14465,128,0,14629:0:0:0:0:
320,192,14793,1,0,0:0:0:0:
448,192,14793,1,0,0:0:0:0:
192,192,14957,1,0,0:0:0:0:
448,192,14957,1,0,0:0:0:0:
320,192,15285,128,0,15776:0:0:0:0:
192,192,15285,128,0,15449:0:0:0:0:
64,192,15613,1,0,0:0:0:0:
448,192,15613,1,0,0:0:0:0:
192,192,15776,128,0,16596:0:0:0:0:
64,192,15776,128,0,15940:0:0:0:0:
448,192,16104,1,0,0:0:0:0:
320,192,16104,1,0,0:0:0:0:
64,192,16268,1,0,0:0:0:0:
320,192,16268,1,0,0:0:0:0:
448,192,16596,128,0,17088:0:0:0:0:
64,192,16596,128,0,16760:0:0:0:0:
320,192,16924,1,0,0:0:0:0:
192,192,16924,1,0,0:0:0:0:
64,192,17088,128,0,17744:0:0:0:0:
192,192,17088,128,0,17252:0:0:0:0:
320,192,17416,1,0,0:0:0:0:
448,192,17416,1,0,0:0:0:0:
192,192,17580,1,0,0:0:0:0:
448,192,17580,1,0,0:0:0:0:
192,192,17744,1,0,0:0:0:0:
320,192,17744,1,0,0:0:0:0:
448,192,17826,1,0,0:0:0:0:
64,192,17908,1,0,0:0:0:0:
320,192,17908,1,0,0:0:0:0:
320,192,18072,1,0,0:0:0:0:
448,192,18072,1,0,0:0:0:0:
64,192,18072,1,0,0:0:0:0:
192,192,18153,1,0,0:0:0:0:
64,192,18235,1,0,0:0:0:0:
320,192,18235,1,0,0:0:0:0:
448,192,18399,128,0,19219:0:0:0:0:
320,192,18399,128,0,18563:0:0:0:0:
64,192,18727,1,0,0:0:0:0:
320,192,18727,1,0,0:0:0:0:
192,192,18891,1,0,0:0:0:0:
64,192,18891,1,0,0:0:0:0:
320,192,19219,128,0,19711:0:0:0:0:
192,192,19219,128,0,19383:0:0:0:0:
64,192,19547,1,0,0:0:0:0:
448,192,19547,1,0,0:0:0:0:
192,192,19711,128,0,20531:0:0:0:0:
448,192,19711,128,0,19875:0:0:0:0:
64,192,20039,1,0,0:0:0:0:
320,192,20039,1,0,0:0:0:0:
320,192,20203,1,0,0:0:0:0:
448,192,20203,1,0,0:0:0:0:
64,192,20531,128,0,21022:0:0:0:0:
320,192,20531,128,0,20694:0:0:0:0:
192,192,20858,1,0,0:0:0:0:
448,192,20858,1,0,0:0:0:0:
320,192,21022,128,0,21186:0:0:0:0:
192,192,21022,128,0,21514:0:0:0:0:
448,192,21350,1,0,0:0:0:0:
64,192,21350,1,0,0:0:0:0:
320,192,21514,128,0,21678:0:0:0:0:
64,192,21514,128,0,22334:0:0:0:0:
448,192,21842,1,0,0:0:0:0:
192,192,21842,1,0,0:0:0:0:
320,192,22170,1,0,0:0:0:0:
192,192,22170,1,0,0:0:0:0:
448,192,22334,128,0,22662:0:0:0:0:
192,192,22334,128,0,22498:0:0:0:0:
64,192,22662,1,0,0:0:0:0:
192,192,22662,1,0,0:0:0:0:
320,192,22662,1,0,0:0:0:0:
448,192,22826,128,0,22990:0:0:0:0:
192,192,22826,128,0,22990:0:0:0:0:
64,192,22826,128,0,22990:0:0:0:0:
320,192,23072,1,0,0:0:0:0:
192,192,23153,128,0,23317:0:0:0:0:
448,192,23153,128,0,23317:0:0:0:0:
64,192,23153,128,0,23317:0:0:0:0:
64,192,23481,1,0,0:0:0:0:
448,192,23481,1,0,0:0:0:0:
320,192,23481,1,0,0:0:0:0:
64,192,23645,1,0,0:0:0:0:
448,192,23645,1,0,0:0:0:0:
64,192,23809,1,0,0:0:0:0:
320,192,23809,1,0,0:0:0:0:
448,192,23973,1,0,0:0:0:0:
192,192,23973,1,0,0:0:0:0:
320,192,24137,1,0,0:0:0:0:
64,192,24137,1,0,0:0:0:0:
64,192,24301,1,0,0:0:0:0:
192,192,24301,1,0,0:0:0:0:
192,192,24465,1,0,0:0:0:0:
320,192,24465,1,0,0:0:0:0:
448,192,24629,1,0,0:0:0:0:
192,192,24629,1,0,0:0:0:0:
64,192,24793,1,0,0:0:0:0:
192,192,24793,1,0,0:0:0:0:
192,192,24957,1,0,0:0:0:0:
448,192,24957,1,0,0:0:0:0:
64,192,25121,1,0,0:0:0:0:
320,192,25121,1,0,0:0:0:0:
192,192,25121,1,0,0:0:0:0:
64,192,25285,1,0,0:0:0:0:
192,192,25285,1,0,0:0:0:0:
448,192,25285,1,0,0:0:0:0:
448,192,25449,1,0,0:0:0:0:
192,192,25449,1,0,0:0:0:0:
64,192,25449,1,0,0:0:0:0:
320,192,25613,1,0,0:0:0:0:
64,192,25613,1,0,0:0:0:0:
64,192,25776,1,0,0:0:0:0:
320,192,25776,1,0,0:0:0:0:
192,192,25940,1,0,0:0:0:0:
448,192,25940,1,0,0:0:0:0:
64,192,26104,1,0,0:0:0:0:
320,192,26104,1,0,0:0:0:0:
64,192,26268,1,0,0:0:0:0:
448,192,26268,1,0,0:0:0:0:
192,192,26432,1,0,0:0:0:0:
448,192,26432,1,0,0:0:0:0:
64,192,26596,1,0,0:0:0:0:
448,192,26596,1,0,0:0:0:0:
192,192,26760,1,0,0:0:0:0:
64,192,26760,1,0,0:0:0:0:
320,192,26924,1,0,0:0:0:0:
448,192,26924,1,0,0:0:0:0:
64,192,27088,1,0,0:0:0:0:
320,192,27088,1,0,0:0:0:0:
320,192,27252,1,0,0:0:0:0:
192,192,27252,1,0,0:0:0:0:
320,192,27416,1,0,0:0:0:0:
448,192,27416,1,0,0:0:0:0:
320,192,27580,1,0,0:0:0:0:
64,192,27580,1,0,0:0:0:0:
64,192,27744,1,0,0:0:0:0:
320,192,27744,1,0,0:0:0:0:
192,192,27744,1,0,0:0:0:0:
64,192,27908,1,0,0:0:0:0:
320,192,27908,1,0,0:0:0:0:
448,192,27908,1,0,0:0:0:0:
64,192,28072,1,0,0:0:0:0:
320,192,28072,1,0,0:0:0:0:
448,192,28072,1,0,0:0:0:0:
192,192,28235,1,0,0:0:0:0:
64,192,28235,1,0,0:0:0:0:
320,192,28317,1,0,0:0:0:0:
192,192,28399,1,0,0:0:0:0:
448,192,28399,1,0,0:0:0:0:
64,192,28563,128,0,28891:0:0:0:0:
192,192,28563,128,0,28891:0:0:0:0:
320,192,28645,1,0,0:0:0:0:
448,192,28727,1,0,0:0:0:0:
448,192,28891,128,0,29219:0:0:0:0:
320,192,28891,128,0,29055:0:0:0:0:
320,192,29219,128,0,29547:0:0:0:0:
64,192,29219,1,0,0:0:0:0:
192,192,29383,128,0,29547:0:0:0:0:
64,192,29383,1,0,0:0:0:0:
448,192,29547,1,0,0:0:0:0:
64,192,29547,1,0,0:0:0:0:
64,192,29711,1,0,0:0:0:0:
320,192,29711,1,0,0:0:0:0:
64,192,29875,1,0,0:0:0:0:
192,192,29875,1,0,0:0:0:0:
64,192,30039,1,0,0:0:0:0:
448,192,30039,1,0,0:0:0:0:
64,192,30203,1,0,0:0:0:0:
192,192,30203,1,0,0:0:0:0:
64,192,30367,1,0,0:0:0:0:
320,192,30367,1,0,0:0:0:0:
448,192,30531,1,0,0:0:0:0:
192,192,30531,1,0,0:0:0:0:
448,192,30694,1,0,0:0:0:0:
64,192,30694,1,0,0:0:0:0:
320,192,30694,1,0,0:0:0:0:
448,192,30858,1,0,0:0:0:0:
320,192,30858,1,0,0:0:0:0:
192,192,30858,1,0,0:0:0:0:
448,192,31022,1,0,0:0:0:0:
64,192,31022,128,0,31514:0:0:0:0:
192,192,31022,128,0,31186:0:0:0:0:
448,192,31350,1,0,0:0:0:0:
320,192,31350,1,0,0:0:0:0:
448,192,31514,128,0,32006:0:0:0:0:
192,192,31514,128,0,31678:0:0:0:0:
64,192,31842,1,0,0:0:0:0:
192,192,31842,1,0,0:0:0:0:
192,192,32006,128,0,32170:0:0:0:0:
320,192,32006,128,0,32662:0:0:0:0:
64,192,32334,1,0,0:0:0:0:
448,192,32334,1,0,0:0:0:0:
448,192,32662,1,0,0:0:0:0:
192,192,32662,1,0,0:0:0:0:
64,192,32826,128,0,33317:0:0:0:0:
320,192,32826,128,0,32990:0:0:0:0:
192,192,33153,1,0,0:0:0:0:
448,192,33153,1,0,0:0:0:0:
320,192,33317,128,0,33481:0:0:0:0:
448,192,33317,128,0,33481:0:0:0:0:
448,192,33645,128,0,33973:0:0:0:0:
192,192,33645,128,0,33973:0:0:0:0:
64,192,33973,128,0,34137:0:0:0:0:
320,192,33973,128,0,34137:0:0:0:0:
192,192,34137,128,0,35449:0:0:0:0:
448,192,34137,128,0,35449:0:0:0:0:
320,192,35449,128,0,36760:0:0:0:0:
192,192,36760,128,0,37416:0:0:0:0:
64,192,37088,128,0,37580:0:0:0:0:
448,192,37416,128,0,37744:0:0:0:0:
320,192,37580,128,0,37908:0:0:0:0:
192,192,37744,128,0,38891:0:0:0:0:
320,192,39383,1,0,0:0:0:0:
64,192,39383,1,0,0:0:0:0:
448,192,39547,1,0,0:0:0:0:
192,192,39711,1,0,0:0:0:0:
320,192,39875,1,0,0:0:0:0:
448,192,40039,1,0,0:0:0:0:
64,192,40039,1,0,0:0:0:0:
192,192,40203,1,0,0:0:0:0:
320,192,40367,1,0,0:0:0:0:
64,192,40531,1,0,0:0:0:0:
448,192,40531,1,0,0:0:0:0:
320,192,40694,1,0,0:0:0:0:
448,192,40858,1,0,0:0:0:0:
192,192,41022,1,0,0:0:0:0:
64,192,41022,1,0,0:0:0:0:
320,192,41186,1,0,0:0:0:0:
64,192,42006,128,0,42334:0:0:0:0:
448,192,42006,128,0,42498:0:0:0:0:
320,192,42334,128,0,42498:0:0:0:0:
192,192,42498,128,0,42990:0:0:0:0:
64,192,42826,128,0,43153:0:0:0:0:
448,192,42990,128,0,44137:0:0:0:0:
320,192,43645,128,0,44137:0:0:0:0:
64,192,43645,128,0,44137:0:0:0:0:
448,192,44629,1,0,0:0:0:0:
320,192,44629,1,0,0:0:0:0:
64,192,44793,1,0,0:0:0:0:
192,192,44957,1,0,0:0:0:0:
448,192,45121,1,0,0:0:0:0:
64,192,45285,1,0,0:0:0:0:
192,192,45285,1,0,0:0:0:0:
320,192,45449,1,0,0:0:0:0:
448,192,45613,1,0,0:0:0:0:
64,192,45776,1,0,0:0:0:0:
320,192,45776,1,0,0:0:0:0:
192,192,45940,1,0,0:0:0:0:
448,192,46104,1,0,0:0:0:0:
448,192,46268,1,0,0:0:0:0:
192,192,46268,1,0,0:0:0:0:
64,192,46432,1,0,0:0:0:0:
448,192,47252,128,0,47744:0:0:0:0:
192,192,47252,128,0,47744:0:0:0:0:
64,192,47580,128,0,47908:0:0:0:0:
320,192,47908,128,0,48399:0:0:0:0:
448,192,48235,128,0,48563:0:0:0:0:
192,192,48399,128,0,49383:0:0:0:0:
64,192,49875,1,0,0:0:0:0:
320,192,49875,1,0,0:0:0:0:
448,192,50039,1,0,0:0:0:0:
64,192,50203,1,0,0:0:0:0:
192,192,50203,1,0,0:0:0:0:
448,192,50367,1,0,0:0:0:0:
64,192,50531,1,0,0:0:0:0:
320,192,50531,1,0,0:0:0:0:
448,192,50694,1,0,0:0:0:0:
192,192,50694,1,0,0:0:0:0:
64,192,50858,1,0,0:0:0:0:
320,192,50858,1,0,0:0:0:0:
448,192,51022,1,0,0:0:0:0:
64,192,51186,1,0,0:0:0:0:
192,192,51186,1,0,0:0:0:0:
448,192,51350,1,0,0:0:0:0:
64,192,51514,1,0,0:0:0:0:
320,192,51514,1,0,0:0:0:0:
448,192,51678,1,0,0:0:0:0:
448,192,52498,128,0,52990:0:0:0:0:
64,192,52826,128,0,53317:0:0:0:0:
320,192,52826,128,0,53317:0:0:0:0:
448,192,53153,128,0,53481:0:0:0:0:
320,192,53481,128,0,53809:0:0:0:0:
192,192,53481,128,0,53809:0:0:0:0:
64,192,53973,1,0,0:0:0:0:
320,192,53973,1,0,0:0:0:0:
64,192,54137,1,0,0:0:0:0:
448,192,54137,1,0,0:0:0:0:
64,192,54301,1,0,0:0:0:0:
192,192,54301,1,0,0:0:0:0:
448,192,54465,128,0,54547:0:0:0:0:
192,192,54465,128,0,54547:0:0:0:0:
320,192,54547,128,0,54629:0:0:0:0:
64,192,54547,128,0,54629:0:0:0:0:
192,192,54793,128,0,54875:0:0:0:0:
448,192,54793,128,0,54875:0:0:0:0:
64,192,54875,128,0,54957:0:0:0:0:
320,192,54875,128,0,54957:0:0:0:0:
64,192,55121,128,0,55776:0:0:0:0:
448,192,55121,128,0,55285:0:0:0:0:
192,192,55613,1,0,0:0:0:0:
448,192,55613,1,0,0:0:0:0:
320,192,55776,1,0,0:0:0:0:
448,192,55776,128,0,55940:0:0:0:0:
64,192,55940,1,0,0:0:0:0:
320,192,55940,128,0,56104:0:0:0:0:
64,192,56104,128,0,56760:0:0:0:0:
448,192,56104,128,0,56268:0:0:0:0:
448,192,56760,128,0,57416:0:0:0:0:
192,192,56760,128,0,56924:0:0:0:0:
64,192,56924,128,0,57088:0:0:0:0:
320,192,56924,1,0,0:0:0:0:
320,192,57252,128,0,57580:0:0:0:0:
192,192,57252,1,0,0:0:0:0:
192,192,57580,1,0,0:0:0:0:
64,192,57580,128,0,57744:0:0:0:0:
192,192,57744,128,0,57908:0:0:0:0:
448,192,57744,128,0,58727:0:0:0:0:
320,192,58399,1,0,0:0:0:0:
64,192,58399,1,0,0:0:0:0:
320,192,58563,1,0,0:0:0:0:
192,192,58563,1,0,0:0:0:0:
64,192,58727,128,0,59055:0:0:0:0:
320,192,58727,128,0,58891:0:0:0:0:
448,192,58891,128,0,59547:0:0:0:0:
192,192,58891,128,0,59055:0:0:0:0:
320,192,59383,1,0,0:0:0:0:
64,192,59383,1,0,0:0:0:0:
320,192,59547,1,0,0:0:0:0:
192,192,59547,1,0,0:0:0:0:
64,192,59711,1,0,0:0:0:0:
448,192,59711,1,0,0:0:0:0:
320,192,59711,1,0,0:0:0:0:
192,192,59793,1,0,0:0:0:0:
64,192,59875,1,0,0:0:0:0:
320,192,59875,1,0,0:0:0:0:
448,192,60039,1,0,0:0:0:0:
192,192,60039,1,0,0:0:0:0:
64,192,60039,1,0,0:0:0:0:
320,192,60121,1,0,0:0:0:0:
64,192,60203,1,0,0:0:0:0:
448,192,60203,1,0,0:0:0:0:
192,192,60367,128,0,61022:0:0:0:0:
64,192,60367,128,0,60531:0:0:0:0:
448,192,60858,1,0,0:0:0:0:
64,192,60858,128,0,61022:0:0:0:0:
320,192,61022,1,0,0:0:0:0:
448,192,61022,128,0,61186:0:0:0:0:
64,192,61186,128,0,61350:0:0:0:0:
320,192,61186,1,0,0:0:0:0:
192,192,61350,128,0,61514:0:0:0:0:
448,192,61350,128,0,61842:0:0:0:0:
320,192,62006,1,0,0:0:0:0:
64,192,62006,1,0,0:0:0:0:
192,192,62006,1,0,0:0:0:0:
448,192,62088,1,0,0:0:0:0:
64,192,62170,1,0,0:0:0:0:
320,192,62170,1,0,0:0:0:0:
320,192,62334,128,0,62498:0:0:0:0:
64,192,62334,128,0,62498:0:0:0:0:
448,192,62498,128,0,62826:0:0:0:0:
192,192,62498,128,0,62826:0:0:0:0:
64,192,62990,128,0,64301:0:0:0:0:
192,192,63317,128,0,63645:0:0:0:0:
448,192,63317,1,0,0:0:0:0:
320,192,63645,128,0,63973:0:0:0:0:
448,192,63645,1,0,0:0:0:0:
448,192,63973,128,0,64629:0:0:0:0:
192,192,63973,1,0,0:0:0:0:
192,192,64301,128,0,64629:0:0:0:0:
320,192,64629,1,0,0:0:0:0:
64,192,64629,1,0,0:0:0:0:
320,192,64711,1,0,0:0:0:0:
64,192,64793,1,0,0:0:0:0:
192,192,64793,1,0,0:0:0:0:
448,192,64957,1,0,0:0:0:0:
320,192,64957,1,0,0:0:0:0:
64,192,65121,1,0,0:0:0:0:
192,192,65121,1,0,0:0:0:0:
448,192,65285,1,0,0:0:0:0:
192,192,65285,1,0,0:0:0:0:
64,192,65613,128,0,66104:0:0:0:0:
192,192,65613,128,0,65776:0:0:0:0:
448,192,66104,128,0,66596:0:0:0:0:
192,192,66104,128,0,66268:0:0:0:0:
64,192,66268,128,0,66924:0:0:0:0:
320,192,66268,1,0,0:0:0:0:
320,192,66596,1,0,0:0:0:0:
192,192,66596,1,0,0:0:0:0:
320,192,66760,128,0,66924:0:0:0:0:
448,192,66760,128,0,67580:0:0:0:0:
320,192,67252,1,0,0:0:0:0:
192,192,67252,1,0,0:0:0:0:
320,192,67334,1,0,0:0:0:0:
64,192,67416,1,0,0:0:0:0:
192,192,67416,1,0,0:0:0:0:
320,192,67580,1,0,0:0:0:0:
64,192,67580,128,0,67744:0:0:0:0:
192,192,67744,128,0,68235:0:0:0:0:
320,192,67744,128,0,67908:0:0:0:0:
448,192,68072,1,0,0:0:0:0:
64,192,68072,1,0,0:0:0:0:
320,192,68235,128,0,68399:0:0:0:0:
64,192,68235,128,0,68891:0:0:0:0:
320,192,68727,1,0,0:0:0:0:
192,192,68727,1,0,0:0:0:0:
448,192,68809,1,0,0:0:0:0:
192,192,68891,128,0,69055:0:0:0:0:
320,192,68891,128,0,69219:0:0:0:0:
448,192,69055,1,0,0:0:0:0:
64,192,69055,1,0,0:0:0:0:
192,192,69219,1,0,0:0:0:0:
64,192,69219,128,0,69875:0:0:0:0:
192,192,69711,1,0,0:0:0:0:
320,192,69711,1,0,0:0:0:0:
192,192,69875,1,0,0:0:0:0:
448,192,69875,128,0,70039:0:0:0:0:
320,192,70039,1,0,0:0:0:0:
64,192,70039,1,0,0:0:0:0:
192,192,70203,1,0,0:0:0:0:
448,192,70203,1,0,0:0:0:0:
64,192,70203,1,0,0:0:0:0:
320,192,70285,1,0,0:0:0:0:
448,192,70367,1,0,0:0:0:0:
192,192,70367,1,0,0:0:0:0:
64,192,70367,1,0,0:0:0:0:
448,192,70449,1,0,0:0:0:0:
320,192,70531,1,0,0:0:0:0:
192,192,70531,1,0,0:0:0:0:
64,192,70613,1,0,0:0:0:0:
448,192,70694,1,0,0:0:0:0:
192,192,70694,1,0,0:0:0:0:
64,192,70858,128,0,71514:0:0:0:0:
192,192,70858,128,0,71022:0:0:0:0:
192,192,71350,1,0,0:0:0:0:
448,192,71350,1,0,0:0:0:0:
192,192,71514,128,0,71678:0:0:0:0:
320,192,71514,128,0,72006:0:0:0:0:
64,192,71842,1,0,0:0:0:0:
448,192,71842,1,0,0:0:0:0:
192,192,72006,128,0,72170:0:0:0:0:
448,192,72006,128,0,72498:0:0:0:0:
64,192,72334,1,0,0:0:0:0:
192,192,72334,1,0,0:0:0:0:
320,192,72498,1,0,0:0:0:0:
64,192,72498,1,0,0:0:0:0:
192,192,72662,5,0,0:0:0:0:
320,192,72662,1,0,0:0:0:0:
448,192,72744,1,0,0:0:0:0:
192,192,72826,1,0,0:0:0:0:
64,192,72826,1,0,0:0:0:0:
320,192,72908,1,0,0:0:0:0:
64,192,72990,128,0,73153:0:0:0:0:
192,192,72990,128,0,73153:0:0:0:0:
448,192,72990,128,0,73153:0:0:0:0:
64,192,73481,128,0,74301:0:0:0:0:
320,192,73973,128,0,74137:0:0:0:0:
448,192,74137,128,0,74957:0:0:0:0:
320,192,74629,128,0,74793:0:0:0:0:
192,192,74793,128,0,75121:0:0:0:0:
64,192,75121,1,0,0:0:0:0:
320,192,75121,1,0,0:0:0:0:
448,192,75203,1,0,0:0:0:0:
192,192,75285,1,0,0:0:0:0:
448,192,75285,1,0,0:0:0:0:
64,192,75449,1,0,0:0:0:0:
192,192,75449,1,0,0:0:0:0:
448,192,75449,1,0,0:0:0:0:
64,192,75613,1,0,0:0:0:0:
320,192,75613,1,0,0:0:0:0:
192,192,75613,1,0,0:0:0:0:
64,192,75776,1,0,0:0:0:0:
448,192,75776,1,0,0:0:0:0:
320,192,75776,1,0,0:0:0:0:
448,192,75940,1,0,0:0:0:0:
320,192,75940,1,0,0:0:0:0:
192,192,75940,1,0,0:0:0:0:
64,192,76104,1,0,0:0:0:0:
192,192,76104,1,0,0:0:0:0:
320,192,76268,1,0,0:0:0:0:
192,192,76268,1,0,0:0:0:0:
64,192,76432,1,0,0:0:0:0:
320,192,76432,1,0,0:0:0:0:
64,192,76596,1,0,0:0:0:0:
448,192,76596,1,0,0:0:0:0:
320,192,76760,1,0,0:0:0:0:
448,192,76760,1,0,0:0:0:0:
64,192,76760,1,0,0:0:0:0:
64,192,76924,1,0,0:0:0:0:
320,192,76924,1,0,0:0:0:0:
448,192,76924,1,0,0:0:0:0:
64,192,77088,1,0,0:0:0:0:
192,192,77088,1,0,0:0:0:0:
192,192,77252,1,0,0:0:0:0:
448,192,77252,1,0,0:0:0:0:
64,192,77416,1,0,0:0:0:0:
192,192,77416,1,0,0:0:0:0:
448,192,77580,1,0,0:0:0:0:
192,192,77580,1,0,0:0:0:0:
64,192,77744,1,0,0:0:0:0:
320,192,77744,1,0,0:0:0:0:
448,192,77744,1,0,0:0:0:0:
64,192,77908,1,0,0:0:0:0:
448,192,77908,1,0,0:0:0:0:
320,192,77908,1,0,0:0:0:0:
64,192,78072,128,0,78235:0:0:0:0:
192,192,78072,1,0,0:0:0:0:
320,192,78235,128,0,78399:0:0:0:0:
192,192,78235,1,0,0:0:0:0:
448,192,78399,128,0,78563:0:0:0:0:
64,192,78399,1,0,0:0:0:0:
64,192,78563,1,0,0:0:0:0:
192,192,78563,128,0,78727:0:0:0:0:
64,192,78727,1,0,0:0:0:0:
320,192,78727,1,0,0:0:0:0:
448,192,78891,1,0,0:0:0:0:
320,192,78891,1,0,0:0:0:0:
320,192,79055,1,0,0:0:0:0:
192,192,79055,1,0,0:0:0:0:
64,192,79219,1,0,0:0:0:0:
320,192,79219,1,0,0:0:0:0:
192,192,79383,1,0,0:0:0:0:
448,192,79383,1,0,0:0:0:0:
64,192,79383,1,0,0:0:0:0:
64,192,79547,1,0,0:0:0:0:
192,192,79547,1,0,0:0:0:0:
448,192,79547,1,0,0:0:0:0:
320,192,79711,1,0,0:0:0:0:
192,192,79711,1,0,0:0:0:0:
64,192,79875,1,0,0:0:0:0:
320,192,79875,1,0,0:0:0:0:
448,192,80039,1,0,0:0:0:0:
320,192,80039,1,0,0:0:0:0:
64,192,80203,1,0,0:0:0:0:
320,192,80203,1,0,0:0:0:0:
64,192,80367,1,0,0:0:0:0:
192,192,80367,1,0,0:0:0:0:
448,192,80367,1,0,0:0:0:0:
64,192,80531,1,0,0:0:0:0:
192,192,80531,1,0,0:0:0:0:
448,192,80531,1,0,0:0:0:0:
64,192,80694,1,0,0:0:0:0:
320,192,80694,1,0,0:0:0:0:
192,192,80776,1,0,0:0:0:0:
64,192,80858,1,0,0:0:0:0:
448,192,80858,1,0,0:0:0:0:
320,192,80858,1,0,0:0:0:0:
64,192,81022,1,0,0:0:0:0:
192,192,81022,1,0,0:0:0:0:
320,192,81104,1,0,0:0:0:0:
64,192,81186,1,0,0:0:0:0:
192,192,81186,1,0,0:0:0:0:
448,192,81186,1,0,0:0:0:0:
320,192,81350,1,0,0:0:0:0:
64,192,81350,128,0,81514:0:0:0:0:
320,192,81514,128,0,81678:0:0:0:0:
192,192,81678,1,0,0:0:0:0:
448,192,81678,128,0,81842:0:0:0:0:
320,192,81842,1,0,0:0:0:0:
64,192,81842,1,0,0:0:0:0:
192,192,81924,1,0,0:0:0:0:
64,192,82006,1,0,0:0:0:0:
448,192,82006,128,0,82334:0:0:0:0:
320,192,82170,128,0,82334:0:0:0:0:
64,192,82170,1,0,0:0:0:0:
192,192,82334,128,0,82498:0:0:0:0:
64,192,82334,1,0,0:0:0:0:
448,192,82498,128,0,82826:0:0:0:0:
320,192,82498,128,0,82662:0:0:0:0:
448,192,82990,128,0,83317:0:0:0:0:
192,192,82990,128,0,83153:0:0:0:0:
320,192,83153,128,0,83481:0:0:0:0:
64,192,83153,128,0,83317:0:0:0:0:
448,192,83481,128,0,83809:0:0:0:0:
64,192,83481,128,0,83645:0:0:0:0:
192,192,83809,1,0,0:0:0:0:
320,192,83809,1,0,0:0:0:0:
448,192,83973,128,0,84465:0:0:0:0:
64,192,83973,128,0,84465:0:0:0:0:
192,192,84301,128,0,84793:0:0:0:0:
64,192,84629,128,0,85285:0:0:0:0:
320,192,84957,128,0,85449:0:0:0:0:
192,192,84957,128,0,85449:0:0:0:0:
448,192,85285,128,0,85613:0:0:0:0:
192,192,85613,128,0,85940:0:0:0:0:
64,192,85613,1,0,0:0:0:0:
448,192,85776,1,0,0:0:0:0:
320,192,85776,1,0,0:0:0:0:
64,192,85940,128,0,86104:0:0:0:0:
320,192,85940,128,0,86104:0:0:0:0:
448,192,85940,128,0,86104:0:0:0:0:
64,192,86596,1,0,0:0:0:0:
320,192,86596,1,0,0:0:0:0:
64,192,86760,1,0,0:0:0:0:
448,192,86760,1,0,0:0:0:0:
192,192,86924,1,0,0:0:0:0:
448,192,86924,1,0,0:0:0:0:
320,192,87088,1,0,0:0:0:0:
192,192,87088,1,0,0:0:0:0:
448,192,87170,1,0,0:0:0:0:
64,192,87252,1,0,0:0:0:0:
192,192,87252,1,0,0:0:0:0:
320,192,87252,1,0,0:0:0:0:
64,192,87416,1,0,0:0:0:0:
192,192,87416,1,0,0:0:0:0:
448,192,87416,1,0,0:0:0:0:
320,192,87580,1,0,0:0:0:0:
192,192,87580,1,0,0:0:0:0:
64,192,87744,1,0,0:0:0:0:
320,192,87744,1,0,0:0:0:0:
448,192,87744,1,0,0:0:0:0:
448,192,87908,1,0,0:0:0:0:
320,192,87908,1,0,0:0:0:0:
64,192,87908,1,0,0:0:0:0:
192,192,88072,1,0,0:0:0:0:
320,192,88072,1,0,0:0:0:0:
64,192,88235,1,0,0:0:0:0:
192,192,88235,1,0,0:0:0:0:
448,192,88235,1,0,0:0:0:0:
192,192,88399,1,0,0:0:0:0:
448,192,88399,1,0,0:0:0:0:
320,192,88399,1,0,0:0:0:0:
192,192,88563,1,0,0:0:0:0:
448,192,88563,128,0,88727:0:0:0:0:
64,192,88563,1,0,0:0:0:0:
320,192,88727,1,0,0:0:0:0:
64,192,88727,128,0,88891:0:0:0:0:
192,192,88891,128,0,89055:0:0:0:0:
320,192,88891,1,0,0:0:0:0:
320,192,89055,1,0,0:0:0:0:
64,192,89055,1,0,0:0:0:0:
448,192,89055,128,0,89219:0:0:0:0:
64,192,89219,1,0,0:0:0:0:
320,192,89219,1,0,0:0:0:0:
64,192,89383,1,0,0:0:0:0:
192,192,89383,1,0,0:0:0:0:
448,192,89547,1,0,0:0:0:0:
192,192,89547,1,0,0:0:0:0:
192,192,89711,1,0,0:0:0:0:
320,192,89711,1,0,0:0:0:0:
448,192,89793,1,0,0:0:0:0:
64,192,89875,1,0,0:0:0:0:
192,192,89875,1,0,0:0:0:0:
320,192,89875,1,0,0:0:0:0:
64,192,90039,1,0,0:0:0:0:
320,192,90039,1,0,0:0:0:0:
192,192,90039,1,0,0:0:0:0:
448,192,90203,1,0,0:0:0:0:
320,192,90203,1,0,0:0:0:0:
64,192,90367,1,0,0:0:0:0:
320,192,90367,1,0,0:0:0:0:
192,192,90367,1,0,0:0:0:0:
320,192,90531,1,0,0:0:0:0:
192,192,90531,1,0,0:0:0:0:
448,192,90531,1,0,0:0:0:0:
64,192,90694,1,0,0:0:0:0:
320,192,90694,1,0,0:0:0:0:
64,192,90858,1,0,0:0:0:0:
448,192,90858,1,0,0:0:0:0:
320,192,90858,1,0,0:0:0:0:
64,192,91022,1,0,0:0:0:0:
192,192,91022,1,0,0:0:0:0:
320,192,91022,1,0,0:0:0:0:
64,192,91186,1,0,0:0:0:0:
448,192,91186,1,0,0:0:0:0:
192,192,91186,1,0,0:0:0:0:
320,192,91268,1,0,0:0:0:0:
192,192,91350,1,0,0:0:0:0:
64,192,91350,1,0,0:0:0:0:
448,192,91432,1,0,0:0:0:0:
64,192,91514,1,0,0:0:0:0:
320,192,91514,1,0,0:0:0:0:
192,192,91514,1,0,0:0:0:0:
448,192,91596,1,0,0:0:0:0:
64,192,91678,1,0,0:0:0:0:
320,192,91678,1,0,0:0:0:0:
64,192,91842,1,0,0:0:0:0:
448,192,91842,1,0,0:0:0:0:
64,192,92006,1,0,0:0:0:0:
448,192,92006,1,0,0:0:0:0:
64,192,92170,1,0,0:0:0:0:
320,192,92170,1,0,0:0:0:0:
64,192,92334,1,0,0:0:0:0:
320,192,92334,1,0,0:0:0:0:
192,192,92416,1,0,0:0:0:0:
64,192,92498,1,0,0:0:0:0:
448,192,92498,1,0,0:0:0:0:
64,192,92662,1,0,0:0:0:0:
192,192,92662,1,0,0:0:0:0:
64,192,92826,1,0,0:0:0:0:
448,192,92826,1,0,0:0:0:0:
64,192,92990,1,0,0:0:0:0:
192,192,92990,1,0,0:0:0:0:
448,192,93153,1,0,0:0:0:0:
192,192,93153,1,0,0:0:0:0:
448,192,93317,1,0,0:0:0:0:
320,192,93317,1,0,0:0:0:0:
448,192,93481,1,0,0:0:0:0:
192,192,93481,1,0,0:0:0:0:
448,192,93645,1,0,0:0:0:0:
320,192,93645,1,0,0:0:0:0:
192,192,93727,1,0,0:0:0:0:
64,192,93809,1,0,0:0:0:0:
448,192,93809,1,0,0:0:0:0:
448,192,93973,1,0,0:0:0:0:
192,192,93973,1,0,0:0:0:0:
448,192,94137,1,0,0:0:0:0:
320,192,94137,1,0,0:0:0:0:
64,192,94301,1,0,0:0:0:0:
448,192,94301,1,0,0:0:0:0:
192,192,94465,1,0,0:0:0:0:
320,192,94465,1,0,0:0:0:0:
64,192,94629,1,0,0:0:0:0:
320,192,94629,1,0,0:0:0:0:
320,192,94793,1,0,0:0:0:0:
192,192,94793,1,0,0:0:0:0:
448,192,94957,1,0,0:0:0:0:
192,192,94957,1,0,0:0:0:0:
320,192,95039,1,0,0:0:0:0:
64,192,95121,1,0,0:0:0:0:
448,192,95121,1,0,0:0:0:0:
192,192,95285,1,0,0:0:0:0:
448,192,95285,1,0,0:0:0:0:
64,192,95449,1,0,0:0:0:0:
320,192,95449,1,0,0:0:0:0:
64,192,95613,1,0,0:0:0:0:
192,192,95613,1,0,0:0:0:0:
448,192,95776,1,0,0:0:0:0:
192,192,95776,1,0,0:0:0:0:
64,192,95858,1,0,0:0:0:0:
320,192,95940,1,0,0:0:0:0:
448,192,95940,1,0,0:0:0:0:
192,192,95940,1,0,0:0:0:0:
64,192,96104,1,0,0:0:0:0:
320,192,96104,1,0,0:0:0:0:
64,192,96268,1,0,0:0:0:0:
448,192,96268,1,0,0:0:0:0:
320,192,96268,1,0,0:0:0:0:
64,192,96432,1,0,0:0:0:0:
192,192,96432,1,0,0:0:0:0:
320,192,96432,1,0,0:0:0:0:
448,192,96596,1,0,0:0:0:0:
192,192,96596,1,0,0:0:0:0:
64,192,96596,1,0,0:0:0:0:
320,192,96760,1,0,0:0:0:0:
192,192,96760,1,0,0:0:0:0:
448,192,96760,1,0,0:0:0:0:
64,192,96924,128,0,97088:0:0:0:0:
320,192,96924,128,0,97088:0:0:0:0:
448,192,97088,128,0,102006:0:0:0:0:
320,192,100203,128,0,102006:0:0:0:0:
192,192,102006,5,0,0:0:0:0:
64,192,102006,1,0,0:0:0:0:
448,192,102334,128,0,103317:0:0:0:0:
64,192,102334,1,0,0:0:0:0:
320,192,102334,128,0,102826:0:0:0:0:
192,192,102662,128,0,102990:0:0:0:0:
64,192,102990,128,0,103153:0:0:0:0:
192,192,103153,128,0,103317:0:0:0:0:
64,192,103317,128,0,104301:0:0:0:0:
320,192,103317,1,0,0:0:0:0:
64,192,104957,1,0,0:0:0:0:
192,192,104957,128,0,105449:0:0:0:0:
320,192,105285,128,0,105613:0:0:0:0:
448,192,105449,128,0,105776:0:0:0:0:
64,192,105449,128,0,105776:0:0:0:0:
192,192,105776,128,0,106104:0:0:0:0:
64,192,105940,1,0,0:0:0:0:
448,192,105940,128,0,106924:0:0:0:0:
320,192,106596,128,0,106924:0:0:0:0:
64,192,107252,1,0,0:0:0:0:
320,192,107252,128,0,107744:0:0:0:0:
192,192,107252,128,0,107744:0:0:0:0:
64,192,107580,1,0,0:0:0:0:
448,192,107580,128,0,108235:0:0:0:0:
320,192,107908,128,0,108399:0:0:0:0:
64,192,107908,128,0,108399:0:0:0:0:
192,192,108235,128,0,108563:0:0:0:0:
448,192,108563,128,0,109383:0:0:0:0:
64,192,108563,1,0,0:0:0:0:
320,192,108563,128,0,109383:0:0:0:0:
192,192,109219,128,0,109383:0:0:0:0:
64,192,109219,128,0,109383:0:0:0:0:
64,192,109547,128,0,109711:0:0:0:0:
448,192,109547,128,0,109711:0:0:0:0:
192,192,109547,1,0,0:0:0:0:
448,192,109875,128,0,110531:0:0:0:0:
192,192,110203,128,0,110694:0:0:0:0:
64,192,110203,128,0,110694:0:0:0:0:
320,192,110203,1,0,0:0:0:0:
320,192,110531,128,0,111022:0:0:0:0:
448,192,110858,128,0,111514:0:0:0:0:
64,192,111186,128,0,112006:0:0:0:0:
320,192,111186,128,0,112006:0:0:0:0:
192,192,111186,1,0,0:0:0:0:
448,192,111842,128,0,112170:0:0:0:0:
64,192,112170,1,0,0:0:0:0:
192,192,112170,1,0,0:0:0:0:
320,192,112498,128,0,112990:0:0:0:0:
448,192,112826,128,0,113481:0:0:0:0:
64,192,113481,128,0,114301:0:0:0:0:
448,192,113809,1,0,0:0:0:0:
192,192,113809,1,0,0:0:0:0:
448,192,114137,128,0,114957:0:0:0:0:
64,192,114793,128,0,115613:0:0:0:0:
320,192,114793,1,0,0:0:0:0:
320,192,115121,128,0,115449:0:0:0:0:
192,192,115121,1,0,0:0:0:0:
192,192,115449,128,0,116268:0:0:0:0:
448,192,115449,1,0,0:0:0:0:
320,192,116104,128,0,116924:0:0:0:0:
448,192,116432,1,0,0:0:0:0:
64,192,116432,1,0,0:0:0:0:
192,192,116760,128,0,117580:0:0:0:0:
64,192,117088,1,0,0:0:0:0:
448,192,117088,1,0,0:0:0:0:
64,192,117416,1,0,0:0:0:0:
320,192,117416,128,0,118072:0:0:0:0:
64,192,118072,1,0,0:0:0:0:
448,192,118072,128,0,118399:0:0:0:0:
192,192,118072,1,0,0:0:0:0:
64,192,118399,1,0,0:0:0:0:
192,192,118399,128,0,118727:0:0:0:0:
64,192,118727,1,0,0:0:0:0:
320,192,118727,128,0,119055:0:0:0:0:
448,192,118727,1,0,0:0:0:0:
64,192,119055,1,0,0:0:0:0:
448,192,119055,128,0,119219:0:0:0:0:
64,192,119219,128,0,120039:0:0:0:0:
192,192,119383,1,0,0:0:0:0:
448,192,119383,1,0,0:0:0:0:
448,192,119547,1,0,0:0:0:0:
192,192,119711,1,0,0:0:0:0:
448,192,119711,1,0,0:0:0:0:
192,192,119875,1,0,0:0:0:0:
192,192,120039,128,0,120367:0:0:0:0:
448,192,120039,128,0,120367:0:0:0:0:
320,192,120694,128,0,121022:0:0:0:0:
64,192,120694,1,0,0:0:0:0:
448,192,121022,128,0,121350:0:0:0:0:
192,192,121022,1,0,0:0:0:0:
192,192,121350,128,0,121678:0:0:0:0:
64,192,121350,1,0,0:0:0:0:
320,192,121678,128,0,121842:0:0:0:0:
64,192,121678,1,0,0:0:0:0:
448,192,121842,128,0,122662:0:0:0:0:
192,192,122006,1,0,0:0:0:0:
64,192,122006,1,0,0:0:0:0:
64,192,122170,1,0,0:0:0:0:
320,192,122334,1,0,0:0:0:0:
192,192,122334,1,0,0:0:0:0:
320,192,122498,1,0,0:0:0:0:
192,192,122662,128,0,122990:0:0:0:0:
64,192,122662,128,0,122990:0:0:0:0:
320,192,123317,128,0,123645:0:0:0:0:
64,192,123317,1,0,0:0:0:0:
192,192,123645,128,0,123973:0:0:0:0:
448,192,123645,1,0,0:0:0:0:
64,192,123973,1,0,0:0:0:0:
448,192,123973,128,0,124301:0:0:0:0:
64,192,124301,1,0,0:0:0:0:
320,192,124301,128,0,124465:0:0:0:0:
192,192,124465,128,0,125285:0:0:0:0:
448,192,124629,1,0,0:0:0:0:
64,192,124629,1,0,0:0:0:0:
448,192,124793,1,0,0:0:0:0:
64,192,124957,1,0,0:0:0:0:
448,192,124957,1,0,0:0:0:0:
64,192,125121,1,0,0:0:0:0:
448,192,125285,128,0,125613:0:0:0:0:
64,192,125285,128,0,125613:0:0:0:0:
64,192,125940,128,0,126268:0:0:0:0:
320,192,125940,1,0,0:0:0:0:
448,192,126268,128,0,126596:0:0:0:0:
192,192,126268,1,0,0:0:0:0:
192,192,126596,128,0,126924:0:0:0:0:
320,192,126596,1,0,0:0:0:0:
64,192,126924,128,0,127088:0:0:0:0:
448,192,126924,1,0,0:0:0:0:
320,192,127088,128,0,127908:0:0:0:0:
448,192,127252,1,0,0:0:0:0:
192,192,127252,1,0,0:0:0:0:
192,192,127416,1,0,0:0:0:0:
448,192,127580,1,0,0:0:0:0:
64,192,127580,1,0,0:0:0:0:
64,192,127744,1,0,0:0:0:0:
192,192,127908,128,0,128235:0:0:0:0:
448,192,127908,128,0,128235:0:0:0:0:
448,192,128563,128,0,128727:0:0:0:0:
64,192,128563,128,0,128727:0:0:0:0:
192,192,128563,128,0,128727:0:0:0:0:
320,192,128891,128,0,129055:0:0:0:0:
64,192,128891,128,0,129055:0:0:0:0:
192,192,128891,128,0,129055:0:0:0:0:
448,192,129055,1,0,0:0:0:0:
192,192,129219,128,0,129383:0:0:0:0:
64,192,129219,128,0,129383:0:0:0:0:
448,192,129219,128,0,129383:0:0:0:0:
320,192,129547,128,0,129711:0:0:0:0:
64,192,129547,128,0,129711:0:0:0:0:
448,192,129547,128,0,129711:0:0:0:0:
192,192,129875,128,0,130039:0:0:0:0:
320,192,129875,128,0,130039:0:0:0:0:
64,192,129875,128,0,130039:0:0:0:0:
64,192,130203,128,0,130367:0:0:0:0:
192,192,130203,128,0,130367:0:0:0:0:
448,192,130203,128,0,130367:0:0:0:0:
448,192,130531,128,0,130694:0:0:0:0:
320,192,130531,128,0,130694:0:0:0:0:
192,192,130531,128,0,130694:0:0:0:0:
64,192,130531,128,0,130694:0:0:0:0:
192,192,130858,128,0,131022:0:0:0:0:
448,192,130858,128,0,131022:0:0:0:0:
64,192,131022,1,0,0:0:0:0:
320,192,131022,1,0,0:0:0:0:
320,192,131186,128,0,131350:0:0:0:0:
64,192,131186,128,0,131350:0:0:0:0:
448,192,131514,128,0,131678:0:0:0:0:
64,192,131514,128,0,131678:0:0:0:0:
192,192,131514,128,0,131678:0:0:0:0:
320,192,131678,1,0,0:0:0:0:
64,192,131842,128,0,132006:0:0:0:0:
192,192,131842,128,0,132006:0:0:0:0:
320,192,131842,128,0,132006:0:0:0:0:
448,192,132170,128,0,132498:0:0:0:0:
192,192,132170,128,0,132498:0:0:0:0:
320,192,132498,128,0,132662:0:0:0:0:
64,192,132498,128,0,132662:0:0:0:0:
448,192,132826,128,0,132990:0:0:0:0:
320,192,132826,128,0,132990:0:0:0:0:
192,192,132826,128,0,132990:0:0:0:0:
448,192,133153,128,0,133317:0:0:0:0:
64,192,133153,128,0,133317:0:0:0:0:
192,192,133153,128,0,133317:0:0:0:0:
320,192,133481,128,0,133645:0:0:0:0:
192,192,133645,128,0,133809:0:0:0:0:
64,192,133809,1,0,0:0:0:0:
448,192,133809,1,0,0:0:0:0:
320,192,133809,1,0,0:0:0:0:
448,192,133973,1,0,0:0:0:0:
192,192,134137,1,0,0:0:0:0:
320,192,134137,1,0,0:0:0:0:
64,192,134137,1,0,0:0:0:0:
64,192,134301,1,0,0:0:0:0:
192,192,134465,1,0,0:0:0:0:
448,192,134465,1,0,0:0:0:0:
320,192,134465,1,0,0:0:0:0:
448,192,134629,1,0,0:0:0:0:
64,192,134793,1,0,0:0:0:0:
448,192,134793,1,0,0:0:0:0:
192,192,134793,1,0,0:0:0:0:
64,192,134957,1,0,0:0:0:0:
448,192,135121,1,0,0:0:0:0:
320,192,135121,1,0,0:0:0:0:
192,192,135121,1,0,0:0:0:0:
448,192,135285,1,0,0:0:0:0:
64,192,135449,1,0,0:0:0:0:
192,192,135449,1,0,0:0:0:0:
320,192,135449,1,0,0:0:0:0:
64,192,135613,1,0,0:0:0:0:
320,192,135776,1,0,0:0:0:0:
448,192,135776,1,0,0:0:0:0:
192,192,135776,1,0,0:0:0:0:
448,192,135940,1,0,0:0:0:0:
64,192,136104,1,0,0:0:0:0:
192,192,136104,1,0,0:0:0:0:
320,192,136104,1,0,0:0:0:0:
192,192,136432,128,0,137088:0:0:0:0:
320,192,136760,128,0,137416:0:0:0:0:
64,192,137088,128,0,137744:0:0:0:0:
448,192,137416,128,0,138399:0:0:0:0:
320,192,138072,128,0,138399:0:0:0:0:
192,192,138399,1,0,0:0:0:0:
64,192,138399,1,0,0:0:0:0:
448,192,138563,1,0,0:0:0:0:
192,192,138727,1,0,0:0:0:0:
64,192,138727,1,0,0:0:0:0:
448,192,138727,1,0,0:0:0:0:
448,192,138891,1,0,0:0:0:0:
192,192,138891,1,0,0:0:0:0:
64,192,139055,128,0,139711:0:0:0:0:
448,192,139055,128,0,139219:0:0:0:0:
192,192,139547,1,0,0:0:0:0:
448,192,139547,1,0,0:0:0:0:
320,192,139711,1,0,0:0:0:0:
448,192,139711,128,0,139875:0:0:0:0:
64,192,139875,1,0,0:0:0:0:
320,192,139875,128,0,140039:0:0:0:0:
64,192,140039,128,0,140694:0:0:0:0:
448,192,140039,128,0,140203:0:0:0:0:
448,192,140694,128,0,141350:0:0:0:0:
192,192,140694,128,0,140858:0:0:0:0:
64,192,140858,128,0,141022:0:0:0:0:
320,192,140858,1,0,0:0:0:0:
320,192,141186,128,0,141514:0:0:0:0:
192,192,141186,1,0,0:0:0:0:
192,192,141514,1,0,0:0:0:0:
64,192,141514,128,0,141678:0:0:0:0:
192,192,141678,128,0,141842:0:0:0:0:
448,192,141678,128,0,142662:0:0:0:0:
320,192,142334,1,0,0:0:0:0:
64,192,142334,1,0,0:0:0:0:
320,192,142498,1,0,0:0:0:0:
192,192,142498,1,0,0:0:0:0:
64,192,142662,128,0,142990:0:0:0:0:
320,192,142662,128,0,142826:0:0:0:0:
448,192,142826,128,0,143481:0:0:0:0:
192,192,142826,128,0,142990:0:0:0:0:
320,192,143317,1,0,0:0:0:0:
64,192,143317,1,0,0:0:0:0:
320,192,143481,1,0,0:0:0:0:
192,192,143481,1,0,0:0:0:0:
64,192,143645,1,0,0:0:0:0:
448,192,143645,1,0,0:0:0:0:
320,192,143645,1,0,0:0:0:0:
192,192,143727,1,0,0:0:0:0:
64,192,143809,1,0,0:0:0:0:
320,192,143809,1,0,0:0:0:0:
448,192,143973,1,0,0:0:0:0:
192,192,143973,1,0,0:0:0:0:
64,192,143973,1,0,0:0:0:0:
320,192,144055,1,0,0:0:0:0:
64,192,144137,1,0,0:0:0:0:
448,192,144137,1,0,0:0:0:0:
192,192,144301,128,0,144957:0:0:0:0:
64,192,144301,128,0,144465:0:0:0:0:
448,192,144793,1,0,0:0:0:0:
64,192,144793,128,0,144957:0:0:0:0:
320,192,144957,1,0,0:0:0:0:
448,192,144957,128,0,145121:0:0:0:0:
64,192,145121,128,0,145285:0:0:0:0:
320,192,145121,1,0,0:0:0:0:
192,192,145285,128,0,145449:0:0:0:0:
448,192,145285,128,0,145776:0:0:0:0:
320,192,145940,1,0,0:0:0:0:
64,192,145940,1,0,0:0:0:0:
192,192,145940,1,0,0:0:0:0:
448,192,146022,1,0,0:0:0:0:
64,192,146104,1,0,0:0:0:0:
320,192,146104,1,0,0:0:0:0:
320,192,146268,128,0,146432:0:0:0:0:
64,192,146268,128,0,146432:0:0:0:0:
448,192,146432,128,0,146760:0:0:0:0:
192,192,146432,128,0,146760:0:0:0:0:
64,192,146924,128,0,148235:0:0:0:0:
448,192,147252,1,0,0:0:0:0:
192,192,147252,1,0,0:0:0:0:
320,192,147416,1,0,0:0:0:0:
192,192,147416,1,0,0:0:0:0:
448,192,147580,1,0,0:0:0:0:
320,192,147580,1,0,0:0:0:0:
192,192,147908,1,0,0:0:0:0:
448,192,147908,1,0,0:0:0:0:
320,192,148072,1,0,0:0:0:0:
448,192,148072,1,0,0:0:0:0:
192,192,148235,128,0,148563:0:0:0:0:
448,192,148235,1,0,0:0:0:0:
320,192,148563,1,0,0:0:0:0:
64,192,148563,1,0,0:0:0:0:
448,192,148645,1,0,0:0:0:0:
64,192,148727,1,0,0:0:0:0:
192,192,148727,1,0,0:0:0:0:
448,192,148891,1,0,0:0:0:0:
320,192,148891,1,0,0:0:0:0:
64,192,149055,1,0,0:0:0:0:
192,192,149055,1,0,0:0:0:0:
448,192,149219,1,0,0:0:0:0:
192,192,149219,1,0,0:0:0:0:
64,192,149547,128,0,150039:0:0:0:0:
192,192,149547,128,0,149711:0:0:0:0:
448,192,150203,128,0,150694:0:0:0:0:
320,192,150203,1,0,0:0:0:0:
192,192,150531,128,0,151022:0:0:0:0:
64,192,150531,128,0,151022:0:0:0:0:
320,192,150858,128,0,151186:0:0:0:0:
448,192,150858,1,0,0:0:0:0:
64,192,151186,128,0,151842:0:0:0:0:
448,192,151186,128,0,151514:0:0:0:0:
192,192,151186,128,0,151842:0:0:0:0:
448,192,151842,128,0,152498:0:0:0:0:
320,192,151842,1,0,0:0:0:0:
64,192,152006,128,0,152170:0:0:0:0:
192,192,152006,128,0,152170:0:0:0:0:
320,192,152170,128,0,152498:0:0:0:0:
64,192,152662,1,0,0:0:0:0:
192,192,152662,1,0,0:0:0:0:
192,192,152826,1,0,0:0:0:0:
448,192,152826,128,0,153317:0:0:0:0:
192,192,153153,128,0,153481:0:0:0:0:
64,192,153153,128,0,153645:0:0:0:0:
320,192,153481,128,0,153973:0:0:0:0:
448,192,153481,1,0,0:0:0:0:
448,192,153809,128,0,153973:0:0:0:0:
64,192,153809,1,0,0:0:0:0:
64,192,154137,1,0,0:0:0:0:
320,192,154137,1,0,0:0:0:0:
448,192,154219,1,0,0:0:0:0:
64,192,154301,1,0,0:0:0:0:
320,192,154301,1,0,0:0:0:0:
192,192,154301,1,0,0:0:0:0:
448,192,154383,1,0,0:0:0:0:
320,192,154465,1,0,0:0:0:0:
64,192,154465,1,0,0:0:0:0:
192,192,154547,1,0,0:0:0:0:
448,192,154629,1,0,0:0:0:0:
320,192,154629,1,0,0:0:0:0:
64,192,154629,1,0,0:0:0:0:
448,192,154793,128,0,155449:0:0:0:0:
192,192,154793,128,0,154957:0:0:0:0:
320,192,155285,1,0,0:0:0:0:
64,192,155285,1,0,0:0:0:0:
64,192,155449,128,0,155776:0:0:0:0:
320,192,155449,128,0,155613:0:0:0:0:
448,192,155613,128,0,155940:0:0:0:0:
192,192,155613,128,0,155776:0:0:0:0:
320,192,155776,128,0,156432:0:0:0:0:
64,192,156268,128,0,156432:0:0:0:0:
192,192,156268,128,0,156432:0:0:0:0:
448,192,156432,128,0,157088:0:0:0:0:
64,192,156596,128,0,156924:0:0:0:0:
320,192,156596,128,0,156760:0:0:0:0:
320,192,156924,128,0,157252:0:0:0:0:
192,192,156924,128,0,157088:0:0:0:0:
192,192,157252,1,0,0:0:0:0:
64,192,157252,1,0,0:0:0:0:
448,192,157416,128,0,159055:0:0:0:0:
64,192,157744,1,0,0:0:0:0:
64,192,157908,1,0,0:0:0:0:
192,192,157908,1,0,0:0:0:0:
64,192,158072,1,0,0:0:0:0:
192,192,158072,1,0,0:0:0:0:
192,192,158399,1,0,0:0:0:0:
64,192,158563,1,0,0:0:0:0:
192,192,158727,1,0,0:0:0:0:
320,192,158727,128,0,159055:0:0:0:0:
64,192,159055,1,0,0:0:0:0:
192,192,159055,1,0,0:0:0:0:
448,192,159137,1,0,0:0:0:0:
64,192,159219,1,0,0:0:0:0:
320,192,159219,1,0,0:0:0:0:
192,192,159301,1,0,0:0:0:0:
64,192,159383,1,0,0:0:0:0:
448,192,159383,1,0,0:0:0:0:
320,192,159383,1,0,0:0:0:0:
64,192,160039,128,0,160367:0:0:0:0:
320,192,160039,128,0,160367:0:0:0:0:
448,192,160039,128,0,160367:0:0:0:0:
64,192,160531,1,0,0:0:0:0:
320,192,160531,1,0,0:0:0:0:
192,192,160531,1,0,0:0:0:0:
448,192,160694,1,0,0:0:0:0:
64,192,160694,1,0,0:0:0:0:
192,192,160694,1,0,0:0:0:0:
64,192,160858,1,0,0:0:0:0:
320,192,160858,1,0,0:0:0:0:
448,192,160858,128,0,161186:0:0:0:0:
192,192,161022,1,0,0:0:0:0:
64,192,161022,1,0,0:0:0:0:
320,192,161186,1,0,0:0:0:0:
64,192,161186,128,0,161678:0:0:0:0:
320,192,161678,128,0,162006:0:0:0:0:
192,192,161678,1,0,0:0:0:0:
448,192,161678,1,0,0:0:0:0:
192,192,161842,1,0,0:0:0:0:
64,192,161842,1,0,0:0:0:0:
448,192,161842,1,0,0:0:0:0:
64,192,162170,1,0,0:0:0:0:
192,192,162170,1,0,0:0:0:0:
448,192,162170,1,0,0:0:0:0:
320,192,162334,128,0,162662:0:0:0:0:
192,192,162498,1,0,0:0:0:0:
64,192,162498,1,0,0:0:0:0:
448,192,162662,128,0,163153:0:0:0:0:
64,192,162662,128,0,162826:0:0:0:0:
64,192,163153,1,0,0:0:0:0:
192,192,163153,1,0,0:0:0:0:
64,192,163317,1,0,0:0:0:0:
448,192,163317,128,0,163481:0:0:0:0:
320,192,163317,1,0,0:0:0:0:
64,192,163481,1,0,0:0:0:0:
192,192,163481,1,0,0:0:0:0:
448,192,163645,1,0,0:0:0:0:
320,192,163645,1,0,0:0:0:0:
64,192,163645,128,0,163809:0:0:0:0:
192,192,163809,1,0,0:0:0:0:
448,192,163809,128,0,163973:0:0:0:0:
448,192,164137,1,0,0:0:0:0:
192,192,164137,1,0,0:0:0:0:
64,192,164301,128,0,164629:0:0:0:0:
320,192,164301,1,0,0:0:0:0:
448,192,164465,1,0,0:0:0:0:
192,192,164465,1,0,0:0:0:0:
448,192,164629,1,0,0:0:0:0:
192,192,164629,1,0,0:0:0:0:
320,192,164711,1,0,0:0:0:0:
64,192,164793,1,0,0:0:0:0:
192,192,164793,1,0,0:0:0:0:
448,192,164793,1,0,0:0:0:0:
320,192,164875,1,0,0:0:0:0:
64,192,164957,1,0,0:0:0:0:
192,192,164957,1,0,0:0:0:0:
448,192,164957,1,0,0:0:0:0:
320,192,165039,1,0,0:0:0:0:
64,192,165121,1,0,0:0:0:0:
448,192,165121,1,0,0:0:0:0:
192,192,165121,1,0,0:0:0:0:
64,192,165285,128,0,165940:0:0:0:0:
448,192,165285,128,0,165449:0:0:0:0:
192,192,165776,128,0,165940:0:0:0:0:
320,192,165776,1,0,0:0:0:0:
448,192,165940,128,0,166104:0:0:0:0:
320,192,165940,1,0,0:0:0:0:
64,192,166104,128,0,166268:0:0:0:0:
320,192,166104,1,0,0:0:0:0:
448,192,166268,128,0,166432:0:0:0:0:
192,192,166268,1,0,0:0:0:0:
320,192,166268,1,0,0:0:0:0:
64,192,166432,128,0,166760:0:0:0:0:
320,192,166432,128,0,166760:0:0:0:0:
448,192,166760,128,0,166924:0:0:0:0:
192,192,166760,1,0,0:0:0:0:
64,192,166924,128,0,167252:0:0:0:0:
320,192,166924,1,0,0:0:0:0:
320,192,167088,1,0,0:0:0:0:
192,192,167088,1,0,0:0:0:0:
320,192,167416,128,0,167744:0:0:0:0:
64,192,167416,128,0,167744:0:0:0:0:
192,192,167744,1,0,0:0:0:0:
448,192,167744,1,0,0:0:0:0:
64,192,167908,128,0,169383:0:0:0:0:
320,192,167908,128,0,169383:0:0:0:0:
192,192,169219,128,0,169383:0:0:0:0:
448,192,169219,128,0,169383:0:0:0:0:
448,192,169547,1,0,0:0:0:0:
64,192,169547,1,0,0:0:0:0:
192,192,169547,1,0,0:0:0:0:
320,192,169629,1,0,0:0:0:0:
192,192,169711,5,0,0:0:0:0:
320,192,169711,1,0,0:0:0:0:
64,192,169711,1,0,0:0:0:0:
448,192,169793,1,0,0:0:0:0:
64,192,169875,1,0,0:0:0:0:
448,192,169875,1,0,0:0:0:0:
192,192,169957,1,0,0:0:0:0:
64,192,170039,1,0,0:0:0:0:
320,192,170039,1,0,0:0:0:0:
448,192,170039,1,0,0:0:0:0:
64,192,170203,1,0,0:0:0:0:
192,192,170203,1,0,0:0:0:0:
448,192,170367,1,0,0:0:0:0:
192,192,170367,1,0,0:0:0:0:
64,192,170531,5,0,0:0:0:0:
192,192,170531,1,0,0:0:0:0:
448,192,170694,1,0,0:0:0:0:
64,192,170694,1,0,0:0:0:0:
448,192,170858,1,0,0:0:0:0:
320,192,170858,1,0,0:0:0:0:
64,192,171022,1,0,0:0:0:0:
320,192,171022,1,0,0:0:0:0:
448,192,171104,1,0,0:0:0:0:
192,192,171186,1,0,0:0:0:0:
320,192,171186,1,0,0:0:0:0:
64,192,171186,1,0,0:0:0:0:
64,192,171350,1,0,0:0:0:0:
448,192,171350,1,0,0:0:0:0:
192,192,171350,1,0,0:0:0:0:
64,192,171514,1,0,0:0:0:0:
320,192,171514,1,0,0:0:0:0:
448,192,171514,1,0,0:0:0:0:
64,192,171678,1,0,0:0:0:0:
192,192,171678,1,0,0:0:0:0:
320,192,171678,1,0,0:0:0:0:
64,192,171842,1,0,0:0:0:0:
448,192,171842,1,0,0:0:0:0:
320,192,171842,1,0,0:0:0:0:
64,192,172006,1,0,0:0:0:0:
192,192,172006,1,0,0:0:0:0:
320,192,172006,1,0,0:0:0:0:
64,192,172170,1,0,0:0:0:0:
448,192,172170,1,0,0:0:0:0:
192,192,172170,1,0,0:0:0:0:
64,192,172334,1,0,0:0:0:0:
192,192,172334,1,0,0:0:0:0:
320,192,172334,1,0,0:0:0:0:
192,192,172498,1,0,0:0:0:0:
448,192,172498,128,0,172662:0:0:0:0:
64,192,172662,1,0,0:0:0:0:
320,192,172662,128,0,172826:0:0:0:0:
64,192,172826,1,0,0:0:0:0:
448,192,172826,128,0,172990:0:0:0:0:
64,192,172990,1,0,0:0:0:0:
192,192,172990,128,0,173153:0:0:0:0:
320,192,173153,1,0,0:0:0:0:
448,192,173153,1,0,0:0:0:0:
320,192,173317,1,0,0:0:0:0:
64,192,173317,1,0,0:0:0:0:
192,192,173481,1,0,0:0:0:0:
64,192,173481,1,0,0:0:0:0:
64,192,173645,1,0,0:0:0:0:
320,192,173645,1,0,0:0:0:0:
448,192,173727,1,0,0:0:0:0:
320,192,173809,1,0,0:0:0:0:
192,192,173809,1,0,0:0:0:0:
64,192,173809,1,0,0:0:0:0:
448,192,173973,1,0,0:0:0:0:
320,192,173973,1,0,0:0:0:0:
192,192,173973,1,0,0:0:0:0:
64,192,174137,1,0,0:0:0:0:
192,192,174137,1,0,0:0:0:0:
448,192,174137,1,0,0:0:0:0:
448,192,174301,1,0,0:0:0:0:
320,192,174301,1,0,0:0:0:0:
64,192,174301,1,0,0:0:0:0:
192,192,174465,1,0,0:0:0:0:
64,192,174465,1,0,0:0:0:0:
448,192,174465,1,0,0:0:0:0:
320,192,174629,1,0,0:0:0:0:
192,192,174629,1,0,0:0:0:0:
64,192,174629,1,0,0:0:0:0:
448,192,174793,1,0,0:0:0:0:
320,192,174793,1,0,0:0:0:0:
64,192,174793,1,0,0:0:0:0:
192,192,174957,1,0,0:0:0:0:
320,192,174957,1,0,0:0:0:0:
448,192,174957,1,0,0:0:0:0:
64,192,175121,1,0,0:0:0:0:
320,192,175121,1,0,0:0:0:0:
448,192,175121,1,0,0:0:0:0:
192,192,175203,1,0,0:0:0:0:
448,192,175285,1,0,0:0:0:0:
320,192,175285,1,0,0:0:0:0:
192,192,175367,1,0,0:0:0:0:
64,192,175449,1,0,0:0:0:0:
320,192,175449,1,0,0:0:0:0:
448,192,175449,1,0,0:0:0:0:
192,192,175531,1,0,0:0:0:0:
64,192,175613,1,0,0:0:0:0:
448,192,175613,1,0,0:0:0:0:
64,192,175776,128,0,175940:0:0:0:0:
192,192,175776,1,0,0:0:0:0:
320,192,175940,128,0,176104:0:0:0:0:
192,192,175940,1,0,0:0:0:0:
448,192,176104,128,0,176268:0:0:0:0:
64,192,176104,1,0,0:0:0:0:
192,192,176268,1,0,0:0:0:0:
64,192,176268,128,0,176432:0:0:0:0:
320,192,176432,128,0,176596:0:0:0:0:
192,192,176432,1,0,0:0:0:0:
448,192,176596,128,0,176760:0:0:0:0:
64,192,176596,1,0,0:0:0:0:
320,192,176760,1,0,0:0:0:0:
192,192,176760,128,0,176924:0:0:0:0:
64,192,176924,128,0,177088:0:0:0:0:
320,192,176924,1,0,0:0:0:0:
448,192,177088,1,0,0:0:0:0:
192,192,177088,1,0,0:0:0:0:
320,192,177252,1,0,0:0:0:0:
192,192,177252,1,0,0:0:0:0:
448,192,177416,128,0,177580:0:0:0:0:
320,192,177416,1,0,0:0:0:0:
192,192,177580,128,0,177744:0:0:0:0:
64,192,177580,1,0,0:0:0:0:
64,192,177744,128,0,177908:0:0:0:0:
448,192,177744,1,0,0:0:0:0:
192,192,177908,1,0,0:0:0:0:
448,192,177908,1,0,0:0:0:0:
192,192,178072,128,0,178235:0:0:0:0:
320,192,178072,1,0,0:0:0:0:
320,192,178235,128,0,178399:0:0:0:0:
64,192,178235,1,0,0:0:0:0:
448,192,178399,128,0,178727:0:0:0:0:
192,192,178399,1,0,0:0:0:0:
64,192,178399,1,0,0:0:0:0:
320,192,178727,128,0,179055:0:0:0:0:
64,192,178727,1,0,0:0:0:0:
192,192,178727,1,0,0:0:0:0:
192,192,179055,128,0,179383:0:0:0:0:
448,192,179055,1,0,0:0:0:0:
64,192,179055,1,0,0:0:0:0:
64,192,179383,128,0,180039:0:0:0:0:
320,192,179383,1,0,0:0:0:0:
448,192,179383,1,0,0:0:0:0:
192,192,179711,1,0,0:0:0:0:
320,192,179711,1,0,0:0:0:0:
448,192,179711,1,0,0:0:0:0:
448,192,180039,1,0,0:0:0:0:
320,192,180039,1,0,0:0:0:0:
192,192,180121,1,0,0:0:0:0:
448,192,180203,5,0,0:0:0:0:
320,192,180203,1,0,0:0:0:0:
64,192,180203,1,0,0:0:0:0:
192,192,180285,1,0,0:0:0:0:
64,192,180367,128,0,180694:0:0:0:0:
320,192,180367,128,0,180694:0:0:0:0:
448,192,180367,128,0,180694:0:0:0:0:
64,192,181022,5,0,0:0:0:0:
320,192,181022,1,0,0:0:0:0:
192,192,181022,1,0,0:0:0:0:
448,192,181022,1,0,0:0:0:0:
64,192,181186,1,0,0:0:0:0:
448,192,181186,1,0,0:0:0:0:
320,192,181186,1,0,0:0:0:0:
64,192,181350,1,0,0:0:0:0:
448,192,181350,1,0,0:0:0:0:
192,192,181350,1,0,0:0:0:0:
192,192,181514,1,0,0:0:0:0:
320,192,181514,1,0,0:0:0:0:
64,192,181514,1,0,0:0:0:0:
64,192,181678,1,0,0:0:0:0:
448,192,181678,1,0,0:0:0:0:
320,192,181678,1,0,0:0:0:0:
192,192,181678,1,0,0:0:0:0:
64,192,181842,1,0,0:0:0:0:
192,192,181842,1,0,0:0:0:0:
320,192,181842,1,0,0:0:0:0:
448,192,181842,1,0,0:0:0:0:
64,192,182006,1,0,0:0:0:0:
448,192,182006,1,0,0:0:0:0:
320,192,182006,1,0,0:0:0:0:
64,192,182170,1,0,0:0:0:0:
192,192,182170,1,0,0:0:0:0:
320,192,182170,1,0,0:0:0:0:
64,192,182334,1,0,0:0:0:0:
448,192,182334,1,0,0:0:0:0:
320,192,182334,1,0,0:0:0:0:
64,192,182498,1,0,0:0:0:0:
192,192,182498,1,0,0:0:0:0:
320,192,182498,1,0,0:0:0:0:
64,192,182662,1,0,0:0:0:0:
448,192,182662,1,0,0:0:0:0:
320,192,182662,1,0,0:0:0:0:
192,192,182662,1,0,0:0:0:0:
64,192,182826,1,0,0:0:0:0:
192,192,182826,1,0,0:0:0:0:
320,192,182826,1,0,0:0:0:0:
448,192,182826,1,0,0:0:0:0:
64,192,182990,1,0,0:0:0:0:
192,192,182990,1,0,0:0:0:0:
64,192,183153,1,0,0:0:0:0:
448,192,183153,1,0,0:0:0:0:
320,192,183153,1,0,0:0:0:0:
448,192,183317,1,0,0:0:0:0:
192,192,183317,1,0,0:0:0:0:
64,192,183481,1,0,0:0:0:0:
320,192,183481,1,0,0:0:0:0:
192,192,183481,1,0,0:0:0:0:
64,192,183645,1,0,0:0:0:0:
448,192,183645,1,0,0:0:0:0:
320,192,183645,1,0,0:0:0:0:
192,192,183645,1,0,0:0:0:0:
448,192,183809,1,0,0:0:0:0:
320,192,183809,1,0,0:0:0:0:
64,192,183809,1,0,0:0:0:0:
192,192,183973,1,0,0:0:0:0:
320,192,183973,1,0,0:0:0:0:
448,192,183973,1,0,0:0:0:0:
320,192,184137,1,0,0:0:0:0:
64,192,184137,1,0,0:0:0:0:
448,192,184137,1,0,0:0:0:0:
64,192,184301,1,0,0:0:0:0:
192,192,184301,1,0,0:0:0:0:
320,192,184301,1,0,0:0:0:0:
448,192,184301,1,0,0:0:0:0:
64,192,184465,1,0,0:0:0:0:
448,192,184465,1,0,0:0:0:0:
320,192,184465,1,0,0:0:0:0:
192,192,184465,1,0,0:0:0:0:
448,192,184629,1,0,0:0:0:0:
192,192,184629,1,0,0:0:0:0:
320,192,184629,1,0,0:0:0:0:
64,192,184793,1,0,0:0:0:0:
320,192,184793,1,0,0:0:0:0:
192,192,184793,1,0,0:0:0:0:
64,192,184957,1,0,0:0:0:0:
448,192,184957,1,0,0:0:0:0:
320,192,184957,1,0,0:0:0:0:
448,192,185121,1,0,0:0:0:0:
192,192,185121,1,0,0:0:0:0:
64,192,185121,1,0,0:0:0:0:
448,192,185285,1,0,0:0:0:0:
320,192,185285,1,0,0:0:0:0:
64,192,185285,1,0,0:0:0:0:
192,192,185285,1,0,0:0:0:0:
64,192,185449,1,0,0:0:0:0:
192,192,185449,1,0,0:0:0:0:
448,192,185449,1,0,0:0:0:0:
320,192,185449,1,0,0:0:0:0:
448,192,185613,1,0,0:0:0:0:
192,192,185613,1,0,0:0:0:0:
64,192,185613,1,0,0:0:0:0:
320,192,185694,1,0,0:0:0:0:
64,192,185776,1,0,0:0:0:0:
192,192,185776,1,0,0:0:0:0:
320,192,185858,1,0,0:0:0:0:
64,192,185940,1,0,0:0:0:0:
192,192,185940,1,0,0:0:0:0:
448,192,185940,1,0,0:0:0:0:
320,192,186022,1,0,0:0:0:0:
64,192,186104,1,0,0:0:0:0:
448,192,186104,1,0,0:0:0:0:
64,192,186268,1,0,0:0:0:0:
320,192,186268,1,0,0:0:0:0:
192,192,186268,1,0,0:0:0:0:
64,192,186432,1,0,0:0:0:0:
448,192,186432,1,0,0:0:0:0:
320,192,186432,1,0,0:0:0:0:
192,192,186596,1,0,0:0:0:0:
320,192,186596,1,0,0:0:0:0:
448,192,186596,1,0,0:0:0:0:
64,192,186760,1,0,0:0:0:0:
320,192,186760,1,0,0:0:0:0:
192,192,186760,1,0,0:0:0:0:
64,192,186924,1,0,0:0:0:0:
320,192,186924,1,0,0:0:0:0:
448,192,186924,1,0,0:0:0:0:
64,192,187088,1,0,0:0:0:0:
320,192,187088,1,0,0:0:0:0:
192,192,187252,1,0,0:0:0:0:
448,192,187252,1,0,0:0:0:0:
320,192,187252,1,0,0:0:0:0:
192,192,187416,1,0,0:0:0:0:
320,192,187416,1,0,0:0:0:0:
192,192,187580,1,0,0:0:0:0:
64,192,187580,1,0,0:0:0:0:
448,192,187580,1,0,0:0:0:0:
320,192,187580,1,0,0:0:0:0:
192,192,187744,1,0,0:0:0:0:
320,192,187744,1,0,0:0:0:0:
448,192,187744,1,0,0:0:0:0:
448,192,187908,1,0,0:0:0:0:
320,192,187908,1,0,0:0:0:0:
64,192,187908,1,0,0:0:0:0:
192,192,187908,1,0,0:0:0:0:
64,192,188072,1,0,0:0:0:0:
320,192,188072,1,0,0:0:0:0:
448,192,188072,1,0,0:0:0:0:
448,192,188235,1,0,0:0:0:0:
192,192,188235,1,0,0:0:0:0:
64,192,188235,1,0,0:0:0:0:
320,192,188235,1,0,0:0:0:0:
64,192,188399,1,0,0:0:0:0:
320,192,188399,1,0,0:0:0:0:
192,192,188399,1,0,0:0:0:0:
320,192,188563,1,0,0:0:0:0:
64,192,188563,1,0,0:0:0:0:
320,192,188727,1,0,0:0:0:0:
448,192,188727,1,0,0:0:0:0:
192,192,188891,1,0,0:0:0:0:
64,192,188891,1,0,0:0:0:0:
448,192,188891,1,0,0:0:0:0:
448,192,189055,1,0,0:0:0:0:
192,192,189055,1,0,0:0:0:0:
64,192,189219,1,0,0:0:0:0:
448,192,189219,1,0,0:0:0:0:
320,192,189219,1,0,0:0:0:0:
192,192,189383,1,0,0:0:0:0:
320,192,189383,1,0,0:0:0:0:
64,192,189547,1,0,0:0:0:0:
448,192,189547,1,0,0:0:0:0:
320,192,189547,1,0,0:0:0:0:
192,192,189547,1,0,0:0:0:0:
320,192,189711,1,0,0:0:0:0:
64,192,189711,1,0,0:0:0:0:
448,192,189711,1,0,0:0:0:0:
64,192,189875,1,0,0:0:0:0:
192,192,189875,1,0,0:0:0:0:
320,192,189875,1,0,0:0:0:0:
448,192,189875,1,0,0:0:0:0:
64,192,190039,1,0,0:0:0:0:
192,192,190039,1,0,0:0:0:0:
448,192,190039,1,0,0:0:0:0:
64,192,190203,1,0,0:0:0:0:
192,192,190203,1,0,0:0:0:0:
320,192,190203,1,0,0:0:0:0:
448,192,190203,1,0,0:0:0:0:
320,192,190367,1,0,0:0:0:0:
448,192,190367,1,0,0:0:0:0:
192,192,190449,1,0,0:0:0:0:
64,192,190531,1,0,0:0:0:0:
320,192,190531,1,0,0:0:0:0:
448,192,190613,1,0,0:0:0:0:
64,192,190694,1,0,0:0:0:0:
192,192,190694,1,0,0:0:0:0:
320,192,190776,1,0,0:0:0:0:
64,192,190858,1,0,0:0:0:0:
448,192,190858,1,0,0:0:0:0:
