osu file format v14

[General]
AudioFilename: audio.mp3
AudioLeadIn: 0
PreviewTime: -1
Countdown: 1
SampleSet: None
StackLeniency: 0.7
Mode: 0
LetterboxInBreaks: 0
WidescreenStoryboard: 0

[Editor]
DistanceSpacing: 0.8
BeatDivisor: 4
GridSize: 4
TimelineZoom: 1

[Metadata]
Title:Polyhymnia
TitleUnicode:Polyhymnia
Artist:McMillan
ArtistUnicode:McMillan
Creator:FadePLAY
Version:Insane
Source:
Tags:
BeatmapID:1489585
BeatmapSetID:704138

[Difficulty]
HPDrainRate:7
CircleSize:6
OverallDifficulty:8
ApproachRate:7
SliderMultiplier:1.4
SliderTickRate:1

[Events]
//Background and Video events
//Break Periods
//Storyboard Layer 0 (Background)
//Storyboard Layer 1 (Fail)
//Storyboard Layer 2 (Pass)
//Storyboard Layer 3 (Foreground)
//Storyboard Sound Samples

[TimingPoints]
493.479927007299,437.956204379562,4,1,0,100,1,0
30304.2583586626,182.370820668693,4,1,0,100,1,0

[HitObjects]
256,192,712,5,0,0:0:0:0:
256,192,2267,1,0,0:0:0:0:
126,116,3668,2,0,P|186:54|225:83,1,140
236,84,4216,1,0,0:0:0:0:
256,104,4325,1,0,0:0:0:0:
268,128,4435,1,0,0:0:0:0:
276,152,4544,1,0,0:0:0:0:
280,180,4654,1,0,0:0:0:0:
276,208,4763,1,0,0:0:0:0:
281,231,4873,2,0,L|314:280,1,35
323,272,5092,2,0,L|373:260,1,35
376,265,5310,1,0,0:0:0:0:
396,280,5420,1,0,0:0:0:0:
396,280,5529,1,0,0:0:0:0:
384,304,5639,1,0,0:0:0:0:
256,192,5748,12,0,6391,0:0:0:0:
228,208,7281,6,0,P|204:168|160:180,1,70
149,178,7719,1,0,0:0:0:0:
140,203,7829,1,0,0:0:0:0:
144,226,7938,1,0,0:0:0:0:
153,245,8048,1,0,0:0:0:0:
173,263,8157,1,0,0:0:0:0:
201,264,8267,1,0,0:0:0:0:
224,248,8376,1,0,0:0:0:0:
237,223,8486,1,0,0:0:0:0:
261,209,8595,1,0,0:0:0:0:
288,212,8705,1,0,0:0:0:0:
310,222,8814,1,0,0:0:0:0:
318,259,8924,1,0,0:0:0:0:
257,200,9252,1,0,0:0:0:0:
257,200,10785,2,0,P|274:161|316:169,1,70
352,152,11223,2,0,L|376:121,1,35
366,196,11442,2,0,L|412:204,1,35
352,241,11661,2,0,L|371:280,1,35
306,243,11880,2,0,L|293:276,1,35
261,229,12099,2,0,L|226:244,1,35
261,181,12318,2,0,L|221:143,1,35
304,152,12537,2,0,L|299:115,1,35
321,229,12756,1,0,0:0:0:0:
58,48,13194,1,0,0:0:0:0:
411,242,13632,1,0,0:0:0:0:
370,263,14070,2,0,P|310:302|240:288,1,140
65,56,14946,1,0,0:0:0:0:
433,229,15383,1,0,0:0:0:0:
416,211,15821,2,0,P|349:162|285:202,1,140
294,192,16697,2,0,P|252:251|190:230,1,140
188,222,17573,2,0,P|191:153|253:153,1,140
405,316,18449,1,0,0:0:0:0:
403,151,18887,1,0,0:0:0:0:
94,141,19654,1,0,0:0:0:0:
197,84,19873,1,0,0:0:0:0:
294,145,20092,1,0,0:0:0:0:
406,80,20310,1,0,0:0:0:0:
475,221,20529,1,0,0:0:0:0:
458,231,20748,2,0,P|408:265|404:278,1,70
408,308,21186,1,0,0:0:0:0:
102,88,21515,1,0,0:0:0:0:
192,144,21734,2,0,L|231:138,1,35
248,135,21953,2,0,L|286:130,1,35
302,129,22172,1,0,0:0:0:0:
334,145,22281,2,0,L|368:169,1,35
369,191,22500,2,0,L|354:228,1,35
344,240,22719,1,0,0:0:0:0:
319,254,22829,1,0,0:0:0:0:
295,255,22938,1,0,0:0:0:0:
268,248,23048,1,0,0:0:0:0:
51,201,23157,2,0,L|159:101,1,140
177,121,24033,2,0,L|289:212,1,140
302,216,24909,2,0,L|424:139,1,140
276,288,25785,1,0,0:0:0:0:
153,88,26223,1,0,0:0:0:0:
216,46,26442,1,0,0:0:0:0:
276,89,26661,1,0,0:0:0:0:
252,197,27427,1,0,0:0:0:0:
256,192,28413,8,2,29289,0:0:0:0:
76,263,30165,5,0,0:0:0:0:
449,151,30623,1,0,0:0:0:0:
79,140,30988,2,0,B|90:103|91:94|94:87|97:70|159:166|159:174|165:159|167:154|168:149|168:145|171:144|172:142|174:138|175:136|176:134|177:129|179:125|183:120|185:114|185:112|188:109|191:103|192:102|336:157,2,315
273,177,31991,1,0,0:0:0:0:
225,100,32173,1,0,0:0:0:0:
167,179,32355,1,0,0:0:0:0:
256,192,32903,12,0,33541,0:0:0:0:
160,176,33860,6,0,P|112:136|96:108,1,70
224,148,34088,2,0,P|208:116|208:80,1,70
296,168,34316,2,0,P|324:136|368:120,1,70
256,316,34589,1,0,0:0:0:0:
260,92,34772,1,0,0:0:0:0:
48,268,34954,1,0,0:0:0:0:
256,192,35319,12,0,37051,0:0:0:0:
260,268,37279,6,0,P|340:224|352:180,1,140
124,240,37690,2,0,L|56:44,4,175
216,276,38875,2,0,L|352:276,5,105
256,192,39787,12,0,40608,0:0:0:0:
112,208,41246,6,0,P|216:296|252:300,1,175
256,300,42067,2,0,P|352:268|396:180,1,175
256,192,43161,1,0,0:0:0:0:
132,324,44073,2,0,L|356:104,1,280
96,88,44711,2,0,P|116:128|244:152,1,175
416,100,45167,2,0,P|396:136|264:152,1,175
104,76,45805,1,0,0:0:0:0:
128,92,45942,1,0,0:0:0:0:
152,96,46079,1,0,0:0:0:0:
176,112,46216,1,0,0:0:0:0:
192,128,46352,1,0,0:0:0:0:
216,144,46489,1,0,0:0:0:0:
256,192,46626,12,0,47584,0:0:0:0:
196,124,47811,5,0,0:0:0:0:
304,124,47948,1,0,0:0:0:0:
312,240,48085,1,0,0:0:0:0:
196,240,48222,1,0,0:0:0:0:
256,192,48495,2,0,L|136:108,1,140
128,104,48860,1,0,0:0:0:0:
256,192,49225,12,0,51048,0:0:0:0:
96,76,51459,5,0,0:0:0:0:
256,76,51869,1,0,0:0:0:0:
76,56,52097,1,0,0:0:0:0:
408,168,52325,1,0,0:0:0:0:
160,344,52507,1,0,0:0:0:0:
120,236,52735,2,0,L|56:136,1,105
180,232,53055,2,0,L|264:144,1,105
152,248,53374,1,0,0:0:0:0:
256,192,53647,12,0,54422,0:0:0:0:
60,80,55425,5,0,0:0:0:0:
388,304,56200,1,0,0:0:0:0:
256,28,57067,1,0,0:0:0:0:
256,352,58024,1,0,0:0:0:0:
