osu file format v14

[General]
AudioFilename: skrillfeld (online-audio-converter.com).mp3
AudioLeadIn: 0
PreviewTime: 29740
Countdown: 1
SampleSet: Normal
StackLeniency: 0.7
Mode: 0
LetterboxInBreaks: 1
WidescreenStoryboard: 1

[Editor]
DistanceSpacing: 0.8
BeatDivisor: 4
GridSize: 4
TimelineZoom: 1

[Metadata]
Title:Skrillfeld
TitleUnicode:Skrillfeld
Artist:McMaNGOS
ArtistUnicode:McMaNGOS
Creator:W3SON
Version:Failed Blunt xd
Source:
Tags:Taikuta Anti- Anti-rocks SeemsGood FishMoley
BeatmapID:1052856
BeatmapSetID:287742

[Difficulty]
HPDrainRate:6
CircleSize:4.5
OverallDifficulty:8.4
ApproachRate:9.2
SliderMultiplier:1
SliderTickRate:1

[Events]
//Background and Video events
0,0,"maxresdefault.jpg",0,0
//Break Periods
2,19987,29170
//Storyboard Layer 0 (Background)
//Storyboard Layer 1 (Fail)
//Storyboard Layer 2 (Pass)
//Storyboard Layer 3 (Foreground)
//Storyboard Sound Samples

[TimingPoints]
336,272.047154840172,4,1,1,40,1,0
1696,-66.6666666666667,4,1,0,100,0,0
4688,-50,4,1,0,100,0,0
7001,-100,4,1,0,100,0,0
7953,-25,4,1,0,100,0,0
8225,-66.6666666666667,4,1,0,100,0,0
9041,-37.037037037037,4,1,0,100,0,0
10129,-25,4,1,0,100,0,0
10674,-33.3333333333333,4,1,0,100,0,0
15706,-66.6666666666667,4,1,0,100,0,0
16114,-33.3333333333333,4,1,0,100,0,0
16658,-25,4,1,0,100,0,0
17202,-37.037037037037,4,1,0,100,0,0
17747,-50,4,1,0,100,0,0
18835,-25,4,1,0,100,0,0
29740,272.047154840172,4,1,1,40,1,0
29740,-83.3333333333333,4,1,0,100,0,0
46878,260.869565217391,4,1,1,40,1,0
47399,272.047154840172,4,1,1,40,1,0

[HitObjects]
151,115,608,6,0,B|151:172|211:133|211:133|212:231|269:222|243:155|243:155|257:139|275:147,1,233.333333333333
262,144,1333,2,0,P|266:111|244:66,1,66.6666666666667
368,152,1696,1,0,0:0:0:0:
335,267,1968,1,0,0:0:0:0:
86,256,2240,5,0,0:0:0:0:
220,57,2512,1,0,0:0:0:0:
447,132,2784,5,0,0:0:0:0:
178,266,3056,1,0,0:0:0:0:
464,336,3328,5,0,0:0:0:0:
326,217,3600,5,0,0:0:0:0:
208,194,3736,1,0,0:0:0:0:
365,175,3872,2,0,L|279:146,1,75.0000028610231
104,58,4144,5,0,0:0:0:0:
326,94,4280,1,0,0:0:0:0:
115,173,4416,1,0,0:0:0:0:
342,219,4552,1,0,0:0:0:0:
204,192,4688,6,0,P|241:199|253:232,1,50
204,192,4824,6,0,P|179:220|144:214,1,50
204,192,4960,6,0,P|191:156|214:129,1,50
186,101,5096,6,0,P|198:136|175:163,1,50
151,131,5232,6,0,P|188:138|200:171,1,50
230,116,5368,6,0,P|204:144|170:137,1,50
227,274,5504,1,0,0:0:0:0:
365,148,5776,6,0,L|494:101,2,100
101,205,6185,1,0,0:0:0:0:
349,257,6321,2,0,P|401:292|422:340,3,100
418,323,6865,1,0,0:0:0:0:
418,323,7001,2,0,B|433:268|406:235|452:171,1,150
393,55,7545,5,0,0:0:0:0:
228,168,7681,1,0,0:0:0:0:
422,119,7817,1,0,0:0:0:0:
224,90,7953,6,0,B|267:63|267:63|187:68|187:68|221:42|168:110,1,200
66,213,8225,1,0,0:0:0:0:
203,272,8361,2,0,L|237:362,2,75.0000028610231
203,272,8769,1,0,0:0:0:0:
203,272,8905,1,0,0:0:0:0:
291,112,9041,6,0,L|359:136,1,67.5000002574921
399,165,9177,6,0,L|331:189,1,67.5000002574921
266,183,9313,6,0,L|334:207,1,67.5000002574921
376,232,9449,6,0,L|308:256,1,67.5000002574921
244,260,9585,6,0,L|312:284,1,67.5000002574921
360,291,9721,6,0,P|392:315|342:301,1,135.000000514984
141,227,10129,6,0,B|160:219|160:219|142:246|142:246|125:219|125:219|143:162|143:162|161:219,1,200
314,74,10673,6,0,B|344:30|344:30|393:75|393:75|478:91,1,200
360,133,10945,2,0,B|385:149|385:149|243:163|259:231,1,150.000005722046
164,296,11217,2,0,L|68:292,1,75.0000028610231
89,292,11353,2,0,P|207:323|151:157,1,375.000014305115
145,154,11761,6,0,B|111:189|111:189|91:73,1,150.000005722046
59,147,12034,2,0,B|145:107|145:107|85:86,1,150.000005722046
254,80,12306,5,0,0:0:0:0:
388,241,12442,1,0,0:0:0:0:
182,199,12578,1,0,0:0:0:0:
339,60,12714,1,0,0:0:0:0:
253,251,12850,5,0,0:0:0:0:
420,124,12986,1,0,0:0:0:0:
211,101,13122,1,0,0:0:0:0:
371,235,13258,1,0,0:0:0:0:
167,287,13394,6,0,B|146:267|146:267|182:225|182:225|124:282,3,150.000005722046
91,227,13938,2,0,P|83:151|156:131,1,150.000005722046
134,186,14210,1,0,0:0:0:0:
252,148,14482,5,0,0:0:0:0:
460,126,14618,1,0,0:0:0:0:
268,212,14754,1,0,0:0:0:0:
445,323,14890,1,0,0:0:0:0:
239,279,15026,5,0,0:0:0:0:
442,228,15162,1,0,0:0:0:0:
289,83,15298,1,0,0:0:0:0:
352,283,15434,1,0,0:0:0:0:
145,149,15570,5,0,0:0:0:0:
83,195,15706,2,0,B|116:211|116:211|71:223|71:223|96:246|96:246|65:260|65:260|91:295|128:277,1,187.500007152558
93,281,16114,2,0,B|185:287|185:287|301:254,1,150.000005722046
329,81,16386,2,0,B|296:148|296:148|285:228,1,150.000005722046
170,101,16658,6,0,B|146:99|146:99|190:87|190:87|183:104|183:104|191:116|191:116|163:76|163:76|157:149,1,200,0|0,0:3|0:3,0:3:0:0:
99,213,16930,1,0,0:0:0:0:
281,294,17066,1,0,0:0:0:0:
240,109,17202,2,0,P|346:52|382:83,3,135.000000514984
356,192,17747,6,0,P|319:185|306:152,1,50
356,192,17883,6,0,P|381:163|416:170,1,50
356,192,18019,6,0,P|369:228|346:254,1,50
374,283,18155,6,0,P|362:248|385:221,1,50
409,253,18291,6,0,P|372:246|360:213,1,50
329,268,18427,6,0,P|355:240|389:247,1,50
333,110,18563,1,0,0:0:0:0:
95,147,18835,6,0,B|156:110|156:110|125:130|125:130|155:160|155:160|156:100|156:100|156:99|156:99,1,200
285,172,19379,1,0,0:0:0:0:
430,104,19515,1,0,0:0:0:0:
416,263,19651,1,0,0:0:0:0:
285,172,19787,1,0,0:0:0:0:
92,167,29740,6,2,B|277:180|348:136|393:86|393:86|385:78|385:78|418:68|409:98|409:98|402:91|402:91|353:142|277:171|141:207|141:207|181:245|172:290|117:307|117:307|118:277|126:256|112:226|106:204|53:185,1,959.999970703126
