osu file format v14

[General]
AudioFilename: audio.mp3
AudioLeadIn: 0
PreviewTime: 41550
Countdown: 0
SampleSet: Soft
StackLeniency: 0
Mode: 0
LetterboxInBreaks: 0
WidescreenStoryboard: 1

[Editor]
Bookmarks: 300,12300,29550,42300,54300,71550,84300,96300,112800,124800,136800
DistanceSpacing: 0.9
BeatDivisor: 4
GridSize: 8
TimelineZoom: 1.399999

[Metadata]
Title:Go (Nightcore Mix)
TitleUnicode:Go (Nightcore Mix)
Artist:McClain Sisters
ArtistUnicode:McClain Sisters
Creator:AJT
Version:Sonnyc's Expert
Source:
Tags:english electropop electronic dance pop a.n.t. ant farm black disney channel china anne lauryn sierra aranel sonnyc bloxi
BeatmapID:3355800
BeatmapSetID:1643400

[Difficulty]
HPDrainRate:6
CircleSize:5
OverallDifficulty:8.5
ApproachRate:8
SliderMultiplier:2.2
SliderTickRate:1

[Events]
//Background and Video events
0,0,"go.jpg",0,0
//Break Periods
//Storyboard Layer 0 (Background)
//Storyboard Layer 1 (Fail)
//Storyboard Layer 2 (Pass)
//Storyboard Layer 3 (Foreground)
//Storyboard Layer 4 (Overlay)
//Storyboard Sound Samples

[TimingPoints]
300,375,4,2,0,50,1,0
7800,-66.6666666666667,4,2,0,50,0,0
12300,-100,4,2,0,50,0,0
30300,-200,4,2,0,50,0,0
37800,-133.333333333333,4,2,0,50,0,0
42300,-100,4,1,0,70,0,1
53925,-100,4,2,0,50,0,0
64987,-75.187969924812,4,2,0,50,0,0
65362,-100,4,2,0,50,0,0
78300,-133.333333333333,4,2,0,50,0,0
79800,-100,4,2,0,50,0,0
84300,-100,4,1,0,70,0,1
95925,-100,4,2,0,50,0,0
108300,-400,4,2,0,50,0,0
112050,-100,4,2,0,70,0,0
124800,-100,4,1,0,70,0,1
129862,-100,4,1,0,40,0,1
130800,-100,4,1,0,70,0,1
131362,-100,4,1,0,60,0,1
132300,-100,4,1,0,70,0,1
136425,-100,4,2,0,50,0,0
148800,-133.333333333333,4,2,0,30,0,0

[Colours]
Combo1 : 128,128,255
Combo2 : 179,255,179
Combo3 : 255,60,60
Combo4 : 85,0,170

[HitObjects]
256,192,300,37,4,0:0:0:0:
168,64,862,5,2,0:0:0:0:
168,64,956,1,0,0:0:0:0:
168,64,1050,2,0,P|104:72|104:120,2,110,2|0|2,0:0|0:0|0:0,0:0:0:0:
216,128,1612,2,0,L|200:248,1,110,0|4,0:0|0:0,0:0:0:0:
344,64,2362,1,2,0:0:0:0:
344,64,2456,1,0,0:0:0:0:
344,64,2550,2,0,P|408:72|408:120,2,110,2|0|2,0:0|0:0|0:0,0:0:0:0:
296,128,3112,2,0,L|312:248,1,110,0|4,0:0|0:0,0:0:0:0:
168,64,3862,1,2,0:0:0:0:
168,64,3956,1,0,0:0:0:0:
168,64,4050,2,0,P|104:72|104:120,2,110,2|0|2,0:0|0:0|0:0,0:0:0:0:
216,128,4612,2,0,L|200:248,1,110,2|4,0:0|0:0,0:0:0:0:
256,368,5550,37,2,0:0:0:0:
256,368,5925,1,2,0:0:0:0:
224,192,6300,38,0,L|224:137,3,55,0|0|0|0,3:0|3:0|3:0|3:0,0:0:0:0:
288,192,6675,2,0,L|288:120,3,55,0|0|0|0,3:0|3:0|3:0|3:0,0:0:0:0:
224,64,7050,2,0,L|224:-8,3,55,0|0|0|0,3:0|3:0|3:0|3:0,0:0:0:0:
288,64,7425,1,0,3:0:0:0:
288,64,7518,1,0,3:0:0:0:
288,64,7612,2,0,L|288:-8,1,55,0|0,3:0|3:0,0:0:0:0:
208,144,7800,38,0,L|208:226,3,82.5000031471254,0|0|0|0,3:0|3:0|3:0|3:0,0:0:0:0:
304,144,8175,2,0,L|304:252,3,82.5000031471254,0|0|0|0,3:0|3:0|3:0|3:0,0:0:0:0:
208,300,8550,2,0,L|208:408,3,82.5000031471254,0|0|0|0,3:0|3:0|3:0|3:0,0:0:0:0:
304,300,8925,1,0,3:0:0:0:
304,300,9018,1,0,3:0:0:0:
304,300,9112,2,0,L|304:408,1,82.5000031471254,0|0,3:0|3:0,0:0:0:0:
472,192,9300,5,4,3:0:0:0:
424,72,9487,1,8,3:0:0:0:
304,16,9675,1,4,3:0:0:0:
304,16,9768,1,4,3:0:0:0:
304,16,9862,1,8,3:0:0:0:
208,16,10050,1,4,3:0:0:0:
88,72,10237,1,8,3:0:0:0:
88,72,10331,1,4,3:0:0:0:
40,192,10518,1,4,3:0:0:0:
40,192,10612,1,8,3:0:0:0:
256,192,10800,12,2,11925,0:0:0:0:
336,328,12300,21,2,1:2:0:0:
256,384,12487,1,2,0:0:0:0:
176,328,12675,1,8,0:0:0:0:
208,232,12862,1,2,0:0:0:0:
304,232,13050,1,0,1:2:0:0:
256,72,13237,5,2,0:0:0:0:
336,24,13425,2,0,P|392:56|384:112,1,110,8|2,0:0|0:0,0:0:0:0:
176,24,13800,2,0,P|120:56|128:112,2,110,0|2|8,1:2|0:0|0:0,0:0:0:0:
336,192,14362,1,2,0:0:0:0:
176,192,14550,1,0,1:2:0:0:
256,88,14737,1,2,0:0:0:0:
256,88,14925,1,8,0:0:0:0:
192,40,15112,2,0,B|144:48|112:16|112:16|32:24|16:96,2,220,2|2|0,0:0|0:0|0:0,0:0:0:0:
256,248,16050,1,0,1:2:0:0:
256,88,16237,1,2,0:0:0:0:
256,248,16425,1,8,0:0:0:0:
320,40,16612,2,0,B|368:48|400:16|400:16|480:24|496:96,2,220,2|2|0,0:0|0:0|0:0,0:0:0:0:
208,272,17550,6,0,B|256:296|256:364|256:364|256:296|304:272,1,220,2|8,1:2|0:0,0:0:0:0:
256,16,18300,21,2,1:2:0:0:
208,96,18487,1,2,0:0:0:0:
304,96,18675,1,8,0:0:0:0:
256,176,18862,1,2,0:0:0:0:
256,272,19050,1,0,1:2:0:0:
368,360,19237,5,2,0:0:0:0:
432,296,19425,1,8,0:0:0:0:
344,272,19612,1,2,0:0:0:0:
144,360,19800,1,2,1:2:0:0:
80,296,19988,1,2,0:0:0:0:
168,272,20175,1,8,0:0:0:0:
256,176,20362,1,2,0:0:0:0:
256,96,20550,2,0,L|256:-16,1,110,2|0,1:2|0:0,0:0:0:0:
256,176,20925,1,8,0:0:0:0:
344,56,21112,2,0,P|424:56|464:184,1,220,2|2,0:0|0:0,0:0:0:0:
432,240,21675,1,8,0:0:0:0:
256,176,21862,1,2,0:0:0:0:
256,336,22050,1,0,1:2:0:0:
256,176,22237,1,2,0:0:0:0:
256,96,22425,1,8,0:0:0:0:
168,56,22612,2,0,P|88:56|48:184,1,220,2|2,0:0|0:0,0:0:0:0:
80,240,23175,1,8,0:0:0:0:
256,176,23362,5,2,0:0:0:0:
192,288,23550,1,2,1:0:0:0:
320,288,23737,1,2,0:0:0:0:
256,176,23925,1,8,0:0:0:0:
192,288,24112,1,2,0:1:0:0:
352,88,24300,6,0,L|462:152,1,110,6|0,1:2|0:0,0:0:0:0:
160,88,24675,6,0,L|49:152,1,110,12|0,0:0|0:0,0:0:0:0:
256,10,25050,6,0,L|256:120,1,110,4|0,1:2|0:0,0:0:0:0:
221,180,25332,38,0,L|110:244,1,110,4|0,0:0|0:0,0:0:0:0:
290,180,25612,38,0,L|400:244,1,110,4|0,0:0|1:0,0:0:0:0:
256,382,25987,22,0,L|256:272,1,110,4|8,0:0|0:0,0:0:0:0:
256,0,26362,5,2,0:0:0:0:
192,112,26550,1,2,1:1:0:0:
320,112,26737,1,2,0:0:0:0:
256,224,26925,1,8,0:0:0:0:
192,112,27112,1,2,0:1:0:0:
352,296,27300,6,0,L|462:232,1,110,6|0,1:2|0:0,0:0:0:0:
160,296,27675,6,0,L|49:232,1,110,12|0,0:0|0:0,0:0:0:0:
290,204,28050,38,0,L|400:140,1,110,4|0,1:2|0:0,0:0:0:0:
221,204,28332,6,0,L|110:140,1,110,4|0,0:0|0:0,0:0:0:0:
256,264,28612,6,0,L|256:374,2,110,4|0|2,0:0|1:0|0:0,0:0:0:0:
256,8,29175,1,8,1:0:0:0:
256,8,29550,1,4,0:3:0:0:
256,8,29925,1,8,0:3:0:0:
304,360,30300,5,6,0:3:0:0:
301,343,30675,1,6,0:3:0:0:
298,326,31050,1,6,0:3:0:0:
295,309,31425,1,6,0:3:0:0:
208,360,31800,1,6,0:3:0:0:
211,343,32175,1,6,0:3:0:0:
214,326,32550,1,6,0:3:0:0:
217,309,32925,1,6,0:3:0:0:
384,328,33300,37,6,0:3:0:0:
379,302,33675,1,6,0:3:0:0:
375,277,34050,1,6,0:3:0:0:
370,251,34425,1,6,0:3:0:0:
128,328,34800,1,6,0:3:0:0:
133,302,35175,1,6,0:3:0:0:
137,277,35550,1,6,0:3:0:0:
142,251,35925,1,6,0:3:0:0:
328,192,36300,6,0,L|344:80,1,110,6|10,0:3|0:3,0:0:0:0:
184,192,37050,2,0,L|168:80,1,110,6|10,0:3|0:3,0:0:0:0:
408,168,37800,38,0,L|432:0,1,165.000006294251,6|10,0:3|0:3,0:0:0:0:
104,168,38550,2,0,L|80:0,1,165.000006294251,6|10,0:3|0:3,0:0:0:0:
272,280,39300,6,0,L|360:288,1,82.5000031471254,4|2,0:3|0:0,0:0:0:0:
184,224,39675,2,0,L|176:312,1,82.5000031471254,8|2,1:3|0:0,0:0:0:0:
240,136,40050,2,0,L|152:128,1,82.5000031471254,4|2,0:3|0:0,0:0:0:0:
328,192,40425,2,0,L|336:104,1,82.5000031471254,8|2,1:3|0:0,0:0:0:0:
151,14,40800,37,4,1:0:0:0:
110,264,40987,1,4,1:0:0:0:
360,305,41175,1,4,1:0:0:0:
401,55,41362,1,4,1:0:0:0:
256,128,41550,5,2,1:0:0:0:
256,208,41738,1,2,1:2:0:0:
256,288,41925,1,8,1:0:0:0:
256,384,42112,21,4,1:3:0:0:
72,24,42300,37,2,1:0:0:0:
256,288,42675,1,10,1:1:0:0:
440,24,43050,1,2,1:0:0:0:
352,152,43331,1,2,0:1:0:0:
440,280,43612,1,2,0:3:0:0:
440,360,43800,1,2,1:0:0:0:
256,96,44175,1,10,1:1:0:0:
72,360,44550,1,2,1:0:0:0:
160,232,44831,1,2,0:1:0:0:
72,104,45112,1,2,0:3:0:0:
72,24,45300,1,2,1:0:0:0:
256,288,45675,1,10,1:1:0:0:
440,24,46050,1,2,1:0:0:0:
352,152,46331,1,2,0:1:0:0:
440,280,46612,1,2,0:3:0:0:
440,280,46800,1,2,1:0:0:0:
188,174,47362,37,2,2:0:0:0:
256,131,47550,1,2,2:0:0:0:
324,174,47737,1,2,2:0:0:0:
256,216,47925,1,8,2:0:0:0:
256,294,48112,1,2,2:0:0:0:
184,32,48300,5,2,1:0:0:0:
32,240,48675,1,10,1:1:0:0:
256,368,49050,1,2,1:0:0:0:
256,216,49331,1,2,0:1:0:0:
256,64,49612,1,2,0:3:0:0:
328,32,49800,1,2,1:0:0:0:
480,240,50175,1,10,1:1:0:0:
256,368,50550,1,2,1:0:0:0:
256,216,50831,1,2,0:1:0:0:
256,64,51112,1,2,0:3:0:0:
184,32,51300,1,2,1:0:0:0:
32,240,51675,1,10,1:1:0:0:
256,368,52050,1,2,1:0:0:0:
256,216,52331,1,2,0:1:0:0:
256,64,52612,1,2,0:3:0:0:
256,64,52800,1,2,1:0:0:0:
256,192,53175,12,8,53925,1:0:0:0:
176,328,54300,5,2,1:2:0:0:
256,384,54487,1,2,0:0:0:0:
336,328,54675,1,8,0:0:0:0:
208,232,54862,1,2,0:0:0:0:
304,232,55050,1,0,1:2:0:0:
336,16,55237,5,2,0:0:0:0:
256,72,55424,1,8,0:0:0:0:
176,16,55612,1,2,0:0:0:0:
80,144,55800,2,0,P|70:190|112:232,1,110,0|2,1:2|0:0,0:0:0:0:
256,192,56175,1,8,0:0:0:0:
256,280,56362,1,2,0:0:0:0:
401,231,56550,2,0,P|440:195|431:143,1,110,0|2,1:0|0:0,0:0:0:0:
256,192,56925,1,8,0:0:0:0:
80,144,57112,2,0,P|70:190|112:232,1,110,2|0,0:0|1:0,0:0:0:0:
432,144,57487,2,0,P|442:190|400:232,2,110,2|8|0,0:0|0:0|0:0,0:0:0:0:
256,72,58050,2,0,L|256:184,1,110,2|0,1:2|0:0,0:0:0:0:
256,280,58425,1,8,0:0:0:0:
401,231,58612,2,0,P|440:196|432:144,1,110,2|0,0:0|1:0,0:0:0:0:
110,231,58987,2,0,P|71:196|80:144,2,110,2|8|0,0:0|0:0|0:0,0:0:0:0:
288,352,59550,6,0,B|312:292|256:258|256:258|200:292|224:352,1,220,2|8,1:2|0:0,0:0:0:0:
256,24,60300,21,2,1:2:0:0:
320,176,60487,1,0,0:0:0:0:
256,216,60675,1,8,0:0:0:0:
192,176,60862,1,2,0:0:0:0:
256,352,61050,1,0,1:2:0:0:
256,352,61237,1,0,0:0:0:0:
256,136,61425,5,8,0:0:0:0:
48,280,61612,1,2,0:0:0:0:
57,376,61800,1,0,1:2:0:0:
153,366,61987,1,2,0:0:0:0:
48,280,62175,1,8,0:0:0:0:
144,270,62362,1,2,0:0:0:0:
153,366,62550,1,0,1:2:0:0:
8,120,62737,1,2,0:0:0:0:
80,56,62925,1,8,0:0:0:0:
168,96,63112,2,0,L|152:224,1,110,2|0,0:0|1:0,0:0:0:0:
72,256,63487,2,0,P|96:328|224:328,1,220,2|0,0:0|0:0,0:0:0:0:
343,95,64050,1,0,1:0:0:0:
432,56,64237,1,2,0:0:0:0:
504,120,64425,1,8,0:0:0:0:
357,205,64612,2,0,L|344:96,1,110,2|0,0:1|1:0,0:0:0:0:
440,256,64987,2,0,P|416:328|288:328,1,219.449990958939,2|0,0:1|0:0,0:0:0:0:
256,264,65362,5,2,0:0:0:0:
256,56,65550,1,2,1:1:0:0:
336,160,65737,1,2,0:0:0:0:
176,160,65925,1,8,0:0:0:0:
256,56,66112,1,2,0:1:0:0:
256,264,66300,38,0,L|256:408,1,110,4|0,1:2|0:0,0:0:0:0:
222,116,66675,38,0,L|173:144,1,55,12|0,0:0|0:0,0:0:0:0:
291,116,66862,38,0,L|339:144,1,55,4|0,0:0|0:0,0:0:0:0:
256,56,67050,22,0,L|256:0,1,55,4|0,1:2|0:0,0:0:0:0:
256,176,67237,1,0,0:0:0:0:
256,176,67331,2,0,L|256:320,1,110,4|0,0:0|0:0,0:0:0:0:
176,248,67612,38,0,L|79:304,1,110,4|0,0:0|1:0,0:0:0:0:
336,248,67987,38,0,L|432:304,1,110,4|8,0:0|0:0,0:0:0:0:
144,120,68362,37,2,0:0:0:0:
256,56,68550,1,2,1:2:0:0:
256,184,68737,1,2,0:0:0:0:
368,120,68925,1,8,0:0:0:0:
256,56,69112,1,2,0:1:0:0:
256,264,69300,38,0,L|256:408,1,110,4|0,1:2|0:0,0:0:0:0:
339,121,69675,22,0,L|291:149,1,55,12|0,0:0|0:0,0:0:0:0:
174,121,69862,6,0,L|221:148,1,55,4|0,0:0|0:0,0:0:0:0:
256,209,70050,6,0,L|256:265,1,55,4|0,1:2|0:0,0:0:0:0:
221,148,70237,1,0,0:0:0:0:
221,148,70331,2,0,L|221:4,1,110,4|0,0:0|0:0,0:0:0:0:
291,148,70612,2,0,L|291:38,2,110,4|0|2,0:0|1:0|0:0,0:0:0:0:
256,376,71175,1,8,1:0:0:0:
256,376,71550,1,4,0:3:0:0:
256,376,71925,1,8,0:3:0:0:
160,16,72300,5,6,0:3:0:0:
83,59,72675,1,6,0:3:0:0:
83,147,73050,1,6,0:3:0:0:
160,191,73425,1,6,0:3:0:0:
352,191,73800,1,6,0:3:0:0:
429,147,74175,1,6,0:3:0:0:
429,59,74550,1,6,0:3:0:0:
352,16,74925,1,6,0:3:0:0:
179,351,75300,37,6,0:3:0:0:
82,231,75675,1,6,0:3:0:0:
117,81,76050,1,6,0:3:0:0:
255,14,76425,1,6,0:3:0:0:
333,351,76800,1,6,0:3:0:0:
429,231,77175,1,6,0:3:0:0:
394,81,77550,1,6,0:3:0:0:
255,14,77925,1,6,0:3:0:0:
184,304,78300,6,0,L|171:216,1,82.5000031471254,6|2,0:3|0:0,0:0:0:0:
162,145,78675,1,10,1:3:0:0:
328,304,79050,2,0,L|340:216,1,82.5000031471254,6|2,0:3|0:0,0:0:0:0:
350,145,79425,1,10,1:3:0:0:
72,224,79800,38,0,L|56:114,1,110,6|2,0:3|0:0,0:0:0:0:
44,25,80175,1,10,1:3:0:0:
440,224,80550,2,0,L|455:114,1,110,6|2,0:3|0:0,0:0:0:0:
468,25,80925,1,10,1:3:0:0:
136,272,81300,6,0,L|259:278,1,110,6|2,0:3|0:0,0:0:0:0:
376,112,81675,2,0,L|252:105,1,110,8|2,1:3|0:0,0:0:0:0:
336,312,82050,2,0,L|342:188,1,110,6|2,0:3|0:0,0:0:0:0:
176,72,82425,2,0,L|169:195,1,110,8|2,1:3|0:0,0:0:0:0:
420,307,82800,37,4,1:0:0:0:
371,27,82987,1,4,1:0:0:0:
91,76,83175,1,4,1:0:0:0:
140,356,83362,1,4,1:0:0:0:
256,240,83550,5,2,1:0:0:0:
256,160,83738,1,2,1:2:0:0:
256,80,83925,1,8,1:0:0:0:
256,328,84112,21,4,1:3:0:0:
256,0,84300,37,2,1:0:0:0:
48,352,84675,1,10,0:0:0:0:
344,352,85050,1,2,0:0:0:0:
256,200,85331,1,2,0:0:0:0:
168,352,85612,1,2,0:3:0:0:
464,352,85800,1,2,0:0:0:0:
256,0,86175,1,10,1:0:0:0:
168,352,86550,1,2,0:0:0:0:
344,352,86831,1,2,0:0:0:0:
256,200,87112,1,2,0:3:0:0:
48,352,87300,1,2,0:0:0:0:
464,352,87675,1,10,0:0:0:0:
256,200,88050,1,2,0:0:0:0:
168,352,88331,1,2,0:0:0:0:
344,352,88612,1,2,0:3:0:0:
256,296,88800,1,2,0:0:0:0:
188,96,89361,37,2,2:0:0:0:
256,53,89549,1,2,2:0:0:0:
324,96,89736,1,2,2:0:0:0:
256,138,89924,1,8,2:0:0:0:
256,216,90111,1,2,2:0:0:0:
352,368,90300,5,2,0:0:0:0:
0,368,90675,1,10,0:0:0:0:
352,368,91050,1,2,0:0:0:0:
352,192,91331,1,2,0:0:0:0:
352,16,91612,1,0,0:0:0:0:
80,16,91800,1,2,0:0:0:0:
432,16,92175,1,10,0:0:0:0:
80,16,92550,1,2,0:0:0:0:
80,192,92831,1,2,0:0:0:0:
80,368,93112,1,0,0:0:0:0:
512,368,93300,1,2,0:0:0:0:
160,368,93675,1,10,0:0:0:0:
512,368,94050,1,2,0:0:0:0:
512,192,94331,1,2,0:0:0:0:
512,16,94612,1,0,0:0:0:0:
432,16,94800,1,2,0:0:0:0:
256,192,95175,12,8,95925,1:0:0:0:
112,192,96112,5,2,0:0:0:0:
99,300,96300,1,0,1:0:0:0:
104,284,96393,1,0,1:0:0:0:
120,284,96487,1,0,1:0:0:0:
125,300,96581,1,0,1:0:0:0:
112,309,96675,1,0,1:0:0:0:
16,368,96862,1,0,1:0:0:0:
208,368,97050,1,10,1:0:0:0:
112,16,97425,5,0,3:0:0:0:
112,16,97612,1,0,3:0:0:0:
41,51,97800,1,0,3:0:0:0:
112,86,97987,1,0,3:0:0:0:
182,51,98175,1,0,3:0:0:0:
182,51,98268,1,0,3:0:0:0:
182,51,98362,1,0,3:0:0:0:
112,16,98550,1,10,1:2:0:0:
112,384,98925,1,0,3:0:0:0:
112,384,99112,1,0,3:0:0:0:
125,300,99300,37,0,1:0:0:0:
120,284,99393,1,0,1:0:0:0:
104,284,99487,1,0,1:0:0:0:
99,300,99581,1,0,1:0:0:0:
112,309,99675,1,0,1:0:0:0:
208,368,99862,1,0,1:0:0:0:
16,368,100050,1,10,1:0:0:0:
112,16,100425,21,0,3:0:0:0:
112,16,100612,1,0,3:0:0:0:
192,64,100799,1,0,1:0:0:0:
197,104,100893,1,0,1:0:0:0:
202,144,100986,1,0,1:0:0:0:
205,186,101080,1,0,1:0:0:0:
210,226,101174,1,0,1:0:0:0:
32,64,101550,1,0,1:0:0:0:
27,104,101643,1,0,1:0:0:0:
22,144,101737,1,0,1:0:0:0:
19,186,101831,1,0,1:0:0:0:
14,226,101925,1,0,1:0:0:0:
413,300,102300,21,0,1:0:0:0:
408,284,102393,1,0,1:0:0:0:
392,284,102487,1,0,1:0:0:0:
387,300,102581,1,0,1:0:0:0:
400,309,102675,1,0,1:0:0:0:
496,368,102862,1,0,1:0:0:0:
304,368,103050,1,10,1:0:0:0:
400,16,103425,5,0,3:0:0:0:
400,16,103612,1,0,3:0:0:0:
471,51,103800,1,0,3:0:0:0:
400,86,103987,1,0,3:0:0:0:
330,51,104175,1,0,3:0:0:0:
330,51,104268,1,0,3:0:0:0:
400,384,104550,1,10,1:2:0:0:
400,192,104925,1,0,3:0:0:0:
400,192,105112,1,0,3:0:0:0:
387,300,105300,37,0,1:0:0:0:
392,284,105393,1,0,1:0:0:0:
408,284,105487,1,0,1:0:0:0:
413,300,105581,1,0,1:0:0:0:
400,309,105675,1,0,1:0:0:0:
304,368,105862,1,0,1:0:0:0:
496,368,106050,1,10,1:0:0:0:
400,16,106425,21,0,3:0:0:0:
400,16,106612,1,0,3:0:0:0:
320,64,106799,1,0,1:0:0:0:
315,104,106893,1,0,1:0:0:0:
310,144,106986,1,0,1:0:0:0:
307,186,107080,1,0,1:0:0:0:
302,226,107174,1,0,1:0:0:0:
480,64,107550,1,0,1:0:0:0:
485,104,107643,1,0,1:0:0:0:
490,144,107737,1,0,1:0:0:0:
493,186,107831,1,0,1:0:0:0:
498,226,107925,1,0,1:0:0:0:
224,360,108300,6,0,P|256:280|288:360,1,220,4|0,0:0|0:0,0:0:0:0:
256,192,109893,12,0,111862,0:0:0:0:
256,360,112050,37,2,0:0:0:0:
256,352,112237,1,0,0:0:0:0:
256,344,112425,1,2,0:0:0:0:
192,160,112612,2,0,L|208:280,1,110,2|0,0:0|1:0,0:0:0:0:
320,160,112987,1,2,0:0:0:0:
320,160,113081,1,0,0:0:0:0:
320,160,113175,2,0,L|304:280,1,110,8|2,1:2|0:0,0:0:0:0:
256,24,113550,37,0,1:0:0:0:
256,24,113737,1,2,0:0:0:0:
400,80,113925,2,0,P|432:112|424:176,1,110,8|2,1:2|0:0,0:0:0:0:
426,172,114206,1,0,0:0:0:0:
426,172,114300,1,0,1:0:0:0:
112,80,114487,1,2,0:0:0:0:
112,80,114582,1,0,0:0:0:0:
112,80,114675,2,0,P|80:112|88:176,1,110,8|2,1:2|0:0,0:0:0:0:
256,328,115050,5,0,1:0:0:0:
256,232,115237,1,2,0:0:0:0:
256,232,115331,1,0,0:0:0:0:
256,232,115425,1,8,1:2:0:0:
184,288,115612,2,0,L|72:320,1,110,2|0,0:0|1:0,0:0:0:0:
328,288,115987,1,2,0:0:0:0:
328,288,116081,1,0,0:0:0:0:
328,288,116175,2,0,L|440:320,1,110,8|2,1:2|0:0,0:0:0:0:
206,80,116550,37,0,1:0:0:0:
176,174,116737,1,2,0:0:0:0:
305,80,116925,1,8,1:2:0:0:
336,174,117112,1,2,0:0:0:0:
256,232,117300,2,0,L|256:352,1,110,0|2,1:0|0:0,0:0:0:0:
256,342,117581,1,2,0:0:0:0:
256,342,117675,1,8,1:2:0:0:
256,144,117862,1,2,0:0:0:0:
376,280,118050,6,0,L|488:264,1,110,0|2,1:0|0:0,0:0:0:0:
512,176,118425,1,8,1:2:0:0:
136,280,118612,2,0,L|24:264,1,110,2|0,0:0|1:0,0:0:0:0:
0,176,118987,1,2,0:0:0:0:
256,232,119175,2,0,L|256:352,1,110,8|2,1:2|0:0,0:0:0:0:
144,152,119550,38,0,L|128:32,1,110,0|2,1:0|0:0,0:0:0:0:
416,232,119925,1,8,1:2:0:0:
368,152,120112,2,0,L|384:32,1,110,2|0,0:0|1:0,0:0:0:0:
96,232,120487,1,2,0:0:0:0:
96,232,120675,1,8,1:2:0:0:
336,312,120862,5,2,0:0:0:0:
256,96,121050,1,0,1:0:0:0:
176,312,121237,1,2,0:0:0:0:
256,208,121425,1,8,1:2:0:0:
336,312,121612,2,0,L|456:336,1,110,2|0,0:0|1:0,0:0:0:0:
176,312,121987,2,0,L|56:336,1,110,2|8,0:0|1:2,0:0:0:0:
336,150,122362,37,2,0:0:0:0:
305,55,122550,1,0,1:0:0:0:
206,55,122737,1,2,0:0:0:0:
175,150,122925,1,8,1:2:0:0:
256,208,123112,1,2,0:0:0:0:
256,368,123300,1,0,1:0:0:0:
256,208,123488,1,2,0:0:0:0:
256,208,123582,1,0,0:0:0:0:
256,208,123675,1,8,1:2:0:0:
256,368,123862,1,2,0:0:0:0:
256,128,124050,5,2,1:0:0:0:
256,208,124237,1,2,1:2:0:0:
256,288,124425,1,8,1:0:0:0:
256,40,124612,21,0,1:3:0:0:
8,192,124800,37,2,1:0:0:0:
138,97,124988,1,2,2:2:0:0:
88,250,125175,1,10,0:0:0:0:
39,97,125362,1,2,2:0:0:0:
169,192,125550,1,2,1:0:0:0:
88,250,125737,1,2,2:0:0:0:
88,250,125831,1,2,0:0:0:0:
8,192,126018,1,2,2:0:0:0:
8,192,126112,1,2,0:0:0:0:
176,312,126300,5,2,1:0:0:0:
306,217,126488,1,2,2:2:0:0:
256,370,126675,1,10,0:0:0:0:
207,217,126862,1,2,2:0:0:0:
337,312,127050,1,2,1:0:0:0:
256,370,127237,1,2,2:0:0:0:
256,370,127331,1,2,0:0:0:0:
176,312,127518,1,2,2:0:0:0:
176,312,127612,1,2,0:0:0:0:
343,192,127800,37,2,1:0:0:0:
473,97,127988,1,2,2:2:0:0:
423,250,128175,1,10,0:0:0:0:
374,97,128362,1,2,2:0:0:0:
504,192,128550,1,2,1:0:0:0:
423,250,128737,1,2,2:0:0:0:
423,250,128831,1,2,0:0:0:0:
343,192,129018,1,2,2:0:0:0:
343,192,129112,1,2,0:0:0:0:
256,368,129300,1,6,1:0:0:0:
188,96,129862,37,2,0:0:0:0:
256,53,130050,1,2,0:0:0:0:
324,96,130237,1,2,0:0:0:0:
256,138,130425,1,8,0:0:0:0:
256,216,130612,1,2,0:0:0:0:
160,304,130800,5,2,0:0:0:0:
352,304,130987,1,2,2:0:0:0:
160,304,131175,1,10,0:0:0:0:
163,80,131362,37,2,0:0:0:0:
256,20,131550,1,2,0:0:0:0:
350,80,131737,1,2,0:0:0:0:
256,138,131925,1,8,0:0:0:0:
256,245,132112,1,2,0:0:0:0:
352,304,132300,21,2,0:0:0:0:
160,304,132487,1,2,2:0:0:0:
352,304,132675,1,10,0:0:0:0:
160,304,132862,1,2,2:0:0:0:
112,208,133050,1,2,0:0:0:0:
256,245,133237,1,2,2:0:0:0:
256,245,133331,1,2,1:0:0:0:
400,208,133518,1,2,2:0:0:0:
400,208,133612,1,2,1:0:0:0:
352,112,133800,37,2,0:0:0:0:
160,112,133987,1,2,2:0:0:0:
352,112,134175,1,10,0:0:0:0:
160,112,134362,1,2,2:0:0:0:
112,16,134550,1,2,0:0:0:0:
256,53,134737,1,2,2:0:0:0:
256,53,134831,1,2,1:0:0:0:
400,16,135018,1,2,2:0:0:0:
400,16,135112,1,2,1:0:0:0:
256,245,135300,1,2,0:0:0:0:
256,192,135675,12,8,136425,1:0:0:0:
112,296,136799,6,0,P|168:344|400:296,1,330,4|0,1:2|0:0,0:0:0:0:
320,240,137550,2,0,L|304:128,1,110,2|0,0:0|0:0,0:0:0:0:
192,240,137925,2,0,L|207:131,1,110,8|0,1:2|0:0,0:0:0:0:
112,88,138300,2,0,P|168:40|400:88,1,330,4|0,1:2|0:0,0:0:0:0:
472,40,139050,5,2,0:0:0:0:
481,126,139237,1,0,0:0:0:0:
491,213,139425,1,8,1:2:0:0:
501,300,139612,1,2,0:0:0:0:
501,300,139987,1,0,0:0:0:0:
40,40,140550,1,2,0:0:0:0:
31,126,140737,1,0,0:0:0:0:
21,213,140925,1,8,1:2:0:0:
11,300,141112,1,2,0:0:0:0:
256,368,142050,21,2,0:0:0:0:
256,368,142425,1,2,0:0:0:0:
256,192,142800,1,4,0:0:0:0:
344,64,143362,5,2,0:0:0:0:
344,64,143456,1,0,0:0:0:0:
344,64,143550,2,0,P|408:72|408:120,2,110,2|0|2,0:0|0:0|0:0,0:0:0:0:
296,128,144112,2,0,L|312:248,1,110,0|4,0:0|0:0,0:0:0:0:
168,64,144862,1,2,0:0:0:0:
168,64,144956,1,0,0:0:0:0:
168,64,145050,2,0,P|104:72|104:120,2,110,2|0|2,0:0|0:0|0:0,0:0:0:0:
216,128,145612,2,0,L|200:248,1,110,0|4,0:0|0:0,0:0:0:0:
344,64,146362,1,2,0:0:0:0:
344,64,146456,1,0,0:0:0:0:
344,64,146550,2,0,P|408:72|408:120,2,110,2|0|2,0:0|0:0|0:0,0:0:0:0:
296,128,147112,2,0,L|312:248,1,110,2|4,0:0|0:0,0:0:0:0:
256,368,148050,37,2,0:0:0:0:
256,368,148425,1,2,0:0:0:0:
256,368,148800,1,2,0:0:0:0:
160,168,149362,6,0,P|136:168|112:192,2,41.2500015735627,2|0|2,0:0|0:0|0:0,0:0:0:0:
216,208,149737,2,0,L|208:304,2,82.5000031471254,0|2|0,0:0|0:0|0:0,0:0:0:0:
352,168,150862,2,0,P|376:168|400:192,2,41.2500015735627,2|0|2,0:0|0:0|0:0,0:0:0:0:
296,208,151237,2,0,L|304:304,2,82.5000031471254,0|2|0,0:0|0:0|0:0,0:0:0:0:
160,168,152362,2,0,P|136:168|112:192,2,41.2500015735627,2|0|2,0:0|0:0|0:0,0:0:0:0:
216,208,152737,2,0,L|208:304,2,82.5000031471254,0|2|0,0:0|0:0|0:0,0:0:0:0:
