osu file format v14

[General]
AudioFilename: audio.mp3
AudioLeadIn: 0
PreviewTime: 41550
Countdown: 0
SampleSet: Soft
StackLeniency: 0.6
Mode: 0
LetterboxInBreaks: 0
WidescreenStoryboard: 0

[Editor]
Bookmarks: 87300
DistanceSpacing: 1.1
BeatDivisor: 4
GridSize: 32
TimelineZoom: 2.699999

[Metadata]
Title:Go (Nightcore Mix)
TitleUnicode:Go (Nightcore Mix)
Artist:McClain Sisters
ArtistUnicode:McClain Sisters
Creator:AJT
Version:Fearless
Source:
Tags:english electropop electronic dance pop a.n.t. ant farm black disney channel china anne lauryn sierra aranel sonnyc bloxi
BeatmapID:3354417
BeatmapSetID:1643400

[Difficulty]
HPDrainRate:6
CircleSize:4
OverallDifficulty:9
ApproachRate:9
SliderMultiplier:2.5
SliderTickRate:1

[Events]
//Background and Video events
0,0,"go.jpg",0,0
//Break Periods
//Storyboard Layer 0 (Background)
//Storyboard Layer 1 (Fail)
//Storyboard Layer 2 (Pass)
//Storyboard Layer 3 (Foreground)
//Storyboard Layer 4 (Overlay)
//Storyboard Sound Samples

[TimingPoints]
300,375,4,2,1,40,1,0
300,-200,4,2,1,40,0,0
6300,-166.666666666667,4,2,1,50,0,0
12300,-133.333333333333,4,2,1,50,0,0
30300,-500,4,2,1,50,0,0
37050,-200,4,2,1,50,0,0
37800,-500,4,2,1,50,0,0
38362,-200,4,2,1,50,0,0
39112,-133.333333333333,4,2,1,50,0,0
42300,-100,4,2,1,70,0,1
53175,-133.333333333333,4,2,1,70,0,1
54300,-133.333333333333,4,2,1,50,0,0
70612,-133.333333333333,4,2,1,50,0,0
72300,-500,4,2,1,50,0,0
79612,-133.333333333333,4,2,1,50,0,0
84300,-100,4,2,1,70,0,1
94800,-133.333333333333,4,2,1,70,0,1
96300,-200,4,2,1,50,0,0
112800,-100,4,2,1,70,0,0
115050,-200,4,2,1,70,0,0
115612,-100,4,2,1,70,0,0
119550,-200,4,2,1,70,0,0
120112,-100,4,2,1,70,0,0
124800,-100,4,2,1,80,0,1
136800,-133.333333333333,4,2,1,60,0,0
142800,-200,4,2,1,50,0,0
148800,-200,4,2,1,40,0,0
153675,-200,4,2,1,5,0,0

[Colours]
Combo1 : 128,128,255
Combo2 : 179,255,179
Combo3 : 255,60,60
Combo4 : 85,0,170

[HitObjects]
256,192,300,5,4,0:0:0:0:
128,96,862,5,2,0:0:0:0:
160,64,955,1,0,0:0:0:0:
128,32,1050,2,0,L|64:32,2,62.5,2|0|2,0:0|0:0|0:0,0:0:0:0:
256,0,1612,1,2,0:0:0:0:
384,96,2362,5,2,0:0:0:0:
352,64,2455,1,0,0:0:0:0:
384,32,2550,2,0,L|448:32,2,62.5,2|0|2,0:0|0:0|0:0,0:0:0:0:
256,0,3112,1,2,0:0:0:0:
384,288,3862,5,2,0:0:0:0:
352,320,3955,1,0,0:0:0:0:
384,352,4050,2,0,L|448:352,2,62.5,2|0|2,0:0|0:0|0:0,0:0:0:0:
256,384,4612,1,2,0:0:0:0:
256,384,5550,5,2,0:0:0:0:
256,384,5925,1,2,0:0:0:0:
256,192,6300,6,0,L|320:192,3,37.4999988555909,2|0|0|0,3:2|3:0|3:0|3:0,0:0:0:0:
192,128,6675,2,0,L|128:128,1,37.4999988555909,0|0,3:0|3:0,0:0:0:0:
96,64,6862,5,2,3:2:0:0:
96,64,6956,1,0,3:0:0:0:
96,64,7050,2,0,L|32:64,3,37.4999988555909,2|0|0|0,3:2|3:0|3:0|3:0,0:0:0:0:
154,128,7425,2,0,L|192:128,1,37.4999988555909,2|0,3:2|3:0,0:0:0:0:
256,192,7612,6,0,L|256:224,2,18.7499994277954,2|2|2,3:0|0:3|3:0,0:0:0:0:
320,128,7800,2,0,L|358:128,1,37.4999988555909,0|0,3:0|3:0,0:0:0:0:
416,64,7987,1,0,3:0:0:0:
416,64,8081,1,0,3:0:0:0:
416,64,8175,2,0,L|480:64,3,37.4999988555909,0|0|2|0,3:0|3:0|3:2|3:0,0:0:0:0:
358,128,8550,6,0,L|320:128,1,37.4999988555909,2|0,3:2|3:0,0:0:0:0:
256,32,8737,2,0,L|256:70,1,37.4999988555909,0|0,3:0|3:0,0:0:0:0:
154,128,8925,2,0,L|192:128,1,37.4999988555909,2|0,3:2|3:0,0:0:0:0:
256,192,9112,2,0,L|256:224,2,18.7499994277954,2|2|2,3:0|0:3|3:0,0:0:0:0:
256,256,9300,5,4,3:0:0:0:
96,320,9487,1,8,3:0:0:0:
256,384,9675,1,4,3:0:0:0:
256,384,9768,1,4,3:0:0:0:
256,384,9862,2,0,L|256:320,1,37.4999988555909,2|0,3:3|0:0,0:0:0:0:
416,320,10050,5,4,3:0:0:0:
415,191,10237,1,8,3:0:0:0:
415,191,10331,1,4,3:0:0:0:
416,64,10518,1,4,3:0:0:0:
416,64,10612,6,2,L|448:64,4,18.7499994277954,10|2|2|2|2,0:0|0:3|0:3|0:3|0:3,0:0:0:0:
384,32,10893,1,0,0:0:0:0:
384,32,10987,2,2,L|384:0,4,18.7499994277954,10|2|2|2|2,0:0|0:3|0:3|0:3|0:3,0:0:0:0:
352,64,11268,1,0,0:0:0:0:
352,64,11362,2,2,L|320:64,4,18.7499994277954,10|2|2|2|2,0:0|0:3|0:3|0:3|0:3,0:0:0:0:
384,192,11737,6,2,L|416:192,4,18.7499994277954
128,192,12112,2,2,L|96:192,2,18.7499994277954
256,192,12300,5,6,1:0:0:0:
320,96,12487,1,2,0:0:0:0:
256,0,12675,1,8,0:0:0:0:
192,96,12862,1,2,0:0:0:0:
128,0,13050,5,4,3:0:0:0:
256,0,13237,1,2,0:0:0:0:
384,0,13425,1,8,0:0:0:0:
320,96,13612,1,2,0:0:0:0:
256,192,13800,5,0,1:0:0:0:
192,96,13987,1,2,0:0:0:0:
256,0,14175,1,8,0:0:0:0:
320,96,14362,1,2,0:0:0:0:
400,192,14550,5,4,3:0:0:0:
256,255,14737,1,2,0:0:0:0:
112,192,14925,1,8,0:0:0:0:
256,68,15112,2,0,L|256:260,1,187.500007152558,2|2,0:0|0:0,0:0:0:0:
256,255,15675,1,8,0:0:0:0:
112,64,16050,5,4,3:0:0:0:
256,0,16238,1,2,0:0:0:0:
400,64,16425,1,8,0:0:0:0:
352,192,16612,2,0,L|165:192,1,187.500007152558,2|2,0:0|0:0,0:0:0:0:
256,144,17175,2,0,L|256:240,1,93.7500035762788,8|0,0:0|0:0,0:0:0:0:
144,288,17550,6,0,L|144:384,1,93.7500035762788,2|0,1:2|0:0,0:0:0:0:
368,381,17925,2,0,L|368:288,1,93.7500035762788,8|0,0:0|0:0,0:0:0:0:
176,192,18300,5,6,3:0:0:0:
256,112,18487,1,2,0:0:0:0:
336,192,18675,1,8,0:0:0:0:
256,272,18862,1,2,0:0:0:0:
199,135,19050,5,0,1:0:0:0:
312,135,19237,1,2,0:0:0:0:
312,248,19425,1,8,0:0:0:0:
199,248,19612,1,2,0:0:0:0:
144,352,19800,5,6,3:0:0:0:
256,384,19987,1,2,0:0:0:0:
368,352,20175,1,8,0:0:0:0:
256,384,20362,1,2,0:0:0:0:
112,336,20550,5,2,1:2:0:0:
256,384,20737,1,0,0:0:0:0:
400,336,20925,1,8,0:0:0:0:
256,256,21112,2,0,L|256:64,1,187.500007152558,2|2,0:0|0:0,0:0:0:0:
400,192,21675,1,8,0:0:0:0:
400,192,21862,1,2,0:0:0:0:
400,336,22050,5,0,1:0:0:0:
256,384,22237,1,2,0:0:0:0:
112,336,22425,1,8,0:0:0:0:
160,192,22612,2,0,L|347:192,1,187.500007152558,2|2,0:0|0:0,0:0:0:0:
256,384,23175,2,0,L|256:288,1,93.7500035762788,8|2,0:0|0:0,0:0:0:0:
352,96,23550,5,2,1:1:0:0:
320,0,23737,1,2,0:0:0:0:
192,0,23925,1,8,0:0:0:0:
160,96,24112,1,2,0:1:0:0:
0,0,24300,5,6,1:0:0:0:
512,64,24675,5,4,3:2:0:0:
0,192,25050,5,4,3:2:0:0:
256,192,25331,5,4,3:2:0:0:
512,192,25612,5,4,3:2:0:0:
0,304,25987,5,4,3:2:0:0:
256,384,26362,5,2,0:0:0:0:
304,288,26550,1,2,0:1:0:0:
256,192,26737,1,2,0:0:0:0:
208,96,26925,1,8,0:0:0:0:
256,16,27112,1,2,0:1:0:0:
512,80,27300,5,6,1:0:0:0:
0,192,27675,5,4,3:2:0:0:
512,304,28050,5,4,3:2:0:0:
256,192,28331,5,4,3:2:0:0:
512,302,28612,5,4,3:2:0:0:
512,302,28706,1,0,3:0:0:0:
512,302,28799,2,2,L|502:369,1,46.8750017881394,2|2,1:2|0:0,0:0:0:0:
425,350,28987,2,2,L|432:304,1,46.8750017881394
352,304,29175,2,2,L|342:371,1,46.8750017881394,10|2,1:2|0:0,0:0:0:0:
265,352,29363,2,2,L|272:306,1,46.8750017881394
0,304,29550,6,2,L|10:371,1,46.8750017881394,2|2,1:2|0:0,0:0:0:0:
87,353,29738,2,2,L|80:306,1,46.8750017881394
160,306,29926,2,2,L|170:373,1,46.8750017881394,10|2,0:2|0:0,0:0:0:0:
247,355,30112,2,2,L|240:308,1,46.8750017881394
256,192,30300,6,0,L|263:161,1,25,4|0,0:3|0:0,0:0:0:0:
288,0,30675,2,0,L|295:31,1,25,4|0,0:3|0:0,0:0:0:0:
352,192,31050,2,0,L|359:161,1,25,4|0,0:3|0:0,0:0:0:0:
384,0,31425,2,0,L|391:31,1,25,4|0,0:3|0:0,0:0:0:0:
256,192,31800,6,0,L|249:161,1,25,4|0,0:3|0:0,0:0:0:0:
224,0,32175,2,0,L|217:31,1,25,4|0,0:3|0:0,0:0:0:0:
160,192,32550,2,0,L|153:161,1,25,4|0,0:3|0:0,0:0:0:0:
128,0,32925,2,0,L|121:31,1,25,4|0,0:3|0:0,0:0:0:0:
256,192,33300,6,0,L|263:223,1,25,4|0,0:3|0:0,0:0:0:0:
288,384,33675,2,0,L|295:353,1,25,4|0,0:3|0:0,0:0:0:0:
352,192,34050,2,0,L|359:223,1,25,4|0,0:3|0:0,0:0:0:0:
384,384,34425,2,0,L|391:353,1,25,4|0,0:3|0:0,0:0:0:0:
256,192,34800,6,0,L|249:223,1,25,4|0,0:3|0:0,0:0:0:0:
224,384,35175,2,0,L|217:353,1,25,4|0,0:3|0:0,0:0:0:0:
160,192,35550,2,0,L|153:223,1,25,4|0,0:3|0:0,0:0:0:0:
128,384,35925,2,0,L|121:353,1,25,4|0,0:3|0:0,0:0:0:0:
256,0,36300,6,0,L|263:31,1,25,4|0,0:3|0:0,0:0:0:0:
160,192,36675,1,10,0:2:0:0:
160,192,36862,1,0,0:0:0:0:
32,64,37050,2,0,L|16:-3,2,62.5,2|0|10,0:3|0:0|0:2,0:0:0:0:
160,192,37612,1,0,0:0:0:0:
256,0,37800,6,0,L|249:31,1,25,4|0,0:3|0:0,0:0:0:0:
351,191,38175,1,10,0:2:0:0:
480,64,38363,2,0,L|496:-3,2,62.5,0|4|0,0:0|0:3|0:0,0:0:0:0:
352,192,38925,1,10,0:2:0:0:
400,304,39112,6,0,B|448:320|448:320|501:300,1,93.7500035762788,2|4,0:0|0:3,0:0:0:0:
112,304,39487,2,0,B|64:320|64:320|11:300,2,93.7500035762788,2|8|2,0:0|1:2|0:0,0:0:0:0:
256,384,40050,5,4,0:3:0:0:
304,288,40237,1,2,0:0:0:0:
256,192,40425,1,8,1:2:0:0:
208,288,40612,1,2,0:0:0:0:
320,384,40800,5,4,1:0:0:0:
192,384,40987,1,4,1:0:0:0:
144,288,41175,5,4,1:0:0:0:
368,288,41362,1,4,1:0:0:0:
416,192,41550,5,2,1:0:0:0:
96,192,41737,1,2,1:2:0:0:
256,0,41925,1,8,1:0:0:0:
304,0,42018,1,2,0:0:0:0:
352,0,42112,1,2,1:2:0:0:
352,48,42206,1,2,0:0:0:0:
352,96,42300,5,2,1:0:0:0:
352,192,42487,1,2,0:0:0:0:
160,192,42675,1,10,1:1:0:0:
160,96,42862,1,2,0:0:0:0:
256,288,43050,5,2,1:0:0:0:
400,288,43238,1,2,0:0:0:0:
400,288,43331,1,2,1:1:0:0:
112,288,43518,1,2,0:0:0:0:
112,288,43611,1,2,1:3:0:0:
160,96,43800,5,2,1:0:0:0:
160,0,43987,1,2,0:0:0:0:
352,0,44175,1,10,1:1:0:0:
352,96,44362,1,2,0:0:0:0:
256,288,44550,5,2,1:0:0:0:
112,288,44738,1,2,0:0:0:0:
112,288,44831,1,2,1:1:0:0:
400,288,45018,1,2,0:0:0:0:
400,288,45111,1,2,1:3:0:0:
128,384,45300,5,2,1:0:0:0:
96,224,45487,1,2,0:0:0:0:
416,224,45675,1,10,1:1:0:0:
384,384,45862,1,2,0:0:0:0:
256,192,46050,5,2,1:0:0:0:
384,0,46238,1,2,0:0:0:0:
416,0,46331,1,2,1:1:0:0:
128,0,46518,1,2,0:0:0:0:
96,0,46611,1,2,1:1:0:0:
416,0,46800,1,2,1:0:0:0:
256,192,46987,5,2,0:0:0:0:
256,192,47080,1,2,0:0:0:0:
256,192,47175,1,8,1:0:0:0:
334,327,47362,5,2,2:0:0:0:
177,327,47549,1,2,1:2:0:0:
99,192,47736,1,2,2:0:0:0:
177,56,47924,1,8,1:0:0:0:
334,56,48111,1,2,2:0:0:0:
413,192,48300,5,2,1:0:0:0:
432,288,48487,1,2,0:0:0:0:
80,288,48675,1,10,1:1:0:0:
99,192,48862,1,2,0:0:0:0:
256,192,49050,5,2,1:0:0:0:
256,32,49237,1,2,0:0:0:0:
256,32,49331,1,2,1:1:0:0:
256,352,49518,1,2,0:0:0:0:
256,352,49612,1,2,1:3:0:0:
99,192,49800,5,2,1:0:0:0:
80,96,49987,1,2,0:0:0:0:
432,96,50175,1,10,1:1:0:0:
413,192,50362,1,2,0:0:0:0:
256,192,50550,5,2,1:0:0:0:
256,352,50737,1,2,0:0:0:0:
256,352,50831,1,2,1:1:0:0:
256,32,51018,1,2,0:0:0:0:
256,32,51112,1,2,1:3:0:0:
112,128,51300,5,2,1:0:0:0:
96,0,51487,1,2,0:0:0:0:
416,0,51675,1,10,1:1:0:0:
400,128,51862,1,2,0:0:0:0:
256,192,52050,5,2,1:0:0:0:
112,272,52237,1,2,0:0:0:0:
112,304,52331,1,2,1:1:0:0:
400,304,52518,1,2,0:0:0:0:
400,272,52612,1,2,1:0:0:0:
256,192,52800,5,2,1:0:0:0:
320,0,52987,1,2,0:0:0:0:
288,16,53081,1,0,0:0:0:0:
256,0,53175,2,0,L|160:0,1,93.7500035762788,2|0,1:3|0:2,0:0:0:0:
112,0,53456,1,0,0:0:0:0:
162,0,53550,2,0,L|258:0,1,93.7500035762788,2|0,3:0|0:0,0:0:0:0:
256,48,53831,1,0,0:0:0:0:
256,96,53925,1,8,1:0:0:0:
256,144,54018,1,2,0:0:0:0:
208,144,54112,1,2,0:0:0:0:
208,192,54206,1,0,0:0:0:0:
160,192,54299,5,6,1:0:0:0:
54,240,54486,1,2,0:0:0:0:
103,343,54674,1,8,0:0:0:0:
209,295,54861,1,2,0:0:0:0:
352,192,55050,5,4,3:0:0:0:
458,240,55237,1,2,0:0:0:0:
409,343,55425,1,8,0:0:0:0:
303,295,55612,1,2,0:0:0:0:
256,192,55800,5,0,1:0:0:0:
128,192,55988,1,2,0:0:0:0:
80,32,56175,1,8,0:0:0:0:
208,32,56363,1,2,0:0:0:0:
256,192,56550,5,4,3:0:0:0:
384,192,56738,1,2,0:0:0:0:
432,32,56925,1,8,0:0:0:0:
304,32,57113,1,2,0:0:0:0:
304,32,57487,5,2,0:0:0:0:
256,192,57675,2,0,L|256:288,1,93.7500035762788,8|0,0:0|0:0,0:0:0:0:
416,336,58050,5,4,3:0:0:0:
256,384,58237,1,2,0:0:0:0:
96,336,58425,1,8,0:0:0:0:
165,192,58612,2,0,L|352:192,1,187.500007152558,2|2,0:0|0:0,0:0:0:0:
304,272,59175,2,0,L|208:272,1,93.7500035762788,8|0,0:0|0:0,0:0:0:0:
96,0,59550,6,0,L|192:0,1,93.7500035762788,2|0,1:2|0:0,0:0:0:0:
320,0,59831,1,2,0:0:0:0:
320,0,59925,2,0,L|413:0,1,93.7500035762788,12|0,0:0|0:0,0:0:0:0:
256,96,60300,5,6,3:0:0:0:
112,112,60487,1,2,0:0:0:0:
256,288,60675,5,8,0:0:0:0:
400,272,60862,1,2,0:0:0:0:
256,96,61050,5,0,1:0:0:0:
400,112,61237,1,2,0:0:0:0:
256,288,61425,5,8,0:0:0:0:
112,272,61612,1,2,0:0:0:0:
112,112,61800,5,6,3:0:0:0:
256,96,61987,1,2,0:0:0:0:
400,112,62175,1,8,0:0:0:0:
400,272,62362,1,2,0:0:0:0:
256,288,62550,1,2,1:2:0:0:
256,96,62737,1,0,0:0:0:0:
256,288,62925,5,8,0:0:0:0:
112,272,63112,1,2,0:0:0:0:
112,272,63488,1,2,0:0:0:0:
32,160,63675,1,8,0:0:0:0:
32,160,63862,1,2,0:0:0:0:
64,16,64050,5,0,1:0:0:0:
256,0,64237,1,2,0:0:0:0:
448,16,64425,1,8,0:0:0:0:
448,192,64612,2,0,B|402:205|402:205|352:192,1,93.7500035762788,2|0,3:1|0:0,0:0:0:0:
64,192,64987,2,0,B|110:205|110:205|160:192,1,93.7500035762788,2|0,3:1|0:0,0:0:0:0:
256,192,65362,1,2,0:0:0:0:
160,80,65550,6,0,L|209:84,1,46.8750017881394,2|0,1:1|0:0,0:0:0:0:
368,96,65737,2,0,L|364:145,1,46.8750017881394,2|0,0:0|0:0,0:0:0:0:
352,304,65925,2,0,L|303:300,1,46.8750017881394,8|0,0:0|0:0,0:0:0:0:
144,288,66112,2,0,L|148:239,1,46.8750017881394,2|0,0:1|0:0,0:0:0:0:
512,384,66300,5,4,1:0:0:0:
0,320,66675,5,4,3:2:0:0:
256,256,66862,5,4,3:2:0:0:
512,192,67050,5,4,3:2:0:0:
256,192,67237,5,4,3:2:0:0:
256,192,67331,5,4,3:2:0:0:
0,192,67612,5,4,3:2:0:0:
512,80,67987,5,4,3:2:0:0:
256,0,68362,5,2,0:0:0:0:
208,96,68550,1,2,0:1:0:0:
256,192,68737,1,2,0:0:0:0:
304,288,68925,1,8,0:0:0:0:
256,384,69112,1,2,0:1:0:0:
0,304,69300,5,4,1:0:0:0:
512,192,69675,5,4,3:2:0:0:
256,128,69862,5,4,3:2:0:0:
0,64,70050,5,4,3:2:0:0:
256,368,70237,5,4,3:2:0:0:
256,368,70331,5,4,3:2:0:0:
352,192,70612,5,4,3:2:0:0:
352,192,70706,1,0,3:0:0:0:
352,192,70799,2,2,L|416:192,1,46.8750017881394,2|2,1:2|0:0,0:0:0:0:
256,96,70987,2,2,L|256:32,1,46.8750017881394
160,192,71175,2,2,L|96:192,1,46.8750017881394,10|2,1:2|0:0,0:0:0:0:
256,288,71363,2,2,L|256:352,1,46.8750017881394
384,384,71550,5,2,1:2:0:0:
352,368,71644,1,2,0:0:0:0:
320,384,71737,1,2,0:0:0:0:
288,368,71831,1,2,0:0:0:0:
256,384,71925,1,10,0:2:0:0:
224,368,72019,1,2,0:0:0:0:
192,384,72112,1,2,0:0:0:0:
160,368,72206,1,2,0:0:0:0:
128,384,72300,6,0,L|121:353,1,25,4|0,0:3|0:0,0:0:0:0:
48,192,72675,2,0,L|55:161,1,25,4|0,0:3|0:0,0:0:0:0:
384,384,73050,2,0,L|391:353,1,25,4|0,0:3|0:0,0:0:0:0:
464,192,73425,2,0,L|457:161,1,25,4|0,0:3|0:0,0:0:0:0:
128,0,73800,6,0,L|121:31,1,25,4|0,0:3|0:0,0:0:0:0:
48,192,74175,2,0,L|55:223,1,25,4|0,0:3|0:0,0:0:0:0:
384,0,74550,2,0,L|391:31,1,25,4|0,0:3|0:0,0:0:0:0:
464,192,74925,2,0,L|457:223,1,25,4|0,0:3|0:0,0:0:0:0:
384,384,75300,6,0,L|391:353,1,25,4|0,0:3|0:0,0:0:0:0:
464,192,75675,2,0,L|457:161,1,25,4|0,0:3|0:0,0:0:0:0:
128,384,76050,2,0,L|121:353,1,25,4|0,0:3|0:0,0:0:0:0:
48,192,76425,2,0,L|55:161,1,25,4|0,0:3|0:0,0:0:0:0:
384,0,76800,6,0,L|391:31,1,25,4|0,0:3|0:0,0:0:0:0:
464,192,77175,2,0,L|457:223,1,25,4|0,0:3|0:0,0:0:0:0:
128,0,77550,2,0,L|121:31,1,25,4|0,0:3|0:0,0:0:0:0:
48,192,77925,1,4,0:3:0:0:
124,384,78112,1,0,3:0:0:0:
124,384,78206,1,0,3:0:0:0:
124,384,78300,2,0,L|117:353,1,25,4|0,0:3|0:0,0:0:0:0:
256,192,78675,6,0,L|256:224,1,25,10|0,0:2|0:0,0:0:0:0:
416,192,79050,1,2,0:3:0:0:
416,31,79237,1,0,0:0:0:0:
256,63,79425,1,10,0:2:0:0:
96,31,79612,6,0,B|64:128|64:128|96:223,1,187.500007152558,2|0,0:0|0:0,0:0:0:0:
256,192,80175,1,10,0:2:0:0:
256,192,80362,1,0,0:0:0:0:
416,352,80550,1,4,0:3:0:0:
256,384,80738,1,0,0:0:0:0:
96,352,80925,1,10,0:2:0:0:
121,192,81112,6,0,B|74:179|74:179|20:196,1,93.7500035762788,2|4,0:0|0:3,0:0:0:0:
391,192,81487,2,0,B|438:179|438:179|492:196,2,93.7500035762788,2|8|2,0:0|1:2|0:0,0:0:0:0:
256,288,82050,5,4,0:3:0:0:
160,192,82237,1,2,0:0:0:0:
256,96,82425,1,8,1:2:0:0:
352,192,82612,1,2,0:0:0:0:
256,327,82800,5,4,1:0:0:0:
176,82,82986,1,4,1:0:0:0:
384,233,83174,1,4,1:0:0:0:
127,233,83361,1,4,1:0:0:0:
335,82,83550,5,2,1:0:0:0:
256,384,83737,1,2,1:2:0:0:
176,82,83925,1,8,1:0:0:0:
206,32,84018,1,2,0:0:0:0:
256,0,84112,1,2,1:2:0:0:
306,32,84206,1,2,0:0:0:0:
336,82,84300,5,2,1:0:0:0:
384,192,84487,1,2,0:0:0:0:
128,192,84675,1,10,1:1:0:0:
80,302,84862,1,2,0:0:0:0:
256,384,85050,5,2,1:0:0:0:
80,302,85238,1,2,3:2:0:0:
80,302,85331,1,2,1:0:0:0:
80,302,85425,2,0,B|90:271|90:271|80:238,1,62.5,10|2,3:2|3:0,0:0:0:0:
80,160,85612,2,0,B|70:129|70:129|80:96,1,62.5,2|2,3:3|3:0,0:0:0:0:
176,16,85800,5,2,1:0:0:0:
256,144,85987,1,2,0:0:0:0:
336,16,86175,1,10,1:0:0:0:
256,192,86362,1,2,0:0:0:0:
256,384,86550,5,2,1:0:0:0:
400,288,86738,1,2,0:0:0:0:
400,288,86831,1,2,1:0:0:0:
400,288,86925,1,8,1:0:0:0:
256,96,87112,1,2,1:0:0:0:
176,302,87300,5,6,1:0:0:0:
128,192,87487,1,2,0:0:0:0:
384,192,87675,1,10,1:0:0:0:
336,302,87862,1,2,0:0:0:0:
256,96,88050,5,2,1:0:0:0:
256,384,88238,1,2,0:0:0:0:
256,384,88331,1,2,1:0:0:0:
256,384,88425,2,0,L|256:320,1,62.5,8|0,1:0|0:0,0:0:0:0:
256,192,88612,1,2,1:0:0:0:
256,0,88800,5,2,1:0:0:0:
256,192,88987,1,2,3:0:0:0:
256,192,89081,1,2,3:0:0:0:
256,192,89175,1,8,1:0:0:0:
170,340,89362,5,2,2:0:0:0:
342,340,89549,1,2,1:2:0:0:
428,192,89736,1,2,2:0:0:0:
342,42,89924,1,8,1:0:0:0:
170,42,90111,1,2,2:0:0:0:
83,192,90300,5,2,1:0:0:0:
62,297,90487,1,2,0:0:0:0:
449,297,90675,1,10,1:1:0:0:
428,192,90862,1,2,0:0:0:0:
256,0,91050,5,2,1:0:0:0:
432,82,91238,1,2,3:2:0:0:
432,82,91331,1,2,1:0:0:0:
432,82,91425,2,0,B|442:102|421:123|432:142,1,62.5,10|2,3:2|3:0,0:0:0:0:
432,224,91612,2,0,B|421:244|442:265|432:284,1,62.5,2|2,3:3|3:0,0:0:0:0:
384,384,91800,5,2,1:0:0:0:
336,288,91987,1,2,0:0:0:0:
176,288,92175,1,10,1:0:0:0:
128,384,92362,1,2,0:0:0:0:
256,192,92550,5,2,1:0:0:0:
256,384,92737,1,2,0:0:0:0:
256,384,92830,1,2,1:0:0:0:
256,384,92924,1,8,1:0:0:0:
256,192,93111,1,2,1:3:0:0:
352,304,93300,5,6,1:0:0:0:
409,172,93487,1,2,0:0:0:0:
102,172,93675,1,10,1:0:0:0:
160,304,93862,1,2,0:0:0:0:
256,56,94050,5,2,1:0:0:0:
256,384,94237,1,2,0:0:0:0:
256,384,94331,1,2,1:0:0:0:
256,384,94425,2,0,B|256:322,1,62.5,8|0,1:0|0:0,0:0:0:0:
256,192,94612,1,2,1:0:0:0:
128,64,94800,5,2,1:0:0:0:
192,0,94987,1,2,0:0:0:0:
224,16,95081,1,0,0:0:0:0:
256,0,95175,2,0,L|352:0,1,93.7500035762788,2|0,1:3|0:0,0:0:0:0:
400,0,95456,1,0,0:0:0:0:
350,0,95550,2,0,L|254:0,1,93.7500035762788,2|0,3:0|0:0,0:0:0:0:
256,48,95831,1,0,0:0:0:0:
256,96,95925,1,8,1:0:0:0:
256,144,96018,1,2,0:0:0:0:
304,144,96112,1,2,0:0:0:0:
304,192,96206,1,0,0:0:0:0:
352,192,96300,5,6,1:0:0:0:
352,208,96393,1,0,1:0:0:0:
352,224,96487,1,0,1:0:0:0:
352,240,96581,1,0,1:0:0:0:
352,256,96675,1,0,1:0:0:0:
160,0,97050,5,2,3:2:0:0:
160,0,97425,1,2,3:2:0:0:
352,0,97612,1,2,3:2:0:0:
256,0,97800,6,2,B|267:21|267:21|256:31|256:31|246:42|246:42|256:52|256:52|267:63|267:63|256:73|256:73|246:84|246:84|256:94|256:94|267:105|267:105|256:115|256:115|246:126|246:126|256:136,1,187.5,2|0,1:1|0:0,0:1:0:0:
256,240,98550,5,2,3:0:0:0:
192,320,98737,1,2,0:0:0:0:
256,384,98925,1,2,3:0:0:0:
320,320,99112,1,2,0:0:0:0:
160,192,99300,5,0,1:0:0:0:
160,208,99393,1,0,1:0:0:0:
160,224,99487,1,0,1:0:0:0:
160,240,99581,1,0,1:0:0:0:
160,256,99675,1,0,1:0:0:0:
256,144,100237,5,2,0:0:0:0:
192,64,100424,1,2,3:2:0:0:
320,64,100612,1,2,3:2:0:0:
256,0,100800,5,0,1:0:0:0:
256,8,100893,1,0,1:0:0:0:
256,16,100987,1,0,1:0:0:0:
256,24,101081,1,0,1:0:0:0:
256,32,101175,1,0,1:0:0:0:
256,16,101550,5,0,1:0:0:0:
256,32,101643,1,0,1:0:0:0:
256,48,101737,1,0,1:0:0:0:
256,64,101831,1,0,1:0:0:0:
256,80,101925,1,0,1:0:0:0:
256,192,102112,1,2,0:0:0:0:
256,304,102300,5,0,1:0:0:0:
256,320,102394,1,0,1:0:0:0:
256,336,102488,1,0,1:0:0:0:
256,352,102582,1,0,1:0:0:0:
256,368,102675,1,0,1:0:0:0:
16,192,103050,5,2,3:0:0:0:
96,144,103237,1,2,0:0:0:0:
176,192,103425,1,2,3:0:0:0:
256,144,103612,1,0,3:0:0:0:
256,144,103706,1,0,3:0:0:0:
256,144,103800,1,4,3:0:0:0:
336,192,103987,1,4,3:0:0:0:
416,144,104175,1,4,3:0:0:0:
416,144,104268,1,4,3:0:0:0:
496,192,104550,5,2,3:0:0:0:
416,144,104737,1,2,0:0:0:0:
336,192,104925,1,2,3:0:0:0:
256,144,105112,1,2,0:0:0:0:
16,192,105300,5,0,1:0:0:0:
56,163,105393,1,0,1:0:0:0:
96,144,105487,1,0,1:0:0:0:
139,163,105581,1,0,1:0:0:0:
176,192,105675,1,0,1:0:0:0:
256,0,106237,5,2,0:0:0:0:
256,96,106425,1,2,3:2:0:0:
256,192,106612,1,2,0:0:0:0:
384,272,106800,5,0,1:0:0:0:
413,235,106894,1,0,1:0:0:0:
432,192,106988,1,0,1:0:0:0:
413,152,107082,1,0,1:0:0:0:
384,112,107175,1,0,1:0:0:0:
256,192,107362,1,2,0:0:0:0:
128,272,107550,5,0,1:0:0:0:
99,235,107644,1,0,1:0:0:0:
80,192,107738,1,0,1:0:0:0:
99,152,107832,1,0,1:0:0:0:
128,112,107925,1,0,1:0:0:0:
256,192,108300,5,4,0:0:0:0:
256,192,108393,12,0,109612,0:0:0:0:
16,368,109800,5,2,0:0:0:0:
16,288,110081,1,2,0:0:0:0:
96,288,110362,1,2,0:0:0:0:
176,288,110643,1,2,0:0:0:0:
256,288,110925,1,2,0:0:0:0:
336,288,111112,1,2,0:0:0:0:
416,288,111300,1,2,0:0:0:0:
496,288,111581,1,2,0:0:0:0:
496,368,111862,2,0,L|496:352,2,15.625,2|0|0,0:0|0:0|0:0,0:0:0:0:
496,288,112050,5,2,0:3:0:0:
435,272,112143,1,2,0:3:0:0:
375,288,112237,1,2,0:3:0:0:
314,272,112331,1,2,0:3:0:0:
256,293,112425,1,2,0:3:0:0:
198,272,112518,1,2,0:3:0:0:
140,293,112612,1,2,0:3:0:0:
82,272,112706,1,2,0:3:0:0:
24,293,112800,6,0,L|24:165,1,125,4|0,1:0|0:0,0:0:0:0:
192,0,113081,1,2,0:0:0:0:
192,0,113175,2,0,L|320:0,1,125,8|0,1:0|2:2,1:0:0:0:
488,168,113550,1,0,1:0:0:0:
488,293,113737,1,2,0:0:0:0:
488,168,113925,1,8,1:0:0:0:
317,0,114112,6,0,L|192:0,1,125,0|0,0:0|1:0,0:0:0:0:
24,168,114487,1,0,3:0:0:0:
24,231,114581,1,0,3:0:0:0:
24,293,114675,1,8,1:0:0:0:
24,293,114862,1,0,0:0:0:0:
256,384,115050,6,0,L|256:352,1,31.25,2|0,1:2|0:0,0:0:0:0:
256,320,115237,2,0,L|256:288,1,31.25,2|0,0:0|0:0,0:0:0:0:
256,256,115425,1,8,1:0:0:0:
256,224,115518,1,2,3:2:0:0:
256,192,115612,2,0,L|256:128,1,62.5,2|0,3:2|0:0,0:0:0:0:
256,67,115800,5,4,1:0:0:0:
144,0,115987,1,2,0:0:0:0:
256,67,116175,2,0,L|256:192,1,125,8|0,1:0|0:0,0:0:0:0:
368,0,116550,5,0,1:0:0:0:
384,112,116737,1,2,0:0:0:0:
128,112,116925,1,8,1:0:0:0:
144,0,117112,2,0,L|224:0,1,62.5,0|0,3:0|3:0,0:0:0:0:
256,64,117300,6,0,L|256:189,1,125,0|0,1:0|0:0,0:0:0:0:
256,384,117581,1,2,0:0:0:0:
256,384,117675,2,0,L|256:259,1,125,8|0,1:0|0:0,0:0:0:0:
448,192,118050,5,2,1:0:0:0:
400,160,118143,1,2,0:0:0:0:
352,192,118237,1,2,0:0:0:0:
304,160,118331,1,2,0:0:0:0:
256,192,118425,1,10,1:0:0:0:
208,160,118518,1,2,0:0:0:0:
160,192,118612,2,0,B|141:164|141:164|101:149,1,62.5,2|0,0:0|0:0,0:0:0:0:
64,192,118800,6,0,L|64:67,1,125,4|0,1:0|0:0,0:0:0:0:
448,67,119175,2,0,L|448:192,1,125,8|0,1:0|0:0,0:0:0:0:
256,384,119550,6,0,L|235:346,1,31.25,0|0,1:0|0:0,0:0:0:0:
256,320,119737,1,2,0:0:0:0:
272,288,119831,1,2,0:0:0:0:
256,256,119925,1,8,1:1:0:0:
240,224,120018,1,2,0:0:0:0:
256,192,120112,2,0,B|288:128|224:64|256:-16,1,187.5,2|2,0:0|0:0,0:0:0:0:
249,7,120487,1,0,3:0:0:0:
249,7,120580,1,0,3:0:0:0:
249,7,120675,1,8,1:0:0:0:
384,192,120862,5,2,0:0:0:0:
336,304,121049,1,0,1:0:0:0:
448,352,121237,1,2,0:0:0:0:
128,192,121425,5,8,1:0:0:0:
176,304,121612,1,2,0:0:0:0:
64,352,121800,1,4,1:0:0:0:
176,304,121987,1,2,0:0:0:0:
256,384,122175,1,8,1:0:0:0:
448,352,122362,5,2,0:0:0:0:
384,192,122550,1,0,1:0:0:0:
128,192,122737,1,2,0:0:0:0:
64,352,122925,1,8,1:0:0:0:
256,384,123112,1,0,3:0:0:0:
256,384,123206,1,0,3:0:0:0:
256,320,123300,6,0,L|256:195,1,125,0|0,1:0|0:0,0:0:0:0:
256,0,123581,1,0,3:2:0:0:
256,0,123675,2,0,L|256:125,1,125,8|0,1:0|0:0,0:0:0:0:
332,256,124050,5,2,1:0:0:0:
273,290,124143,1,2,0:0:0:0:
205,279,124237,1,2,0:0:0:0:
161,226,124331,1,2,0:0:0:0:
161,157,124425,1,10,1:0:0:0:
205,104,124518,1,2,0:0:0:0:
273,93,124612,1,2,0:0:0:0:
332,127,124706,1,2,0:0:0:0:
356,192,124800,5,2,1:0:0:0:
464,160,124987,1,2,0:0:0:0:
156,192,125175,1,10,1:1:0:0:
48,160,125362,1,2,0:0:0:0:
256,0,125550,5,2,1:0:0:0:
256,384,125737,1,2,3:0:0:0:
288,320,125831,1,2,1:0:0:0:
256,256,125925,1,8,1:0:0:0:
224,192,126018,1,2,3:0:0:0:
256,128,126112,1,2,1:3:0:0:
288,64,126205,1,2,3:3:0:0:
256,0,126300,5,2,1:0:0:0:
224,192,126487,1,2,0:0:0:0:
422,288,126675,5,10,1:0:0:0:
272,164,126862,1,2,0:0:0:0:
89,288,127050,5,2,1:0:0:0:
272,219,127237,1,2,0:0:0:0:
272,219,127331,1,2,1:0:0:0:
272,219,127425,1,8,1:0:0:0:
256,384,127612,1,2,1:3:0:0:
448,192,127799,5,2,1:0:0:0:
256,48,127987,1,2,0:0:0:0:
64,192,128175,1,10,1:0:0:0:
256,336,128363,1,2,0:0:0:0:
64,192,128550,5,2,1:0:0:0:
256,48,128737,1,2,0:0:0:0:
256,48,128831,1,2,1:0:0:0:
256,48,128925,1,8,1:0:0:0:
448,192,129112,1,2,1:0:0:0:
256,336,129300,5,2,1:0:0:0:
256,192,129487,1,2,3:0:0:0:
256,192,129581,1,2,3:0:0:0:
256,192,129675,1,8,1:0:0:0:
176,301,129862,5,2,2:0:0:0:
255,55,130050,1,2,1:2:0:0:
335,300,130236,1,2,2:0:0:0:
127,149,130425,1,8,1:0:0:0:
384,149,130612,1,2,2:0:0:0:
144,48,130800,5,2,1:0:0:0:
36,16,130987,1,2,0:0:0:0:
476,16,131175,1,10,1:1:0:0:
368,48,131362,1,2,0:0:0:0:
256,384,131550,5,2,1:0:0:0:
256,0,131737,1,2,3:0:0:0:
224,64,131831,1,2,1:0:0:0:
256,128,131925,1,8,1:0:0:0:
288,192,132018,1,2,3:0:0:0:
256,256,132112,1,2,1:3:0:0:
224,320,132205,1,2,3:3:0:0:
256,384,132300,5,2,1:0:0:0:
288,192,132487,1,2,0:0:0:0:
90,96,132675,5,10,1:0:0:0:
240,220,132862,1,2,0:0:0:0:
423,96,133050,5,2,1:0:0:0:
240,165,133237,1,2,0:0:0:0:
240,165,133331,1,2,1:0:0:0:
240,165,133425,1,8,1:0:0:0:
256,0,133612,1,2,1:3:0:0:
417,93,133800,5,6,1:0:0:0:
417,277,133986,1,2,3:0:0:0:
417,277,134081,1,2,3:0:0:0:
417,277,134175,1,10,1:0:0:0:
256,370,134362,1,2,3:0:0:0:
256,370,134456,1,2,3:0:0:0:
256,370,134550,5,2,1:0:0:0:
96,277,134831,1,2,3:0:0:0:
96,277,134925,1,10,1:0:0:0:
96,93,135111,1,2,1:0:0:0:
256,0,135299,5,2,1:0:0:0:
256,192,135487,1,2,0:3:0:0:
256,192,135581,1,2,0:3:0:0:
256,192,135675,5,2,3:3:0:0:
319,218,135768,1,2,3:3:0:0:
345,283,135862,1,2,3:3:0:0:
319,346,135956,1,2,3:3:0:0:
256,373,136050,1,2,3:2:0:0:
192,346,136143,1,2,3:2:0:0:
165,282,136237,1,2,3:2:0:0:
192,218,136331,1,2,3:2:0:0:
256,192,136425,6,2,L|256:160,6,31.25,2|2|2|2|2|2|2,0:3|0:3|0:3|0:3|0:3|0:3|0:3,0:0:0:0:
256,192,136800,5,4,1:0:0:0:
512,0,137175,2,0,L|496:96,1,93.7500035762788,8|0,1:0|0:0,0:0:0:0:
392,52,137550,5,0,1:0:0:0:
456,196,137737,1,0,3:0:0:0:
496,92,137925,1,2,1:3:0:0:
351,156,138112,1,0,3:0:0:0:
256,93,138300,2,0,B|243:49|243:49|256:0,1,93.7500035762788,0|0,1:0|0:0,0:0:0:0:
0,0,138675,6,0,L|16:96,1,93.7500035762788,10|0,1:0|0:0,0:0:0:0:
120,52,139050,1,0,1:0:0:0:
56,196,139237,1,0,3:0:0:0:
16,92,139425,1,2,1:3:0:0:
161,156,139612,1,0,3:0:0:0:
256,93,139800,2,0,B|269:49|269:49|256:0,1,93.7500035762788,4|0,1:0|0:0,0:0:0:0:
256,192,140175,1,8,1:0:0:0:
256,192,140362,1,0,3:0:0:0:
160,320,140550,5,0,1:0:0:0:
256,192,140738,1,0,3:0:0:0:
352,320,140925,1,2,1:3:0:0:
256,192,141112,2,0,B|288:256|224:320|256:379,1,187.500007152558,2|0,0:0|0:0,0:0:0:0:
254,375,141675,1,2,2:2:0:0:
256,0,142050,5,2,0:0:0:0:
256,96,142425,1,2,0:0:0:0:
256,192,142800,1,4,0:0:0:0:
128,96,143362,5,2,0:0:0:0:
160,64,143455,1,0,0:0:0:0:
128,32,143550,1,2,0:0:0:0:
0,64,143737,1,0,0:0:0:0:
128,32,143925,1,2,0:0:0:0:
256,0,144112,1,2,0:0:0:0:
384,96,144862,5,2,0:0:0:0:
352,64,144955,1,0,0:0:0:0:
384,32,145050,1,2,0:0:0:0:
512,64,145237,1,0,0:0:0:0:
384,32,145425,1,2,0:0:0:0:
256,0,145612,1,2,0:0:0:0:
384,288,146362,5,2,0:0:0:0:
352,320,146455,1,0,0:0:0:0:
384,352,146550,1,2,0:0:0:0:
512,320,146737,1,0,0:0:0:0:
384,352,146925,1,2,0:0:0:0:
256,384,147112,1,2,0:0:0:0:
256,384,148050,5,2,0:0:0:0:
256,288,148425,1,2,0:0:0:0:
256,192,148800,1,2,0:0:0:0:
128,288,149362,5,2,0:0:0:0:
160,320,149455,1,0,0:0:0:0:
128,352,149550,2,0,L|64:352,2,62.5,2|0|2,0:0|0:0|0:0,0:0:0:0:
256,384,150112,1,2,0:0:0:0:
384,288,150862,5,2,0:0:0:0:
352,320,150955,1,0,0:0:0:0:
384,352,151050,2,0,L|448:352,2,62.5,2|0|2,0:0|0:0|0:0,0:0:0:0:
256,384,151612,1,2,0:0:0:0:
384,96,152362,5,2,0:0:0:0:
352,64,152455,1,0,0:0:0:0:
384,32,152550,2,0,L|448:32,2,62.5,2|0|2,0:0|0:0|0:0,0:0:0:0:
256,0,153112,6,0,B|256:96|256:96|259:106|259:106|252:119|252:119|259:132|259:132|252:142|252:142|256:160|256:160|256:192,1,187.5,2|0,0:0|0:0,0:0:0:0:
