osu file format v14

[General]
AudioFilename: audio.mp3
AudioLeadIn: 0
PreviewTime: 41550
Countdown: 0
SampleSet: Soft
StackLeniency: 0.3
Mode: 0
LetterboxInBreaks: 0
WidescreenStoryboard: 1

[Editor]
DistanceSpacing: 1
BeatDivisor: 4
GridSize: 4
TimelineZoom: 2.599999

[Metadata]
Title:Go (Nightcore Mix)
TitleUnicode:Go (Nightcore Mix)
Artist:McClain Sisters
ArtistUnicode:McClain Sisters
Creator:AJT
Version:Bloxi's Normal
Source:
Tags:english electropop electronic dance pop a.n.t. ant farm black disney channel china anne lauryn sierra aranel sonnyc bloxi
BeatmapID:3364766
BeatmapSetID:1643400

[Difficulty]
HPDrainRate:3
CircleSize:4
OverallDifficulty:5
ApproachRate:6
SliderMultiplier:1.2
SliderTickRate:1

[Events]
//Background and Video events
0,0,"go.jpg",0,0
//Break Periods
2,30500,34500
2,72312,76500
//Storyboard Layer 0 (Background)
//Storyboard Layer 1 (Fail)
//Storyboard Layer 2 (Pass)
//Storyboard Layer 3 (Foreground)
//Storyboard Layer 4 (Overlay)
//Storyboard Sound Samples

[TimingPoints]
300,375,4,2,1,40,1,0
300,-133.333333333333,4,2,1,40,0,0
6300,-133.333333333333,4,2,1,50,0,0
9300,-117.647058823529,4,2,1,50,0,0
35550,-133.333333333333,4,2,1,50,0,0
42300,-100,4,2,1,70,0,1
54300,-117.647058823529,4,2,1,50,0,0
77550,-133.333333333333,4,2,1,50,0,0
84300,-100,4,2,1,70,0,1
96300,-100,4,2,1,50,0,0
112800,-100,4,2,1,70,0,0
124800,-90.9090909090909,4,2,1,80,0,1
136800,-90.9090909090909,4,2,1,60,0,0
142800,-90.9090909090909,4,2,1,50,0,0
143362,-117.647058823529,4,2,1,50,0,0
148800,-133.333333333333,4,2,1,40,0,0
153112,-200,4,2,1,40,0,0
153675,-200,4,2,1,40,0,0

[Colours]
Combo1 : 128,128,255
Combo2 : 179,255,179
Combo3 : 255,60,60
Combo4 : 85,0,170

[HitObjects]
256,192,300,5,4,0:0:0:0:
180,88,862,5,2,0:0:0:0:
180,88,1050,2,0,C|175:66|180:44,2,45.0000017166138,2|0|2,0:0|0:0|0:0,0:0:0:0:
188,132,1612,1,2,0:0:0:0:
332,88,2363,5,2,0:0:0:0:
332,88,2550,2,0,C|337:66|332:44,2,45.0000017166138,2|0|2,0:0|0:0|0:0,0:0:0:0:
324,132,3113,1,2,0:0:0:0:
256,300,3862,5,2,0:0:0:0:
256,300,4050,2,0,C|204:300,2,45.0000017166138,2|0|2,0:0|0:0|0:0,0:0:0:0:
300,300,4612,1,2,0:0:0:0:
324,76,5550,5,2,0:0:0:0:
256,16,5925,1,2,0:0:0:0:
188,76,6300,1,2,3:2:0:0:
256,192,6393,12,2,8550,3:2:0:0:
184,196,9300,5,4,3:0:0:0:
184,196,9487,2,0,C|192:244|232:280,1,102.000001945496,8|2,3:0|3:3,0:0:0:0:
281,279,10050,2,0,C|320:243|328:195,1,102.000001945496,4|2,3:0|0:0,0:0:0:0:
304,152,10612,2,2,C|256:136|208:152,2,102.000001945496,10|10|10,0:0|0:0|0:0,0:0:0:0:
328,195,11550,1,2,0:3:0:0:
420,152,11925,1,2,0:0:0:0:
484,232,12300,6,0,B|510:330,1,102.000001945496,6|8,1:0|0:0,0:0:0:0:
420,372,13050,2,0,B|393:273,1,102.000001945496,4|8,3:0|0:0,0:0:0:0:
328,195,13800,1,0,1:0:0:0:
393,110,14175,2,0,B|420:12,1,102.000001945496,8|4,0:0|3:0,0:0:0:0:
510,53,14925,1,8,0:0:0:0:
510,53,15112,2,0,B|484:152,1,102.000001945496,2|2,0:0|0:0,0:0:0:0:
304,192,16050,6,0,C|256:208|208:192,2,102.000001945496,4|8|0,3:0|0:0|1:0,0:0:0:0:
380,120,17175,1,8,0:0:0:0:
308,48,17550,1,2,1:2:0:0:
204,48,17925,1,8,0:0:0:0:
132,120,18300,6,0,C|96:152|36:152,2,102.000001945496,6|8|0,3:0|0:0|1:0,0:0:0:0:
200,192,19425,1,8,0:0:0:0:
132,264,19800,2,0,C|96:232|36:232,2,102.000001945496,6|8|2,3:0|0:0|1:2,0:0:0:0:
204,196,20925,1,8,0:0:0:0:
204,196,21112,2,0,B|240:188|256:144|256:144|272:188|308:196,1,153.000002918243,2|8,0:0|0:0,0:0:0:0:
380,264,22050,5,0,1:0:0:0:
312,340,22425,1,8,0:0:0:0:
312,340,22612,2,0,B|276:348|256:388|256:388|236:348|200:340,1,153.000002918243,2|8,0:0|0:0,0:0:0:0:
132,264,23550,1,2,1:1:0:0:
200,192,23925,1,8,0:0:0:0:
132,120,24300,6,0,C|120:72|136:12,2,102.000001945496,6|4|4,1:0|3:2|3:2,0:0:0:0:
224,76,25425,2,0,C|256:116|288:76,1,102.000001945496,0|2,1:0|1:0,0:0:0:0:
379,21,26175,1,0,1:0:0:0:
476,52,26550,1,2,0:1:0:0:
432,144,26925,6,0,C|416:192|432:240,1,102.000001945496,8|6,0:0|1:0,0:0:0:0:
476,332,27675,1,4,3:2:0:0:
379,363,28050,1,4,3:2:0:0:
286,305,28425,2,0,C|256:268|224:308,1,102.000001945496,0|2,1:0|1:2,0:0:0:0:
192,356,28987,1,2,0:0:0:0:
192,356,29175,1,10,1:2:0:0:
137,367,29362,2,2,C|84:364|40:328,1,102.000001945496
16,288,29925,1,10,0:2:0:0:
76,192,30300,5,4,0:3:0:0:
168,304,35550,6,0,C|212:317,1,45.0000017166138,4|0,0:3|0:0,0:0:0:0:
256,328,35924,1,4,0:3:0:0:
301,316,36112,2,0,C|344:300|360:248,1,90.0000034332277,2|2,0:0|0:0,0:0:0:0:
357,124,37050,2,0,C|343:80|300:64,1,90.0000034332277,2|10,0:3|0:2,0:0:0:0:
256,56,37612,1,2,0:0:0:0:
207,65,37800,2,0,C|168:80|154:124,1,90.0000034332277,4|10,0:3|0:2,0:0:0:0:
92,192,38550,5,4,0:3:0:0:
162,266,38925,1,10,0:2:0:0:
162,266,39112,1,2,0:0:0:0:
162,266,39300,2,0,B|200:280|200:280|208:332,1,90.0000034332277,4|8,0:3|1:2,0:0:0:0:
304,328,40050,2,0,B|312:280|312:280|350:266,1,90.0000034332277,4|8,0:3|1:2,0:0:0:0:
420,192,40800,6,0,C|476:192,2,45.0000017166138,4|4|4,1:0|1:0|1:0,0:0:0:0:
384,156,41362,1,4,1:0:0:0:
350,118,41550,2,0,B|301:118,1,45.0000017166138,2|2,1:0|1:2,0:0:0:0:
256,118,41925,2,0,B|210:118,1,45.0000017166138,8|2,1:0|1:2,0:0:0:0:
162,118,42300,6,0,C|152:172|92:192,1,120,2|10,1:0|1:1,0:0:0:0:
120,308,43050,2,0,C|220:320,1,90,2|2,1:0|1:1,0:0:0:0:
303,318,43612,1,2,1:3:0:0:
303,318,43800,2,0,C|422:307,1,120,2|10,1:0|1:1,0:0:0:0:
404,192,44550,6,0,C|364:176|320:192,1,90,2|2,1:0|1:1,0:0:0:0:
256,136,45112,1,2,1:3:0:0:
256,136,45300,2,0,C|256:16,1,120,2|10,1:0|1:1,0:0:0:0:
136,32,46050,1,2,1:0:0:0:
80,104,46331,1,2,1:1:0:0:
112,196,46612,1,2,1:1:0:0:
112,196,46800,2,0,C|148:244|204:264,1,120,2|8,1:0|1:0,0:0:0:0:
256,292,47362,5,2,2:0:0:0:
309,263,47550,2,0,C|365:243|401:195,1,120,2|8,1:2|1:0,0:0:0:0:
388,76,48300,2,0,C|364:32|292:32,1,120,2|10,1:0|1:1,0:0:0:0:
256,148,49050,2,0,C|256:240,1,90,2|2,1:0|1:1,0:0:0:0:
218,321,49612,1,2,1:3:0:0:
218,321,49800,2,0,C|150:321|126:276,1,120,2|10,1:0|1:1,0:0:0:0:
40,192,50550,6,0,C|130:192,1,90,2|2,1:0|1:1,0:0:0:0:
126,108,51112,1,2,1:3:0:0:
126,108,51300,2,0,C|150:64|218:64,1,120,2|10,1:0|1:1,0:0:0:0:
256,180,52050,6,0,C|256:272,1,90,2|2,1:0|1:1,0:0:0:0:
260,364,52612,1,2,1:0:0:0:
260,364,52800,1,2,1:0:0:0:
140,324,53175,2,0,C|96:299|96:228,1,120,2|2,1:3|3:0,0:0:0:0:
144,124,53925,2,0,C|208:124,1,60,8|2,1:0|0:0,0:0:0:0:
256,124,54300,1,6,1:0:0:0:
368,124,54675,5,8,0:0:0:0:
256,124,55050,2,0,C|256:228,1,102.000001945496,4|8,3:0|0:0,0:0:0:0:
256,328,55800,1,0,1:0:0:0:
355,297,56175,2,0,C|403:281|431:237,1,102.000001945496,8|4,0:0|3:0,0:0:0:0:
452,192,56737,1,2,0:0:0:0:
430,146,56925,2,0,C|403:104|355:88,2,102.000001945496,8|0|8,0:0|1:0|0:0,0:0:0:0:
336,192,58050,5,4,3:0:0:0:
336,192,58237,1,2,0:0:0:0:
336,192,58425,2,0,L|228:192,1,102.000001945496,8|4,0:0|0:3,0:0:0:0:
132,192,59175,1,8,0:0:0:0:
40,232,59550,2,0,B|32:212|8:192|8:192|32:172|40:152,2,102.000001945496,2|12|6,1:2|0:0|3:0,0:0:0:0:
132,280,60675,5,8,0:0:0:0:
208,348,61050,2,0,C|256:364|304:348,1,102.000001945496,0|8,1:0|0:0,0:0:0:0:
380,280,61800,1,6,3:0:0:0:
472,232,62175,2,0,B|480:212|504:192|504:192|480:172|472:152,1,102.000001945496,8|2,0:0|1:2,0:0:0:0:
384,108,62925,5,8,0:0:0:0:
384,108,63112,1,2,0:0:0:0:
304,36,63487,2,0,C|256:20|208:36,1,102.000001945496,2|2,0:0|0:0,0:0:0:0:
160,60,64050,1,0,1:0:0:0:
96,140,64425,1,8,0:0:0:0:
96,140,64612,2,0,C|80:188|96:236,1,102.000001945496,2|2,3:1|3:1,0:0:0:0:
152,336,65362,5,2,0:0:0:0:
152,336,65550,2,0,L|216:336,1,51.0000009727478,2|2,1:1|0:0,0:0:0:0:
256,336,65925,2,0,L|320:336,1,51.0000009727478,8|2,0:0|0:1,0:0:0:0:
360,336,66300,1,4,1:0:0:0:
419,247,66675,1,4,3:2:0:0:
419,247,66862,1,4,3:2:0:0:
419,247,67050,2,0,C|435:199|419:151,1,102.000001945496,4|0,3:2|1:0,0:0:0:0:
392,108,67612,1,4,3:2:0:0:
308,52,67987,1,4,3:2:0:0:
208,56,68362,5,2,0:0:0:0:
208,56,68550,2,0,L|96:56,1,102.000001945496,2|8,0:1|0:0,0:0:0:0:
36,128,69300,1,4,1:0:0:0:
128,192,69675,1,4,3:2:0:0:
128,192,69862,1,4,3:2:0:0:
128,192,70050,2,0,L|232:192,1,102.000001945496,4|0,3:2|1:0,0:0:0:0:
282,192,70612,2,0,L|456:192,1,153.000002918243,4|10,3:2|1:2,0:0:0:0:
468,292,71550,2,2,L|348:292,1,102.000001945496,2|10,1:2|0:2,0:0:0:0:
316,292,72112,5,2,0:0:0:0:
344,64,77550,6,0,C|292:64,1,45.0000017166138,4|0,0:3|0:0,0:0:0:0:
256,48,77924,1,4,0:3:0:0:
213,64,78112,2,0,B|170:80|170:80|154:132,1,90.0000034332277,0|2,3:0|0:0,0:0:0:0:
157,262,79050,2,0,B|169:304|169:304|212:320,1,90.0000034332277,2|10,0:3|0:2,0:0:0:0:
256,336,79612,1,0,0:0:0:0:
299,320,79800,2,0,B|342:304|342:304|355:262,1,90.0000034332277,4|10,0:3|0:2,0:0:0:0:
420,192,80550,5,4,0:3:0:0:
336,162,80925,1,10,0:2:0:0:
336,162,81112,1,2,0:0:0:0:
336,162,81300,2,0,B|300:79,1,90.0000034332277,4|8,0:3|1:2,0:0:0:0:
256,68,81862,1,2,0:0:0:0:
212,80,82050,2,0,B|176:164,1,90.0000034332277,4|8,0:3|1:2,0:0:0:0:
92,192,82800,6,0,C|36:192,2,45.0000017166138,4|4|4,1:0|1:0|1:0,0:0:0:0:
128,228,83362,1,4,1:0:0:0:
162,266,83550,2,0,B|211:266,1,45.0000017166138,2|2,1:0|1:2,0:0:0:0:
256,266,83925,2,0,B|302:266,1,45.0000017166138,8|2,1:0|1:2,0:0:0:0:
350,266,84300,6,0,B|384:228|384:228|464:228,1,120,2|10,1:0|1:1,0:0:0:0:
392,124,85050,2,0,C|292:112,1,90,2|2,1:0|1:0,0:0:0:0:
209,114,85612,1,2,3:3:0:0:
209,114,85800,2,0,C|90:125,1,120,2|10,1:0|1:0,0:0:0:0:
80,244,86550,6,0,C|120:260|164:244,1,90,2|2,1:0|1:0,0:0:0:0:
256,264,87112,1,2,1:0:0:0:
256,264,87300,2,0,C|256:388,2,120,6|10|2,1:0|1:0|1:0,0:0:0:0:
349,244,88331,1,2,1:0:0:0:
400,172,88612,1,2,1:0:0:0:
400,172,88800,2,0,C|364:124|308:104,1,120,2|8,1:0|1:0,0:0:0:0:
256,76,89362,5,2,2:0:0:0:
203,105,89550,2,0,C|147:125|111:173,1,120,2|8,1:2|1:0,0:0:0:0:
124,308,90300,2,0,B|144:352|144:352|216:352,1,120,2|10,1:0|1:1,0:0:0:0:
256,236,91050,2,0,C|256:144,1,90,2|2,1:0|1:0,0:0:0:0:
294,63,91612,1,2,3:3:0:0:
294,63,91800,2,0,B|366:63|366:63|386:107,1,120,2|10,1:0|1:0,0:0:0:0:
472,192,92550,6,0,C|382:192,1,90,2|2,1:0|1:0,0:0:0:0:
386,276,93112,1,2,1:3:0:0:
386,276,93300,2,0,B|366:320|366:320|294:321,1,120,6|10,1:0|1:0,0:0:0:0:
256,204,94050,6,0,C|256:112,1,90,2|2,1:0|1:0,0:0:0:0:
260,28,94612,1,2,1:0:0:0:
260,28,94800,1,2,1:0:0:0:
140,60,95175,2,0,C|96:85|96:156,1,120,2|2,1:3|3:0,0:0:0:0:
136,264,95925,2,0,C|196:264,1,60,8|2,1:0|0:0,0:0:0:0:
256,264,96300,2,0,C|316:264,1,60,6|0,1:0|1:0,0:0:0:0:
380,264,96675,1,0,1:0:0:0:
256,264,97050,6,0,C|256:392,1,120,2|2,3:2|3:2,0:0:0:0:
136,348,97800,2,2,C|96:312|89:247,2,120,2|0|2,1:1|0:0|3:0,0:1:0:0:
256,384,98925,1,2,3:0:0:0:
376,348,99300,1,0,1:0:0:0:
420,304,99487,1,0,1:0:0:0:
423,247,99675,1,0,1:0:0:0:
422,136,100050,6,0,C|416:72|376:36,1,120,0|2,1:0|3:2,0:0:0:0:
312,136,100800,1,0,1:0:0:0:
200,136,101175,1,0,1:0:0:0:
89,136,101550,2,0,C|96:72|136:36,1,120,0|0,1:0|1:0,0:0:0:0:
200,136,102300,1,0,1:0:0:0:
256,160,102487,1,0,1:0:0:0:
312,136,102675,1,0,1:0:0:0:
376,36,103050,6,0,C|416:72|422:136,1,120,2|2,3:0|3:0,0:0:0:0:
422,247,103800,2,0,C|416:312|376:348,1,120,4|4,3:0|3:0,0:0:0:0:
312,248,104550,2,0,C|256:228|200:248,1,120,2|2,3:0|3:0,0:0:0:0:
136,348,105300,1,0,1:0:0:0:
96,306,105487,1,0,1:0:0:0:
89,247,105675,1,0,1:0:0:0:
144,136,106050,5,0,1:0:0:0:
256,92,106425,1,2,3:2:0:0:
368,136,106800,2,0,C|388:192|368:248,1,120,0|0,1:0|1:0,0:0:0:0:
256,292,107550,2,0,L|256:372,2,60,0|0|0,1:0|1:0|1:0,0:0:0:0:
256,192,108300,12,2,111300,0:0:0:0:
144,136,112800,6,0,C|124:192|144:248,1,120,4|8,1:0|1:0,0:0:0:0:
256,296,113550,1,0,1:0:0:0:
314,277,113737,1,2,0:0:0:0:
368,248,113925,2,0,C|388:192|368:136,2,120,8|0|8,1:0|1:0|1:0,0:0:0:0:
256,296,115050,6,0,L|256:156,1,120,2|8,1:2|1:0,0:0:0:0:
256,116,115612,1,2,3:2:0:0:
188,16,115987,2,0,C|132:-4|76:16,1,120,2|0,0:0|0:0,0:0:0:0:
24,48,116550,2,0,C|4:104|24:160,1,120,0|8,1:0|1:0,0:0:0:0:
76,192,117112,2,0,L|216:192,1,120,0|0,3:0|0:0,0:0:0:0:
256,192,117675,1,8,1:0:0:0:
376,192,118050,6,0,L|442:192,1,60,2|2,1:0|0:0,0:0:0:0:
488,160,118425,1,10,1:0:0:0:
488,160,118612,2,0,C|508:104|488:48,1,120,2|0,0:0|0:0,0:0:0:0:
437,16,119175,1,8,1:0:0:0:
316,16,119550,2,0,B|196:16,1,120,0|8,1:0|1:1,0:0:0:0:
75,16,120300,2,0,C|76:80|100:148,1,120,0|8,1:0|1:0,0:0:0:0:
112,192,120862,5,2,0:0:0:0:
94,251,121050,2,0,C|76:304|75:368,2,120,0|8|4,1:0|1:0|1:0,0:0:0:0:
200,192,122175,1,8,1:0:0:0:
256,296,122550,1,0,1:0:0:0:
312,192,122925,1,8,1:0:0:0:
417,251,123300,2,0,C|436:304|437:368,2,120,0|8|2,1:0|1:0|1:0,0:0:0:0:
368,215,124237,1,2,0:0:0:0:
312,192,124425,2,0,L|312:128,1,60,10|2,1:0|0:0,0:0:0:0:
312,80,124800,6,0,B|272:68|256:44|256:44|240:68|200:80,1,132.00000402832,2|10,1:0|1:1,0:0:0:0:
88,144,125550,2,0,B|76:192|76:192|88:240,1,99.0000030212403,2|2,1:0|1:0,0:0:0:0:
188,272,126112,1,2,1:3:0:0:
188,272,126300,2,0,C|332:272,1,132.00000402832,2|10,1:0|1:0,0:0:0:0:
452,240,127050,2,0,B|464:192|464:192|452:144,1,99.0000030212403,2|2,1:0|1:0,0:0:0:0:
388,76,127612,1,2,1:3:0:0:
388,76,127800,2,0,C|256:76,1,132.00000402832,2|10,1:0|1:0,0:0:0:0:
124,76,128550,5,2,1:0:0:0:
56,148,128831,1,2,1:0:0:0:
68,248,129112,1,2,1:0:0:0:
68,248,129300,2,0,B|128:248|128:284|192:284,1,132.00000402832,2|8,1:0|1:0,0:0:0:0:
256,272,129862,1,2,2:0:0:0:
320,284,130050,2,0,B|384:284|384:248|444:248,1,132.00000402832,2|8,1:2|1:0,0:0:0:0:
388,128,130800,6,0,C|360:64|288:52,1,132.00000402832,2|10,1:0|1:1,0:0:0:0:
256,100,131362,1,2,0:0:0:0:
212,53,131550,2,0,C|153:64|125:128,1,132.00000402832,2|8,1:0|1:0,0:0:0:0:
136,192,132112,1,2,1:3:0:0:
124,256,132300,2,0,C|152:320|211:330,1,132.00000402832,2|10,1:0|1:0,0:0:0:0:
256,208,133050,6,0,C|256:84,1,99.0000030212403,2|2,1:0|1:0,0:0:0:0:
316,32,133612,1,2,1:3:0:0:
316,32,133800,2,0,C|375:42|403:106,1,132.00000402832,6|10,1:0|1:0,0:0:0:0:
504,192,134550,6,0,C|404:192,1,99.0000030212403,2|2,1:0|1:1,0:0:0:0:
309,196,135112,1,2,1:0:0:0:
309,196,135300,1,2,1:0:0:0:
403,277,135675,2,0,C|375:341|316:352,1,132.00000402832,2|2,3:3|3:2,0:0:0:0:
256,232,136425,6,2,B|256:188|256:188|248:176|248:176|264:176|264:176|256:164|256:164|256:120,1,132.00000402832,2|4,0:3|1:0,0:0:0:0:
