osu file format v14

[General]
AudioFilename: audio.mp3
AudioLeadIn: 0
PreviewTime: 41550
Countdown: 0
SampleSet: Soft
StackLeniency: 0.3
Mode: 0
LetterboxInBreaks: 0
WidescreenStoryboard: 1

[Editor]
DistanceSpacing: 1
BeatDivisor: 4
GridSize: 8
TimelineZoom: 2.599999

[Metadata]
Title:Go (Nightcore Mix)
TitleUnicode:Go (Nightcore Mix)
Artist:McClain Sisters
ArtistUnicode:McClain Sisters
Creator:AJT
Version:Aranel's Insane
Source:
Tags:english electropop electronic dance pop a.n.t. ant farm black disney channel china anne lauryn sierra aranel sonnyc bloxi
BeatmapID:3354721
BeatmapSetID:1643400

[Difficulty]
HPDrainRate:5
CircleSize:4.3
OverallDifficulty:7.5
ApproachRate:8
SliderMultiplier:2.56
SliderTickRate:1

[Events]
//Background and Video events
0,0,"go.jpg",0,0
//Break Periods
2,30500,34800
2,72500,76800
//Storyboard Layer 0 (Background)
//Storyboard Layer 1 (Fail)
//Storyboard Layer 2 (Pass)
//Storyboard Layer 3 (Foreground)
//Storyboard Layer 4 (Overlay)
//Storyboard Sound Samples

[TimingPoints]
300,375,4,2,1,40,1,0
300,-200,4,2,1,40,0,0
5550,-400,4,2,1,40,0,0
6300,-166.666666666667,4,2,1,50,0,0
12300,-133.333333333333,4,2,1,50,0,0
24300,-200,4,2,1,50,0,0
28800,-125,4,2,1,50,0,0
30300,-500,4,2,1,50,0,0
36112,-400,4,2,1,50,0,0
36300,-200,4,2,1,50,0,0
37050,-200,4,2,1,50,0,0
37800,-500,4,2,1,50,0,0
38362,-200,4,2,1,50,0,0
39112,-133.333333333333,4,2,1,50,0,0
42300,-100,4,2,1,70,0,1
54300,-133.333333333333,4,2,1,50,0,0
63112,-266.666666666667,4,2,1,50,0,0
64612,-133.333333333333,4,2,1,50,0,0
70612,-125,4,2,1,50,0,0
72300,-500,4,2,1,50,0,0
78112,-400,4,2,1,50,0,0
78300,-200,4,2,1,50,0,0
79050,-200,4,2,1,50,0,0
79800,-500,4,2,1,50,0,0
80362,-200,4,2,1,50,0,0
81112,-133.333333333333,4,2,1,50,0,0
84300,-100,4,2,1,70,0,1
96300,-166.666666666667,4,2,1,50,0,0
105112,-500,4,2,1,50,0,0
106050,-166.666666666667,4,2,1,50,0,0
107737,-222.222222222222,4,2,1,50,0,0
108300,-531.914893617021,4,2,1,50,0,0
112050,-200,4,2,1,50,0,0
112425,-133.333333333333,4,2,1,50,0,0
112800,-125,4,2,1,70,0,0
117112,-250,4,2,1,70,0,0
118050,-125,4,2,1,70,0,0
124800,-100,4,2,1,80,0,1
135300,-133.333333333333,4,2,1,80,0,1
136800,-125,4,2,1,60,0,0
139800,-133.333333333333,4,2,1,60,0,0
140550,-153.846153846154,4,2,1,60,0,0
142800,-200,4,2,1,50,0,0
148050,-400,4,2,1,50,0,0
148800,-400,4,2,1,40,0,0
153675,-400,4,2,1,5,0,0

[Colours]
Combo1 : 128,128,255
Combo2 : 179,255,179
Combo3 : 255,60,60
Combo4 : 85,0,170

[HitObjects]
246,182,300,5,4,0:0:0:0:
256,192,862,1,2,0:0:0:0:
256,192,956,1,0,0:0:0:0:
256,192,1050,1,2,0:0:0:0:
256,112,1237,1,0,0:0:0:0:
336,112,1425,1,2,0:0:0:0:
336,192,1612,2,0,B|336:320|336:320|408:320,1,192,2|0,0:0|0:0,0:0:0:0:
480,320,2362,5,2,0:0:0:0:
480,320,2456,1,0,0:0:0:0:
480,320,2550,1,2,0:0:0:0:
480,240,2737,1,0,0:0:0:0:
400,240,2925,1,2,0:0:0:0:
320,240,3112,2,0,B|256:240|256:240|224:184|224:184|160:184,1,192,2|0,0:0|0:0,0:0:0:0:
80,184,3862,5,2,0:0:0:0:
80,184,3956,1,0,0:0:0:0:
80,184,4050,1,2,0:0:0:0:
80,104,4237,1,0,0:0:0:0:
80,24,4425,1,2,0:0:0:0:
160,24,4612,2,0,L|160:224,1,192,2|0,0:0|0:0,0:0:0:0:
352,216,5550,2,0,L|352:144,1,64,2|2,0:0|0:0,0:0:0:0:
352,8,6300,6,0,L|392:8,3,38.399998828125,2|0|0|0,3:2|3:0|3:0|3:0,0:0:0:0:
352,80,6675,2,0,L|392:80,3,38.399998828125,0|0|2|0,3:0|3:0|3:2|3:0,0:0:0:0:
352,152,7050,2,0,L|392:152,3,38.399998828125,2|0|0|0,3:2|3:0|3:0|3:0,0:0:0:0:
352,224,7425,1,2,3:2:0:0:
160,8,7800,6,0,L|120:8,3,38.399998828125,0|0|0|0,3:0|3:0|3:0|3:0,0:0:0:0:
160,80,8175,2,0,L|120:80,3,38.399998828125,0|0|2|0,3:0|3:0|3:2|3:0,0:0:0:0:
160,152,8550,2,0,L|120:152,3,38.399998828125,2|0|0|0,3:2|3:0|3:0|3:0,0:0:0:0:
160,224,8925,2,0,L|64:224,1,76.7999976562501,2|2,3:2|3:0,0:0:0:0:
168,320,9300,6,0,L|216:384,1,76.7999976562501,4|8,3:0|3:0,0:0:0:0:
256,264,9675,1,4,3:0:0:0:
256,264,9768,1,4,3:0:0:0:
256,264,9862,1,2,3:3:0:0:
344,320,10050,2,0,L|296:384,1,76.7999976562501,4|8,3:0|3:0,0:0:0:0:
214,381,10331,2,0,L|167:319,1,76.7999976562501,4|4,3:0|3:0,0:0:0:0:
256,264,10612,1,10,0:0:0:0:
208,128,10800,5,2,3:3:0:0:
220,128,10893,1,2,3:3:0:0:
232,128,10988,1,2,3:3:0:0:
244,128,11081,1,0,3:0:0:0:
256,128,11175,1,0,3:0:0:0:
268,128,11269,1,0,3:0:0:0:
280,128,11363,1,2,3:0:0:0:
292,128,11457,1,0,3:0:0:0:
304,128,11550,5,2,3:3:0:0:
256,0,11737,1,2,3:0:0:0:
256,0,11831,1,2,3:0:0:0:
256,0,11925,1,2,3:0:0:0:
208,128,12112,1,2,3:0:0:0:
144,0,12300,6,0,B|72:0|72:96|72:96,1,96.0000036621095,6|2,1:0|0:0,0:0:0:0:
136,136,12675,2,0,B|135:208|232:208|232:208,1,96.0000036621095,8|2,0:0|0:0,0:0:0:0:
318,202,13050,1,4,3:0:0:0:
208,128,13237,1,2,0:0:0:0:
304,128,13425,1,8,0:0:0:0:
194,202,13612,1,2,0:0:0:0:
256,344,13800,6,0,L|256:248,1,96.0000036621095,0|2,1:0|0:0,0:0:0:0:
328,376,14175,2,0,L|328:280,1,96.0000036621095,8|2,0:0|0:0,0:0:0:0:
184,376,14550,2,0,L|184:280,2,96.0000036621095,4|2|8,3:0|0:0|0:0,0:0:0:0:
160,192,15112,2,0,L|352:192,2,192.000007324219,2|2|0,0:0|0:0|0:0,0:0:0:0:
160,96,16050,5,4,3:0:0:0:
256,32,16237,1,2,0:0:0:0:
352,96,16425,1,8,0:0:0:0:
352,192,16612,2,0,L|160:192,2,192.000007324219,2|2|0,0:0|0:0|0:0,0:0:0:0:
352,288,17550,1,2,1:2:0:0:
160,288,17925,1,8,0:0:0:0:
256,352,18112,1,0,0:0:0:0:
352,288,18300,6,0,B|424:320|456:264|456:264,1,96.0000036621095,6|2,3:0|0:0,0:0:0:0:
442,183,18675,2,0,B|370:151|338:207|338:207,2,96.0000036621095,8|2|0,0:0|0:0|1:0,0:0:0:0:
442,183,19237,1,2,0:0:0:0:
352,288,19425,1,8,0:0:0:0:
256,240,19612,1,2,0:0:0:0:
160,288,19800,6,0,B|88:320|56:264|56:264,1,96.0000036621095,6|2,3:0|0:0,0:0:0:0:
70,183,20175,2,0,B|142:151|174:207|174:207,1,96.0000036621095,8|2,0:0|0:0,0:0:0:0:
256,240,20550,2,0,L|256:352,2,96.0000036621095,2|0|8,1:2|0:0|0:0,0:0:0:0:
320,144,21112,6,0,B|424:144|424:184|512:184,2,192.000007324219,2|2|2,0:0|0:0|0:0,0:0:0:0:
256,48,22050,1,0,1:0:0:0:
192,144,22237,1,2,0:0:0:0:
256,240,22425,1,8,0:0:0:0:
192,144,22612,6,0,B|88:144|88:184|0:184,2,192.000007324219,2|2|2,0:0|0:0|0:0,0:0:0:0:
256,48,23550,1,2,1:1:0:0:
320,144,23737,1,2,0:0:0:0:
256,240,23925,1,8,0:0:0:0:
192,144,24112,1,2,0:1:0:0:
128,48,24300,6,0,L|272:48,1,128,6|4,1:0|3:2,0:0:0:0:
96,144,25050,2,0,L|192:144,2,96,4|4|4,3:2|3:2|3:2,0:0:0:0:
384,48,25987,2,0,L|240:48,1,128,4|2,3:2|0:0,0:0:0:0:
192,144,26550,1,2,0:1:0:0:
256,240,26738,1,2,0:0:0:0:
320,144,26925,1,8,0:0:0:0:
256,48,27112,1,2,0:1:0:0:
384,48,27300,6,0,L|240:48,1,128,6|4,1:0|3:2,0:0:0:0:
416,144,28050,2,0,L|320:144,2,96,4|4|4,3:2|3:2|3:2,0:0:0:0:
328,240,28800,6,2,L|328:296,3,51.2,2|2|2|2,1:2|0:0|0:0|0:0,0:0:0:0:
256,320,29175,2,2,L|256:268,3,51.2,10|2|2|2,1:2|0:0|0:0|0:0,0:0:0:0:
184,240,29550,2,2,L|184:296,3,51.2,2|2|2|2,1:2|0:0|0:0|0:0,0:0:0:0:
256,320,29925,2,2,L|256:268,3,51.2,10|2|2|2,0:2|0:0|0:0|0:0,0:0:0:0:
256,192,30300,5,4,0:3:0:0:
256,112,35550,5,4,0:3:0:0:
320,192,35738,1,0,0:0:0:0:
256,272,35925,1,4,0:3:0:0:
192,192,36112,2,0,L|128:192,1,64,0|2,3:0|0:0,0:0:0:0:
320,192,37050,6,0,L|384:192,2,64,2|0|10,0:3|0:0|0:2,0:0:0:0:
448,272,37612,2,0,L|256:272,1,192,0|10,0:0|0:2,0:0:0:0:
256,272,38362,5,2,0:0:0:0:
192,192,38550,1,4,0:3:0:0:
256,112,38737,1,0,0:0:0:0:
320,192,38925,1,10,0:2:0:0:
256,272,39112,1,2,0:0:0:0:
136,264,39300,6,0,B|88:208|120:160|120:160,1,96.0000036621095,4|2,0:3|0:0,0:0:0:0:
162,91,39675,2,0,L|274:115,1,96.0000036621095,8|2,1:2|0:0,0:0:0:0:
376,264,40050,2,0,B|424:208|392:160|392:160,1,96.0000036621095,4|2,0:3|0:0,0:0:0:0:
350,91,40425,2,0,L|238:115,1,96.0000036621095,8|2,1:2|0:0,0:0:0:0:
136,264,40800,5,4,1:0:0:0:
136,368,40987,1,4,1:0:0:0:
256,368,41175,1,4,1:0:0:0:
256,264,41362,1,4,1:0:0:0:
376,264,41550,5,2,1:0:0:0:
376,368,41737,1,2,1:2:0:0:
136,368,41925,1,8,1:0:0:0:
136,348,42018,1,2,0:0:0:0:
136,328,42112,1,2,1:2:0:0:
136,296,42206,1,2,0:0:0:0:
136,264,42300,6,0,B|144:136|48:168|64:16,2,256,2|10|2,1:0|1:1|1:0,0:0:0:0:
304,128,43331,1,2,1:1:0:0:
304,128,43425,1,8,1:0:0:0:
208,256,43612,1,2,1:3:0:0:
376,264,43800,6,0,B|368:136|464:168|448:16,2,256,2|10|2,1:0|1:1|1:0,0:0:0:0:
208,128,44831,1,2,1:1:0:0:
208,128,44925,1,8,1:0:0:0:
304,256,45112,1,2,1:3:0:0:
136,336,45300,6,0,B|256:416|376:336,2,256,2|10|2,1:0|1:1|1:0,0:0:0:0:
304,128,46331,1,2,1:1:0:0:
304,128,46425,1,8,1:0:0:0:
208,256,46612,1,2,1:1:0:0:
256,16,46800,5,2,1:0:0:0:
256,16,47362,5,2,2:0:0:0:
208,128,47550,1,2,1:2:0:0:
256,192,47737,1,2,2:0:0:0:
304,256,47925,1,8,1:0:0:0:
256,368,48112,1,2,2:0:0:0:
96,352,48300,6,0,B|16:368|0:168|72:152,2,256,2|10|2,1:0|1:1|1:0,0:0:0:0:
328,248,49331,1,2,1:1:0:0:
328,248,49425,1,8,1:0:0:0:
184,248,49612,1,2,1:3:0:0:
416,352,49800,6,0,B|496:368|512:168|440:152,2,256,2|10|2,1:0|1:1|1:0,0:0:0:0:
184,248,50831,1,2,1:1:0:0:
184,248,50925,1,8,1:0:0:0:
328,248,51112,1,2,1:3:0:0:
136,88,51300,6,0,B|256:8|376:88,2,256,2|10|2,1:0|1:1|1:0,0:0:0:0:
328,248,52331,1,2,1:1:0:0:
328,248,52425,1,8,1:0:0:0:
184,248,52612,1,2,1:0:0:0:
256,384,52800,5,2,1:0:0:0:
328,248,52987,2,0,L|328:176,2,64,2|2|2,0:0|0:0|1:3,0:0:0:0:
184,248,53362,2,0,L|184:176,2,64,2|2|2,0:2|0:0|3:0,0:0:0:0:
160,64,53737,5,2,0:0:0:0:
208,64,53831,1,2,0:0:0:0:
256,64,53925,1,8,1:0:0:0:
304,64,54018,1,2,0:0:0:0:
352,64,54112,1,2,0:0:0:0:
464,208,54300,6,0,B|514:157|447:89|447:89,1,96.0000036621095,6|2,1:0|0:0,0:0:0:0:
418,275,54675,2,0,B|468:325|536:258|536:258,1,96.0000036621095,8|2,0:0|0:0,0:0:0:0:
350,229,55050,2,0,B|299:279|366:347|366:347,1,96.0000036621095,4|2,3:0|0:0,0:0:0:0:
395,161,55425,2,0,B|344:110|276:177|276:177,1,96.0000036621095,8|2,0:0|0:0,0:0:0:0:
48,208,55800,6,0,B|-2:157|64:89|64:89,1,96.0000036621095,0|2,1:0|0:0,0:0:0:0:
94,275,56175,2,0,B|43:325|-24:258|-24:258,1,96.0000036621095,8|2,0:0|0:0,0:0:0:0:
162,229,56550,2,0,B|212:279|145:347|145:347,2,96.0000036621095,4|2|8,3:0|0:0|0:0,0:0:0:0:
42,119,57112,2,0,B|123:57|128:56|208:40|234:119,2,192.000007324219,2|2|0,0:0|0:0|0:0,0:0:0:0:
162,229,58050,5,4,3:0:0:0:
256,156,58237,1,2,0:0:0:0:
350,229,58425,1,8,0:0:0:0:
470,119,58612,2,0,B|388:57|384:56|304:40|278:119,2,192.000007324219,2|2|0,0:0|0:0|0:0,0:0:0:0:
351,230,59550,1,2,1:2:0:0:
161,230,59925,1,12,0:0:0:0:
256,156,60113,1,2,0:0:0:0:
384,304,60300,6,0,B|328:328|288:288|288:288,1,96.0000036621095,6|2,3:0|0:0,0:0:0:0:
456,272,60675,2,0,B|480:328|440:368|440:368,1,96.0000036621095,8|2,0:0|0:0,0:0:0:0:
424,200,61050,2,0,B|480:176|520:216|520:216,1,96.0000036621095,0|2,1:0|0:0,0:0:0:0:
351,230,61425,2,0,B|328:176|368:136|363:141,1,96.0000036621095,8|2,0:0|0:0,0:0:0:0:
148,141,61800,6,0,B|144:136|184:176|160:230,1,96.0000036621095,6|2,3:0|0:0,0:0:0:0:
0,211,62175,2,0,B|-8:216|32:176|88:200,1,96.0000036621095,8|2,0:0|0:0,0:0:0:0:
67,362,62550,2,0,B|72:368|32:328|56:272,2,96.0000036621095,2|0|8,1:2|0:0|0:0,0:0:0:0:
218,292,63112,6,0,B|224:292|184:328|128:304,2,96.0000036621095,2|2|2,0:0|0:0|0:0,0:0:0:0:
328,192,64050,1,0,1:0:0:0:
256,112,64237,1,2,0:0:0:0:
184,192,64425,1,8,0:0:0:0:
293,292,64612,6,0,B|282:283|361:362|472:315,2,192.000007324219,2|2|2,3:1|3:1|0:0,0:0:0:0:
184,192,65550,1,2,1:1:0:0:
256,112,65737,1,2,0:0:0:0:
328,192,65925,2,0,L|360:192,4,24.0000009155274,8|0|0|0|2,0:0|0:0|0:0|0:0|0:1,0:0:0:0:
184,192,66300,6,0,B|88:192|88:192|88:96,1,192.000007324219,4|4,1:0|3:2,0:0:0:0:
184,96,66862,1,4,3:2:0:0:
184,192,67050,1,4,3:2:0:0:
256,256,67237,1,4,3:2:0:0:
256,256,67331,1,4,3:2:0:0:
328,192,67612,5,4,3:2:0:0:
328,192,67987,6,0,B|424:192|424:192|424:96,1,192.000007324219,4|2,3:2|0:0,0:0:0:0:
328,96,68549,1,2,0:1:0:0:
184,192,68737,1,2,0:0:0:0:
256,256,68924,1,8,0:0:0:0:
328,192,69112,1,2,0:1:0:0:
184,96,69300,6,0,B|88:96|88:96|88:192,1,192.000007324219,4|4,1:0|3:2,0:0:0:0:
184,192,69862,1,4,3:2:0:0:
328,288,70050,2,0,L|184:288,2,144.000005493164,4|4|4,3:2|3:2|3:2,0:0:0:0:
504,192,70800,6,2,L|448:192,3,51.2,2|2|2|2,1:2|0:0|0:0|0:0,0:0:0:0:
380,192,71175,2,2,L|324:192,3,51.2,10|2|2|2,1:2|0:0|0:0|0:0,0:0:0:0:
256,192,71550,2,2,L|204:192,3,51.2,2|2|2|2,1:2|0:0|0:0|0:0,0:0:0:0:
132,192,71925,2,2,L|80:192,3,51.2,10|2|2|2,0:2|0:0|0:0|0:0,0:0:0:0:
8,192,72300,5,4,0:3:0:0:
136,112,77550,5,4,0:3:0:0:
208,48,77738,1,0,0:0:0:0:
304,48,77925,1,4,0:3:0:0:
376,112,78112,2,0,L|440:112,1,64,0|2,3:0|0:0,0:0:0:0:
440,112,78675,1,10,0:2:0:0:
136,112,79050,6,0,L|72:112,2,64,2|0|10,0:3|0:0|0:2,0:0:0:0:
168,216,79612,2,0,B|256:256|256:256|342:216,1,192,2|10,0:0|0:2,0:0:0:0:
342,216,80362,5,0,0:0:0:0:
208,144,80550,1,4,0:3:0:0:
304,144,80738,1,0,0:0:0:0:
168,216,80925,1,10,0:2:0:0:
256,72,81112,1,2,0:0:0:0:
416,192,81300,6,0,B|416:228|416:228|412:236|412:236|420:236|420:236|416:244|416:244|416:284|416:282,1,96.0000036621095,4|2,0:3|0:0,0:0:0:0:
312,384,81675,2,0,B|312:348|312:348|308:340|308:340|316:340|316:340|312:332|312:332|312:293,1,96.0000036621095,8|2,1:2|0:0,0:0:0:0:
96,192,82050,2,0,B|96:228|96:228|100:236|100:236|92:236|92:236|96:244|96:244|96:284|96:282,1,96.0000036621095,4|2,0:3|0:0,0:0:0:0:
200,384,82425,2,0,B|200:348|200:348|204:340|204:340|196:340|196:340|200:332|200:332|200:293,1,96.0000036621095,8|2,1:2|0:0,0:0:0:0:
376,120,82800,5,4,1:0:0:0:
376,16,82987,1,4,1:0:0:0:
256,16,83175,1,4,1:0:0:0:
256,120,83362,1,4,1:0:0:0:
136,122,83550,5,2,1:0:0:0:
136,16,83737,1,2,1:2:0:0:
376,16,83925,1,8,1:0:0:0:
376,36,84018,1,2,0:0:0:0:
376,56,84112,1,2,1:2:0:0:
376,88,84206,1,2,0:0:0:0:
376,122,84300,6,0,B|376:176|472:192|472:192|376:208|376:264,2,256,2|10|2,1:0|1:1|1:0,0:0:0:0:
192,192,85331,1,2,1:0:0:0:
192,192,85425,1,10,3:2:0:0:
328,192,85612,1,2,3:3:0:0:
136,122,85800,6,0,B|136:176|40:192|40:192|136:208|136:264,2,256,2|10|2,1:0|1:0|1:0,0:0:0:0:
320,192,86831,1,2,1:0:0:0:
320,192,86925,1,8,1:0:0:0:
192,192,87112,1,2,1:0:0:0:
376,48,87300,6,0,B|256:0|256:0|136:48,2,256,6|10|2,1:0|1:0|1:0,0:0:0:0:
192,192,88331,1,2,1:0:0:0:
192,192,88425,1,8,1:0:0:0:
320,192,88612,1,2,1:0:0:0:
256,368,88800,5,2,1:0:0:0:
256,368,89362,5,2,2:0:0:0:
320,192,89550,2,0,B|327:231|327:231|321:240|321:240|337:237|337:237|330:246|330:246|340:295,1,128,2|2,1:2|2:0,0:0:0:0:
171,295,89925,2,0,B|181:246|181:246|174:237|174:237|190:240|190:240|184:231|184:231|192:192,1,128,8|2,1:0|2:0,0:0:0:0:
116,88,90300,6,0,B|74:106|20:88|20:88|-4:114|-21:181|20:248,2,256,2|10|2,1:0|1:1|1:0,0:0:0:0:
320,0,91331,1,2,1:0:0:0:
320,0,91425,1,10,3:2:0:0:
192,0,91612,1,2,3:3:0:0:
396,88,91800,6,0,B|438:106|492:88|492:88|516:114|533:181|492:248,2,256,2|10|2,1:0|1:0|1:0,0:0:0:0:
192,0,92831,1,2,1:0:0:0:
192,0,92925,1,8,1:0:0:0:
320,0,93112,1,2,1:3:0:0:
136,128,93300,6,0,B|256:208|376:128,2,256,6|10|2,1:0|1:0|1:0,0:0:0:0:
320,0,94331,1,2,1:0:0:0:
320,0,94425,1,8,1:0:0:0:
192,0,94612,1,2,1:0:0:0:
136,128,94800,5,2,1:0:0:0:
136,256,94987,2,0,L|72:256,2,64,2|2|2,0:0|0:0|1:3,0:0:0:0:
376,256,95362,2,0,L|440:256,2,64,2|2|2,0:0|0:0|3:0,0:0:0:0:
216,344,95737,2,0,L|152:344,1,64,2|0,0:0|0:0,0:0:0:0:
296,344,95925,2,0,L|360:344,2,64,8|2|2,1:0|0:0|0:0,0:0:0:0:
48,344,96300,6,0,L|48:248,1,76.7999976562501,6|0,1:0|1:0,0:0:0:0:
48,192,96675,2,0,L|48:96,1,76.7999976562501,0|0,1:0|0:0,0:0:0:0:
48,40,97050,2,0,B|128:40|128:40|128:120,1,153.5999953125,2|2,3:2|3:2,0:0:0:0:
128,192,97612,2,0,B|208:192|208:192|208:32,1,230.39999296875,2|0,3:2|0:0,0:0:0:0:
304,40,98362,5,0,0:0:0:0:
304,116,98550,1,2,3:0:0:0:
304,192,98737,1,2,0:0:0:0:
380,192,98925,1,2,3:0:0:0:
380,116,99112,2,0,B|496:116|496:116|496:328,1,307.199990625,2|0,0:0|0:0,0:0:0:0:
496,384,100050,1,0,1:0:0:0:
416,384,100237,5,2,0:0:0:0:
416,304,100425,1,2,3:2:0:0:
416,224,100612,2,0,B|336:224|336:224|336:320,1,153.5999953125,2|0,3:2|1:0,0:0:0:0:
176,297,101362,2,0,B|176:224|176:224|96:224,2,153.5999953125,0|0|2,1:0|1:0|0:0,0:0:0:0:
176,376,102300,6,0,B|96:376|96:376|96:302,1,153.5999953125,0|0,1:0|1:0,0:0:0:0:
256,304,103050,1,2,3:0:0:0:
336,304,103237,1,2,3:0:0:0:
416,302,103425,1,2,3:0:0:0:
416,224,103612,2,0,B|416:136|416:136|456:136|456:136|456:24,1,230.39999296875,0|4,3:0|3:0,0:0:0:0:
376,32,104362,1,0,0:0:0:0:
296,32,104550,1,2,3:0:0:0:
216,32,104737,1,2,0:0:0:0:
136,32,104925,1,2,3:0:0:0:
56,33,105112,2,0,L|56:120,1,76.8,2|0,0:0|1:0,0:0:0:0:
184,192,106237,5,2,0:0:0:0:
184,192,106425,1,2,3:2:0:0:
184,192,106612,1,2,0:0:0:0:
256,120,106987,5,0,1:0:0:0:
328,192,107362,1,2,0:0:0:0:
256,264,107737,2,0,L|256:120,1,143.999995605469,0|0,1:0|0:0,0:0:0:0:
256,120,108300,6,0,L|256:264,1,144.383993655,4|0,0:0|0:0,0:0:0:0:
256,192,109800,12,2,111862,0:0:0:0:
208,72,112050,6,0,L|176:72,3,32,2|2|2|2,0:3|0:3|0:3|0:3,0:0:0:0:
304,72,112425,2,0,L|360:72,3,48.0000018310548,2|2|2|2,0:3|0:3|0:3|0:3,0:0:0:0:
408,16,112800,6,0,B|456:64|416:136|416:136,1,102.4,4|0,1:0|0:0,0:0:0:0:
321,167,113175,2,0,B|273:118|313:46|313:46,1,102.4,8|0,1:0|2:2,1:0:0:0:
425,111,113550,1,0,1:0:0:0:
400,184,113737,1,2,0:0:0:0:
321,167,113925,1,8,1:0:0:0:
256,216,114112,1,0,0:0:0:0:
104,16,114300,6,0,B|56:64|96:136|96:136,1,102.4,0|0,1:0|3:0,0:0:0:0:
191,167,114675,2,0,B|239:118|199:46|199:46,1,102.4,8|0,1:0|0:0,0:0:0:0:
87,111,115050,1,2,1:2:0:0:
112,184,115237,1,2,0:0:0:0:
191,167,115425,1,8,1:0:0:0:
256,216,115612,1,2,3:2:0:0:
344,72,115800,6,0,B|360:120|321:167,1,102.4,4|2,1:0|0:0,0:0:0:0:
191,167,116175,2,0,B|152:120|168:72|168:72,1,102.4,8|0,1:0|0:0,0:0:0:0:
304,0,116550,1,0,1:0:0:0:
208,0,116737,1,2,0:0:0:0:
344,72,116925,1,8,1:0:0:0:
168,72,117112,2,0,B|144:60|120:72|95:84|67:72,2,102.4,2|2|2,3:0|0:0|0:0,0:0:0:0:
304,144,118050,5,2,1:0:0:0:
208,144,118237,1,2,0:0:0:0:
344,72,118425,1,10,1:0:0:0:
168,72,118612,1,2,0:0:0:0:
104,192,118800,6,0,B|78:254|120:304|120:304,1,102.4,4|0,1:0|0:0,0:0:0:0:
184,328,119175,2,0,B|210:266|168:216|168:216,1,102.4,8|0,1:0|0:0,0:0:0:0:
120,368,119550,1,0,1:0:0:0:
184,328,119737,1,2,0:0:0:0:
256,360,119925,1,8,1:1:0:0:
184,328,120112,1,0,0:0:0:0:
408,192,120300,6,0,B|434:254|392:304|392:304,1,102.4,0|0,1:0|3:0,0:0:0:0:
328,328,120675,2,0,B|302:266|344:216|344:216,1,102.4,8|2,1:0|0:0,0:0:0:0:
392,368,121050,1,0,1:0:0:0:
328,328,121237,1,2,0:0:0:0:
256,360,121425,1,8,1:0:0:0:
328,328,121612,1,2,0:0:0:0:
184,328,121800,6,0,B|144:272|80:288|80:288,1,102.4,4|2,1:0|0:0,0:0:0:0:
256,360,122175,2,0,L|256:258,1,102.4,8|2,1:0|0:0,0:0:0:0:
328,328,122550,2,0,B|368:272|432:288|432:288,2,102.4,0|2|8,1:0|0:0|1:0,0:0:0:0:
256,360,123112,6,0,L|256:136,1,204.8,0|0,3:0|0:0,0:0:0:0:
256,120,123581,1,0,3:2:0:0:
256,120,123675,1,8,1:0:0:0:
136,264,124050,5,2,1:0:0:0:
136,368,124237,1,2,0:0:0:0:
376,368,124425,1,10,1:0:0:0:
376,264,124612,1,2,0:0:0:0:
136,264,124800,6,0,P|32:208|40:80,2,256,2|10|2,1:0|1:1|1:0,0:0:0:0:
475,83,125831,1,2,1:0:0:0:
475,83,125925,1,8,1:0:0:0:
344,120,126112,1,2,1:3:0:0:
376,264,126300,6,0,P|480:208|472:80,2,256,2|10|2,1:0|1:0|1:0,0:0:0:0:
37,83,127331,1,2,1:0:0:0:
37,83,127425,1,8,1:0:0:0:
168,120,127612,1,2,1:3:0:0:
344,120,127800,6,0,P|256:43|168:120,2,256,2|10|2,1:0|1:0|1:0,0:0:0:0:
168,264,128831,1,2,1:0:0:0:
168,264,128925,1,8,1:0:0:0:
344,264,129112,1,2,1:0:0:0:
256,384,129300,5,2,1:0:0:0:
256,384,129862,5,2,2:0:0:0:
168,264,130050,1,2,1:2:0:0:
256,192,130237,1,2,2:0:0:0:
344,120,130425,1,8,1:0:0:0:
256,0,130612,1,2,2:0:0:0:
72,88,130800,6,0,B|56:224|56:224|168:264,2,256,2|10|2,1:0|1:1|1:0,0:0:0:0:
344,264,131831,1,2,1:0:0:0:
344,264,131925,1,8,1:0:0:0:
312,136,132112,1,2,1:3:0:0:
440,88,132300,6,0,B|456:224|456:224|344:264,2,256,2|10|2,1:0|1:0|1:0,0:0:0:0:
168,264,133331,1,2,1:0:0:0:
168,264,133425,1,8,1:0:0:0:
200,136,133612,1,2,1:3:0:0:
344,264,133800,6,0,P|256:341|168:264,2,256,6|10|2,1:0|1:0|1:0,0:0:0:0:
136,104,134831,1,2,3:0:0:0:
136,104,134925,1,10,1:0:0:0:
256,248,135112,1,2,1:0:0:0:
376,104,135300,6,0,L|288:32,1,96.0000036621095,2|2,1:0|0:3,0:0:0:0:
256,16,135581,1,2,0:3:0:0:
210,43,135675,2,0,L|136:104,1,96.0000036621095,2|2,3:3|3:3,0:0:0:0:
256,248,136050,2,0,L|256:144,2,96.0000036621095,2|2|2,3:2|3:2|0:3,0:0:0:0:
168,384,136612,1,2,0:3:0:0:
344,384,136800,6,0,B|472:384|472:248|472:248,2,204.8,4|8|0,1:0|1:0|1:0,0:0:0:0:
256,320,137737,1,0,3:0:0:0:
168,256,137925,2,0,L|168:104,1,102.4,2|0,1:3|3:0,0:0:0:0:
168,0,138300,2,0,B|40:0|40:136|40:136,2,204.8,0|10|0,1:0|1:0|1:0,0:0:0:0:
256,64,139237,1,0,3:0:0:0:
344,128,139425,2,0,L|344:280,1,102.4,2|0,1:3|3:0,0:0:0:0:
352,352,139800,6,0,L|160:352,2,192.000007324219,4|8|0,1:0|1:0|1:0,0:0:0:0:
440,352,140737,1,0,3:0:0:0:
440,264,140925,2,0,L|440:169,1,83.1999961914064,2|2,1:3|0:0,0:0:0:0:
440,104,141300,2,0,L|107:104,1,332.799984765626,0|2,1:0|0:0,0:0:0:0:
107,280,142425,1,2,0:0:0:0:
246,182,142800,5,4,0:0:0:0:
256,192,143362,1,2,0:0:0:0:
256,192,143456,1,0,0:0:0:0:
256,192,143550,1,2,0:0:0:0:
256,112,143737,1,0,0:0:0:0:
176,112,143925,1,2,0:0:0:0:
176,192,144112,2,0,B|176:320|176:320|104:320,1,192,2|0,0:0|0:0,0:0:0:0:
32,320,144862,5,2,0:0:0:0:
32,320,144956,1,0,0:0:0:0:
32,320,145050,1,2,0:0:0:0:
32,240,145237,1,0,0:0:0:0:
112,240,145425,1,2,0:0:0:0:
192,240,145612,2,0,B|256:240|256:240|288:184|288:184|352:184,1,192,2|0,0:0|0:0,0:0:0:0:
432,184,146362,5,2,0:0:0:0:
432,184,146456,1,0,0:0:0:0:
432,184,146550,1,2,0:0:0:0:
432,104,146737,1,0,0:0:0:0:
432,24,146925,1,2,0:0:0:0:
352,24,147112,2,0,L|352:224,1,192,2|0,0:0|0:0,0:0:0:0:
160,216,148050,2,0,L|160:144,1,64,2|2,0:0|0:0,0:0:0:0:
160,24,148800,1,2,0:0:0:0:
352,24,149362,5,2,0:0:0:0:
352,24,149456,1,0,0:0:0:0:
352,24,149550,2,0,L|352:64,2,32,2|0|2,0:0|0:0|0:0,0:0:0:0:
424,24,150112,1,2,0:0:0:0:
160,24,150862,5,2,0:0:0:0:
160,24,150956,1,0,0:0:0:0:
160,24,151050,2,0,L|160:64,2,32,2|0|2,0:0|0:0|0:0,0:0:0:0:
88,24,151612,1,2,0:0:0:0:
256,192,152362,5,2,0:0:0:0:
256,192,152456,1,0,0:0:0:0:
256,192,152550,2,0,L|256:232,2,32,2|0|2,0:0|0:0|0:0,0:0:0:0:
208,128,153112,2,0,P|256:112|304:128,1,96,2|0,0:0|0:0,0:0:0:0:
