osu file format v14

[General]
AudioFilename: audio.mp3
AudioLeadIn: 0
PreviewTime: -1
Countdown: 0
SampleSet: Soft
StackLeniency: 0.7
Mode: 0
LetterboxInBreaks: 0
WidescreenStoryboard: 0

[Editor]
DistanceSpacing: 1.9
BeatDivisor: 4
GridSize: 8
TimelineZoom: 1

[Metadata]
Title:So Para As Meninas (Maffalda De Natal Mix)
TitleUnicode:Sò Para As Meninas (Maffalda De Natal Mix)
Artist:Mc Menor Da VG
ArtistUnicode:Mc Menor Da VG
Creator:RenardMon
Version:Gangsta
Source:
Tags:
BeatmapID:891236
BeatmapSetID:410715

[Difficulty]
HPDrainRate:6
CircleSize:4
OverallDifficulty:8
ApproachRate:9.7
SliderMultiplier:1
SliderTickRate:1

[Events]
//Background and Video events
0,0,"Trap1.jpg",0,0
//Break Periods
//Storyboard Layer 0 (Background)
//Storyboard Layer 1 (Fail)
//Storyboard Layer 2 (Pass)
//Storyboard Layer 3 (Foreground)
//Storyboard Sound Samples

[TimingPoints]
134,456.844444444444,4,2,2,40,1,0
2989,-66.6666666666667,4,2,2,40,0,0
3446,-100,4,2,2,40,0,0
10412,-50,4,2,2,40,0,0
10869,-100,4,2,2,40,0,0
18636,456.844444444444,4,2,2,50,1,0
29714,-200,4,2,2,50,0,0
143351,857.142857142857,4,2,2,50,1,0
170779,200,4,2,2,50,1,0

[Colours]
Combo1 : 253,0,0
Combo2 : 182,129,248
Combo3 : 124,133,173
Combo4 : 224,160,160
Combo5 : 197,95,95

[HitObjects]
144,136,134,21,4,0:0:0:0:
352,48,476,2,0,L|384:64,1,25
432,144,819,2,0,L|408:168,1,25
120,152,1276,54,0,P|128:176|144:200,1,50
392,296,1732,1,4,0:0:0:0:
400,232,1847,1,4,0:0:0:0:
448,272,1961,1,4,0:0:0:0:
136,40,2304,6,0,L|136:64,1,25
320,296,2646,2,0,L|320:320,1,25
192,152,2989,2,0,P|216:112|288:160,1,150
152,336,3674,54,4,L|136:312,1,25
128,296,3902,1,0,0:0:0:0:
0,80,4131,6,0,L|8:104,1,25
496,272,4474,2,0,L|504:296,1,25
256,32,5045,54,4,L|256:64,1,25
256,72,5273,1,0,0:0:0:0:
208,192,5502,1,4,0:0:0:0:
256,240,5616,1,0,0:0:0:0:
296,192,5730,1,4,0:0:0:0:
360,192,5958,6,0,L|384:192,1,25
144,192,6301,2,0,L|120:192,1,25
392,312,6644,54,0,P|408:272|416:232,1,75
256,184,7329,1,0,0:0:0:0:
256,184,7443,5,4,0:0:0:0:
72,56,7785,2,0,L|104:72,1,25
432,144,8128,2,0,L|408:168,1,25
120,152,8585,54,0,P|128:176|144:200,1,50
376,296,9041,1,4,0:0:0:0:
400,232,9156,1,4,0:0:0:0:
400,168,9270,1,4,0:0:0:0:
80,32,9727,2,0,L|96:64,1,25
472,264,10070,2,0,L|488:296,1,25
192,136,10412,2,0,B|256:176|280:112|280:112|288:168|296:216,1,200
168,24,11098,6,0,L|152:56,1,25
504,296,11555,2,0,L|488:320,1,25
8,264,11897,2,0,L|32:248,1,25
96,64,12468,54,4,L|119:85,1,25,4|4,0:3|0:3,0:0:0:0:
128,96,12696,1,0,0:0:0:0:
208,192,12925,1,4,0:0:0:0:
256,240,13039,1,0,0:0:0:0:
296,192,13153,1,4,0:0:0:0:
304,296,13381,6,0,L|328:296,1,25
152,144,13724,2,0,L|128:144,1,25
392,312,14067,54,0,P|408:272|416:232,1,75
32,96,14753,2,4,L|64:112,1,25
80,120,14981,1,0,0:0:0:0:
480,176,15324,6,0,L|424:176,1,50
160,320,16123,1,4,0:0:0:0:
184,256,16237,1,4,0:0:0:0:
232,304,16351,1,4,0:0:0:0:
392,112,16580,54,0,L|352:112,1,25
304,216,16923,2,0,L|256:216,1,25
144,56,17379,2,0,L|176:56,1,25
256,184,17722,5,0,0:0:0:0:
312,248,17950,1,0,0:0:0:0:
368,312,18179,2,0,L|392:336,1,25
304,184,18636,53,14,0:0:0:0:
216,112,19092,1,14,0:0:0:0:
96,136,19549,2,14,P|104:184|128:232,1,100
216,200,20463,5,14,0:0:0:0:
312,264,20920,1,14,0:0:0:0:
408,240,21377,2,14,P|392:193|327:174,1,100,0|0,0:0|0:0,0:0:0:0:
120,64,22290,6,8,L|120:184,1,100
216,272,23204,1,8,0:0:0:0:
392,272,23661,1,8,0:0:0:0:
488,176,24118,2,14,P|488:152|464:72,1,100
360,160,25031,2,14,P|328:176|248:176,1,100
176,168,25717,1,14,0:0:0:0:
144,264,25945,1,14,0:0:0:0:
384,72,26402,5,14,0:0:0:0:
384,232,26630,1,14,0:0:0:0:
224,232,26859,1,14,0:0:0:0:
224,72,27087,1,14,0:0:0:0:
104,160,27316,2,14,P|96:224|72:248,1,100
176,328,28001,1,0,0:0:0:0:
296,256,28229,1,0,0:0:0:0:
424,336,28458,1,0,0:0:0:0:
256,192,28686,12,0,29371,0:0:0:0:
144,168,29714,6,0,L|184:200,1,50
344,208,30628,1,0,0:0:0:0:
440,328,31085,2,0,L|496:336,1,50
384,136,31998,2,0,L|368:104,2,25
160,56,32912,1,0,0:0:0:0:
112,160,33369,2,0,P|144:168|160:176,1,50
