osu file format v14

[General]
AudioFilename: audio.mp3
AudioLeadIn: 0
PreviewTime: 25811
Countdown: 0
SampleSet: Normal
StackLeniency: 0.7
Mode: 1
LetterboxInBreaks: 0
WidescreenStoryboard: 0

[Editor]
DistanceSpacing: 0.3
BeatDivisor: 4
GridSize: 32
TimelineZoom: 2.799999

[Metadata]
Title:Palestina
TitleUnicode:Palestina
Artist:Mc Champions
ArtistUnicode:Mc Champions
Creator:Skull Kid
Version:Futsuu
Source:
Tags:shiatsu português portuguese hip hop electronic trap future funk Vai Dar B.O
BeatmapID:2401289
BeatmapSetID:1134388

[Difficulty]
HPDrainRate:7
CircleSize:4
OverallDifficulty:3.5
ApproachRate:9
SliderMultiplier:1.4
SliderTickRate:1

[Events]
//Background and Video events
0,0,"BG.jpg",0,0
//Break Periods
//Storyboard Layer 0 (Background)
//Storyboard Layer 1 (Fail)
//Storyboard Layer 2 (Pass)
//Storyboard Layer 3 (Foreground)
//Storyboard Layer 4 (Overlay)
//Storyboard Sound Samples

[TimingPoints]
573,394.736842105263,4,1,0,20,1,0
573,-142.857142857143,4,1,0,20,0,0
12415,-140.845070422535,4,1,0,20,0,0
13007,-138.888888888889,4,1,0,25,0,0
15572,-136.986301369863,4,1,0,25,0,0
16165,-135.135135135135,4,1,0,25,0,0
18730,-133.333333333333,4,1,0,25,0,0
19322,-131.578947368421,4,1,0,25,0,0
25638,-100,4,1,0,30,0,0
38467,-100,4,1,0,30,0,1
51099,-100,4,1,0,30,0,0
76559,-111.111111111111,4,1,0,30,0,0
101526,-100,4,1,0,30,0,0
114257,-100,4,1,0,30,0,1
126888,-100,4,1,0,30,0,0
127086,-102.564102564103,4,1,0,20,0,0
128270,-105.263157894737,4,1,0,20,0,0
130046,-108.108108108108,4,1,0,20,0,0
131428,-111.111111111111,4,1,0,20,0,0
131625,-112.359550561798,4,1,0,20,0,0
131822,-114.285714285714,4,1,0,20,0,0
133204,-117.647058823529,4,1,0,20,0,0
133599,-121.212121212121,4,1,0,20,0,0
134586,-125,4,1,0,20,0,0
136362,-129.032258064516,4,1,0,20,0,0
137744,-133.333333333333,4,1,0,20,0,0
137941,-136.054421768707,4,1,0,20,0,0
138138,-137.931034482759,4,1,0,20,0,0
139520,-142.857142857143,4,1,0,20,0,0
139915,-144.927536231884,4,1,0,20,0,0
140901,-148.148148148148,4,1,0,20,0,0
142678,-153.846153846154,4,1,0,20,0,0
144059,-156.25,4,1,0,20,0,0
144257,-157.48031496063,4,1,0,20,0,0
144454,-160,4,1,0,20,0,0
145836,-166.666666666667,4,1,0,20,0,0
146230,-169.491525423729,4,1,0,20,0,0
147217,-173.913043478261,4,1,0,20,0,0
148994,-181.818181818182,4,1,0,20,0,0
150375,-185.185185185185,4,1,0,20,0,0
150572,-186.915887850467,4,1,0,20,0,0
150770,-190.47619047619,4,1,0,20,0,0

[HitObjects]
256,192,573,5,8,0:0:0:0:
256,192,3730,1,8,0:0:0:0:
256,192,6099,1,0,0:0:0:0:
256,192,6888,1,8,0:0:0:0:
256,192,10046,1,8,0:0:0:0:
256,192,11625,1,0,0:0:0:0:
256,192,12415,1,8,0:0:0:0:
256,192,13204,1,0,0:0:0:0:
256,192,13994,1,8,0:0:0:0:
256,192,14586,1,0,0:0:0:0:
256,192,15178,1,0,0:0:0:0:
256,192,15572,1,8,0:0:0:0:
256,192,16362,1,0,0:0:0:0:
256,192,17151,1,8,0:0:0:0:
256,192,17744,1,0,0:0:0:0:
256,192,18138,1,0,0:0:0:0:
256,192,18730,1,8,0:0:0:0:
256,192,19520,1,0,0:0:0:0:
256,192,20309,1,8,0:0:0:0:
256,192,20901,1,0,0:0:0:0:
256,192,21494,1,0,0:0:0:0:
256,192,21888,1,8,0:0:0:0:
256,192,22678,1,0,0:0:0:0:
256,192,25836,1,4,0:0:0:0:
256,192,26428,1,0,0:0:0:0:
256,192,26625,1,8,0:0:0:0:
256,192,27217,1,0,0:0:0:0:
256,192,28204,1,8,0:0:0:0:
256,192,28994,1,0,0:0:0:0:
256,192,29586,1,0,0:0:0:0:
256,192,29783,1,8,0:0:0:0:
256,192,30967,1,0,0:0:0:0:
256,192,31362,1,8,0:0:0:0:
256,192,32151,1,0,0:0:0:0:
256,192,32744,1,0,0:0:0:0:
256,192,32941,1,8,0:0:0:0:
256,192,33533,1,0,0:0:0:0:
256,192,34520,1,8,0:0:0:0:
256,192,35309,1,0,0:0:0:0:
256,192,35901,1,0,0:0:0:0:
256,192,36099,1,8,0:0:0:0:
256,192,37283,1,0,0:0:0:0:
256,192,37678,1,8,0:0:0:0:
256,192,38467,1,4,0:0:0:0:
256,192,39059,1,0,0:0:0:0:
256,192,39257,1,8,0:0:0:0:
256,192,39849,1,0,0:0:0:0:
256,192,40244,1,0,0:0:0:0:
256,192,40441,1,0,0:0:0:0:
256,192,40836,1,8,0:0:0:0:
256,192,41230,1,8,0:0:0:0:
256,192,41625,1,0,0:0:0:0:
256,192,42217,1,0,0:0:0:0:
256,192,42415,1,8,0:0:0:0:
256,192,42809,1,0,0:0:0:0:
256,192,43007,1,0,0:0:0:0:
256,192,43401,1,0,0:0:0:0:
256,192,43796,1,0,0:0:0:0:
256,192,43994,1,8,0:0:0:0:
256,192,44783,1,0,0:0:0:0:
256,192,45375,1,0,0:0:0:0:
256,192,45572,1,8,0:0:0:0:
256,192,46165,1,0,0:0:0:0:
256,192,46559,1,0,0:0:0:0:
256,192,46757,1,0,0:0:0:0:
256,192,47151,1,8,0:0:0:0:
256,192,47546,1,8,0:0:0:0:
256,192,47941,1,0,0:0:0:0:
256,192,48533,1,0,0:0:0:0:
256,192,48730,1,8,0:0:0:0:
256,192,49125,1,0,0:0:0:0:
256,192,49322,1,0,0:0:0:0:
256,192,49717,1,0,0:0:0:0:
256,192,50112,1,0,0:0:0:0:
256,192,50309,1,8,0:0:0:0:
256,192,51099,1,4,0:0:0:0:
256,192,51691,1,0,0:0:0:0:
256,192,51888,1,8,0:0:0:0:
256,192,52283,1,0,0:0:0:0:
256,192,52678,1,8,0:0:0:0:
256,192,52875,1,8,0:0:0:0:
256,192,53072,1,8,0:0:0:0:
256,192,53467,1,0,0:0:0:0:
256,192,53862,1,8,0:0:0:0:
256,192,54257,1,0,0:0:0:0:
256,192,55046,1,8,0:0:0:0:
256,192,55441,1,0,0:0:0:0:
256,192,55638,1,0,0:0:0:0:
256,192,56033,1,0,0:0:0:0:
256,192,56230,1,0,0:0:0:0:
256,192,56625,1,8,0:0:0:0:
256,192,57415,1,0,0:0:0:0:
256,192,57809,1,8,0:0:0:0:
256,192,58007,1,8,0:0:0:0:
256,192,58204,1,0,0:0:0:0:
256,192,58599,1,0,0:0:0:0:
256,192,58994,1,8,0:0:0:0:
256,192,59191,1,8,0:0:0:0:
256,192,59388,1,8,0:0:0:0:
256,192,59783,1,0,0:0:0:0:
256,192,60178,1,8,0:0:0:0:
256,192,60572,1,0,0:0:0:0:
256,192,61362,1,8,0:0:0:0:
256,192,61757,1,0,0:0:0:0:
256,192,61954,1,0,0:0:0:0:
256,192,62349,1,0,0:0:0:0:
256,192,62546,1,0,0:0:0:0:
256,192,62941,1,8,0:0:0:0:
256,192,63336,1,8,0:0:0:0:
256,192,63730,1,4,0:0:0:0:
256,192,64322,1,0,0:0:0:0:
256,192,64520,1,8,0:0:0:0:
256,192,64915,1,0,0:0:0:0:
256,192,65309,1,8,0:0:0:0:
256,192,65507,1,8,0:0:0:0:
256,192,65704,1,8,0:0:0:0:
256,192,66099,1,0,0:0:0:0:
256,192,66494,1,8,0:0:0:0:
256,192,66888,1,0,0:0:0:0:
256,192,67678,1,8,0:0:0:0:
256,192,68072,1,0,0:0:0:0:
256,192,68270,1,0,0:0:0:0:
256,192,68665,1,0,0:0:0:0:
256,192,68862,1,0,0:0:0:0:
256,192,69257,1,8,0:0:0:0:
256,192,70046,1,0,0:0:0:0:
256,192,70441,1,8,0:0:0:0:
256,192,70638,1,8,0:0:0:0:
256,192,70836,1,0,0:0:0:0:
256,192,71230,1,0,0:0:0:0:
256,192,71625,1,8,0:0:0:0:
256,192,71822,1,8,0:0:0:0:
256,192,72020,1,8,0:0:0:0:
256,192,72415,1,0,0:0:0:0:
256,192,72809,1,8,0:0:0:0:
256,192,73204,1,0,0:0:0:0:
256,192,73994,1,8,0:0:0:0:
256,192,74388,1,0,0:0:0:0:
256,192,74783,1,8,0:0:0:0:
256,192,75178,1,0,0:0:0:0:
256,192,75375,1,0,0:0:0:0:
256,192,75572,1,8,0:0:0:0:
256,192,75967,1,8,0:0:0:0:
256,192,76362,1,4,0:0:0:0:
256,192,76954,1,0,0:0:0:0:
256,192,77151,1,8,0:0:0:0:
256,192,77546,1,0,0:0:0:0:
256,192,77941,1,8,0:0:0:0:
256,192,78138,1,0,0:0:0:0:
256,192,78336,1,8,0:0:0:0:
256,192,78730,1,0,0:0:0:0:
256,192,79520,1,0,0:0:0:0:
256,192,80112,1,0,0:0:0:0:
256,192,80309,1,8,0:0:0:0:
256,192,80704,1,0,0:0:0:0:
256,192,81099,1,8,0:0:0:0:
256,192,81296,1,8,0:0:0:0:
256,192,81494,1,0,0:0:0:0:
256,192,81888,1,8,0:0:0:0:
256,192,82678,1,0,0:0:0:0:
256,192,83270,1,0,0:0:0:0:
256,192,83467,1,8,0:0:0:0:
256,192,83862,1,0,0:0:0:0:
256,192,84257,1,8,0:0:0:0:
256,192,84454,1,8,0:0:0:0:
256,192,84651,1,8,0:0:0:0:
256,192,85046,1,0,0:0:0:0:
256,192,85836,1,8,0:0:0:0:
256,192,86230,1,0,0:0:0:0:
256,192,86625,1,8,0:0:0:0:
256,192,87020,1,0,0:0:0:0:
256,192,87415,1,8,0:0:0:0:
256,192,87809,1,0,0:0:0:0:
256,192,88204,1,8,0:0:0:0:
256,192,88599,1,8,0:0:0:0:
256,192,88994,1,4,0:0:0:0:
256,192,89586,1,0,0:0:0:0:
256,192,89783,1,8,0:0:0:0:
256,192,90178,1,0,0:0:0:0:
256,192,90572,1,8,0:0:0:0:
256,192,91362,1,8,0:0:0:0:
256,192,92151,1,0,0:0:0:0:
256,192,92744,1,0,0:0:0:0:
256,192,92941,1,8,0:0:0:0:
256,192,93336,1,0,0:0:0:0:
256,192,93730,1,8,0:0:0:0:
256,192,93928,1,8,0:0:0:0:
256,192,94125,1,0,0:0:0:0:
256,192,94520,1,8,0:0:0:0:
256,192,95309,1,0,0:0:0:0:
256,192,95901,1,0,0:0:0:0:
256,192,96099,1,8,0:0:0:0:
256,192,96494,1,0,0:0:0:0:
256,192,96888,1,8,0:0:0:0:
256,192,97086,1,8,0:0:0:0:
256,192,97283,1,8,0:0:0:0:
256,192,97678,1,0,0:0:0:0:
256,192,98467,1,0,0:0:0:0:
256,192,99059,1,0,0:0:0:0:
256,192,99257,1,8,0:0:0:0:
256,192,99651,1,8,0:0:0:0:
256,192,100046,1,0,0:0:0:0:
256,192,100836,1,8,0:0:0:0:
256,192,101625,1,4,0:0:0:0:
256,192,102217,1,0,0:0:0:0:
256,192,102415,1,8,0:0:0:0:
256,192,103007,1,0,0:0:0:0:
256,192,103994,1,8,0:0:0:0:
256,192,104783,1,0,0:0:0:0:
256,192,105375,1,0,0:0:0:0:
256,192,105572,1,8,0:0:0:0:
256,192,106757,1,0,0:0:0:0:
256,192,107151,1,8,0:0:0:0:
256,192,107941,1,0,0:0:0:0:
256,192,108533,1,0,0:0:0:0:
256,192,108730,1,8,0:0:0:0:
256,192,109322,1,0,0:0:0:0:
256,192,110309,1,8,0:0:0:0:
256,192,111099,1,0,0:0:0:0:
256,192,111691,1,0,0:0:0:0:
256,192,111888,1,8,0:0:0:0:
256,192,113072,1,0,0:0:0:0:
256,192,113467,1,8,0:0:0:0:
256,192,114257,1,4,0:0:0:0:
256,192,114849,1,0,0:0:0:0:
256,192,115046,1,8,0:0:0:0:
256,192,115638,1,0,0:0:0:0:
256,192,116033,1,0,0:0:0:0:
256,192,116230,1,0,0:0:0:0:
256,192,116625,1,8,0:0:0:0:
256,192,117020,1,8,0:0:0:0:
256,192,117415,1,0,0:0:0:0:
256,192,118007,1,0,0:0:0:0:
256,192,118204,1,8,0:0:0:0:
256,192,118599,1,0,0:0:0:0:
256,192,118796,1,0,0:0:0:0:
256,192,119191,1,0,0:0:0:0:
256,192,119586,1,0,0:0:0:0:
256,192,119783,1,8,0:0:0:0:
256,192,120572,1,0,0:0:0:0:
256,192,121165,1,0,0:0:0:0:
256,192,121362,1,8,0:0:0:0:
256,192,121954,1,0,0:0:0:0:
256,192,122349,1,0,0:0:0:0:
256,192,122546,1,0,0:0:0:0:
256,192,122941,1,8,0:0:0:0:
256,192,123336,1,8,0:0:0:0:
256,192,123730,1,0,0:0:0:0:
256,192,124322,1,0,0:0:0:0:
256,192,124520,1,8,0:0:0:0:
256,192,124915,1,0,0:0:0:0:
256,192,125112,1,0,0:0:0:0:
256,192,125507,1,0,0:0:0:0:
256,192,125901,1,0,0:0:0:0:
256,192,126099,1,8,0:0:0:0:
256,192,126888,1,0,0:0:0:0:
256,192,127283,1,0,0:0:0:0:
256,192,128270,1,0,0:0:0:0:
256,192,130046,1,0,0:0:0:0:
256,192,131428,1,0,0:0:0:0:
256,192,131822,1,8,0:0:0:0:
256,192,133204,1,0,0:0:0:0:
256,192,133599,1,0,0:0:0:0:
256,192,134586,1,0,0:0:0:0:
256,192,136362,1,0,0:0:0:0:
256,192,137744,1,0,0:0:0:0:
256,192,138138,1,8,0:0:0:0:
256,192,139520,1,0,0:0:0:0:
256,192,139915,1,0,0:0:0:0:
256,192,140901,1,0,0:0:0:0:
256,192,142678,1,0,0:0:0:0:
256,192,144059,1,0,0:0:0:0:
256,192,144454,1,8,0:0:0:0:
256,192,145836,1,0,0:0:0:0:
256,192,146230,1,0,0:0:0:0:
256,192,147217,1,0,0:0:0:0:
256,192,148994,1,0,0:0:0:0:
256,192,150375,1,0,0:0:0:0:
256,192,150770,1,8,0:0:0:0:
