osu file format v14

[General]
AudioFilename: Mc caco La Cajita feliz.mp3
AudioLeadIn: 0
PreviewTime: -1
Countdown: 0
SampleSet: Normal
StackLeniency: 0.7
Mode: 0
LetterboxInBreaks: 0
WidescreenStoryboard: 1

[Editor]
DistanceSpacing: 0.9
BeatDivisor: 4
GridSize: 8
TimelineZoom: 1

[Metadata]
Title:Me compre una cajita feliz
TitleUnicode:Me compre una cajita feliz
Artist:Mc Caco
ArtistUnicode:Mc Caco
Creator:Ale555
Version:Normal
Source:cumbia
Tags:me compre una cajita feliz
BeatmapID:2704744
BeatmapSetID:430794

[Difficulty]
HPDrainRate:4
CircleSize:2.5
OverallDifficulty:4
ApproachRate:6
SliderMultiplier:1.8
SliderTickRate:2

[Events]
//Background and Video events
0,0,"search.jpg",0,0
//Break Periods
//Storyboard Layer 0 (Background)
//Storyboard Layer 1 (Fail)
//Storyboard Layer 2 (Pass)
//Storyboard Layer 3 (Foreground)
//Storyboard Layer 4 (Overlay)
//Storyboard Sound Samples

[TimingPoints]
1730,631.446011366028,4,1,0,49,1,0
9624,-100,4,1,0,60,0,0
10572,-100,4,1,0,90,0,0
57940,-100,4,1,0,80,0,1
80045,-100,4,1,0,30,0,0

[Colours]
Combo1 : 255,255,255
Combo2 : 15,191,232

[HitObjects]
104,136,1730,5,0,0:0:0:0:
208,48,2361,1,2,0:0:0:0:
408,136,2992,5,0,0:0:0:0:
304,48,3623,1,2,0:0:0:0:
304,200,4255,5,0,0:0:0:0:
480,120,4887,1,2,0:0:0:0:
400,200,5518,5,0,0:0:0:0:
232,128,6150,1,2,0:0:0:0:
144,272,6781,5,0,0:0:0:0:
144,112,7413,1,2,0:0:0:0:
264,272,8044,5,0,0:0:0:0:
264,112,8675,1,2,0:0:0:0:
96,184,9307,5,0,0:0:0:0:
208,184,9623,2,0,L|304:184,1,90
360,232,10570,5,4,0:0:0:0:
304,88,11201,1,4,0:0:0:0:
104,160,11833,6,0,P|88:208|144:288,1,135,0|8,0:0|0:0,0:0:0:0:
216,232,12464,2,0,P|272:216|312:240,1,90,0|8,0:0|0:0,0:0:0:0:
424,280,13096,6,0,P|408:208|440:160,1,135,0|8,0:0|0:0,0:0:0:0:
336,120,13727,2,0,P|288:144|232:112,1,90,0|8,0:0|0:0,0:0:0:0:
112,264,14358,6,0,P|120:208|144:112,1,135,0|8,0:0|0:0,0:0:0:0:
160,80,14990,2,0,P|192:48|216:80,1,90,0|8,0:0|0:0,0:0:0:0:
232,120,15621,6,0,P|232:192|240:256,1,135,0|8,0:0|0:0,0:0:0:0:
256,176,16253,2,0,P|280:112|296:80,1,90,0|8,0:0|0:0,0:0:0:0:
312,48,16884,6,0,P|344:80|368:168,1,135,0|8,0:0|0:0,0:0:0:0:
376,192,17516,2,0,P|384:224|384:280,1,90,0|8,0:0|0:0,0:0:0:0:
264,344,18147,5,0,0:0:0:0:
264,344,18463,1,0,0:0:0:0:
256,224,18779,1,0,0:0:0:0:
256,224,19094,1,0,0:0:0:0:
176,288,19410,1,0,0:0:0:0:
400,200,20041,5,0,0:0:0:0:
336,288,20357,1,0,0:0:0:0:
440,264,20673,1,4,0:0:0:0:
368,96,21620,6,0,L|416:96,2,45
272,96,22251,2,0,L|200:96,2,45
328,168,22883,2,0,L|304:208,1,45
272,240,23199,2,0,B|224:264|224:264|192:304,1,90
104,240,23830,1,0,0:0:0:0:
144,144,24146,6,0,L|144:80,2,45
248,152,24777,2,0,L|248:216,2,45
368,200,25409,2,0,L|400:232,1,45
448,264,25724,2,0,P|456:320|448:352,1,90
320,368,26356,1,0,0:0:0:0:
200,312,26672,6,0,L|128:312,1,45
112,272,26987,2,0,P|96:224|120:176,1,90
160,144,27461,2,0,L|208:152,1,45
304,200,27935,6,0,L|312:248,1,45
376,248,28250,2,0,L|432:248,1,45
472,192,28566,2,0,L|472:136,2,45
360,144,29197,2,0,L|360:208,1,45
296,216,29513,2,0,L|240:216,1,45
208,160,29829,2,0,L|216:96,2,45
128,152,30460,6,0,L|104:208,1,45
72,232,30776,2,0,L|120:328,1,90,0|8,0:0|0:0,0:0:0:0:
208,272,31407,2,0,P|264:256|344:280,1,135,2|8,0:0|0:0,0:0:0:0:
352,288,32039,1,4,0:0:0:0:
48,296,33302,6,0,L|56:192,1,90
152,296,33933,2,0,L|144:200,1,90
304,296,34565,6,0,L|328:192,1,90
424,296,35196,2,0,L|408:200,1,90
368,80,35828,5,0,0:0:0:0:
368,80,36143,1,0,0:0:0:0:
248,168,36459,1,0,0:0:0:0:
248,168,36775,1,0,0:0:0:0:
384,200,37090,5,0,0:0:0:0:
296,128,37406,1,0,0:0:0:0:
304,232,37722,1,0,0:0:0:0:
384,104,38038,1,0,0:0:0:0:
296,120,38353,6,0,P|224:136|184:104,1,90
104,184,38985,2,0,P|136:232|128:272,1,90
224,296,39616,2,0,P|280:280|328:312,1,90
400,240,40248,2,0,P|392:192|416:152,1,90
472,88,40879,6,0,L|504:176,1,90
424,248,41511,2,0,L|384:144,1,90
352,80,42142,1,8,0:0:0:0:
256,136,42458,1,8,0:0:0:0:
256,120,42773,2,8,L|256:64,2,45
128,96,43405,6,0,L|128:224,1,90
248,216,44036,2,0,L|248:104,1,90
88,296,44668,2,0,L|192:296,1,90
240,360,45299,2,0,L|144:360,1,90
232,272,45931,6,0,L|232:176,1,90
336,160,46562,2,0,L|336:264,1,90
416,288,47194,2,0,L|464:200,1,90
384,144,47825,2,0,L|432:56,1,90
344,48,48457,6,0,P|288:80|160:32,1,180
96,120,49404,1,0,0:0:0:0:
168,200,49719,2,0,P|224:224|360:184,1,180
456,144,50667,1,0,0:0:0:0:
456,256,50982,1,4,0:0:0:0:
88,328,52245,6,0,P|184:352|240:320,1,135,0|8,0:0|0:0,0:0:0:0:
176,256,52877,2,0,P|232:240|272:256,1,90,0|8,0:0|0:0,0:0:0:0:
368,344,53508,2,0,P|344:296|376:208,1,135,0|8,0:0|0:0,0:0:0:0:
448,280,54140,2,0,P|472:216|464:184,1,90,0|8,0:0|0:0,0:0:0:0:
416,144,54771,6,0,P|376:120|280:144,1,135,0|8,0:0|0:0,0:0:0:0:
344,216,55402,2,0,P|288:224|240:200,1,90,0|8,0:0|0:0,0:0:0:0:
152,120,56034,5,0,0:0:0:0:
208,216,56350,1,0,0:0:0:0:
256,128,56665,1,0,0:0:0:0:
104,200,56981,1,0,0:0:0:0:
208,280,57297,1,4,0:0:0:0:
296,80,58086,5,0,0:0:0:0:
296,120,58244,1,0,0:0:0:0:
296,168,58402,1,0,0:0:0:0:
256,184,58560,6,0,L|208:184,1,45
211,184,58875,2,0,L|144:184,1,45
144,184,59191,2,0,L|96:184,1,45
99,184,59507,2,0,L|32:184,1,45
48,248,59823,6,0,L|104:248,1,45
104,248,60138,2,0,L|160:248,1,45
160,248,60454,2,0,L|208:248,1,45
205,248,60770,2,0,L|264:248,1,45
296,248,61085,2,0,P|344:256|408:240,1,90
392,168,61717,2,0,P|328:152|288:168,1,90
200,208,62348,5,4,0:0:0:0:
392,128,62980,1,4,0:0:0:0:
424,272,63611,5,8,0:0:0:0:
424,272,63769,1,8,0:0:0:0:
424,272,63927,1,8,0:0:0:0:
424,272,64085,1,8,0:0:0:0:
320,280,64243,5,8,0:0:0:0:
320,280,64401,1,8,0:0:0:0:
320,280,64558,1,8,0:0:0:0:
320,280,64716,1,8,0:0:0:0:
216,280,64874,5,8,0:0:0:0:
216,280,65032,1,8,0:0:0:0:
216,280,65190,1,8,0:0:0:0:
216,280,65348,1,8,0:0:0:0:
104,328,65506,5,8,0:0:0:0:
104,328,65663,1,8,0:0:0:0:
104,328,65821,1,8,0:0:0:0:
104,328,65979,1,8,0:0:0:0:
104,328,66137,2,8,P|152:376|216:368,1,135,0|8,0:0|0:0,0:0:0:0:
200,272,66768,2,0,P|256:264|304:320,1,135,0|8,0:0|0:0,0:0:0:0:
384,360,67400,2,0,P|400:288|456:248,1,135,0|8,0:0|0:0,0:0:0:0:
376,192,68031,2,0,P|304:216|224:192,1,135,0|8,0:0|0:0,0:0:0:0:
192,112,68663,5,0,0:0:0:0:
192,112,68821,1,0,0:0:0:0:
192,112,68979,2,0,L|136:112,1,45
112,112,69294,1,0,0:0:0:0:
112,112,69452,1,0,0:0:0:0:
112,112,69610,2,0,L|112:176,1,45
144,176,69926,5,0,0:0:0:0:
144,176,70084,1,0,0:0:0:0:
144,176,70241,2,0,L|192:176,1,45
224,152,70557,1,0,0:0:0:0:
224,152,70715,1,0,0:0:0:0:
224,152,70873,2,0,L|224:96,1,45
256,80,71189,6,0,B|320:56|320:56|384:72,1,135
360,152,71820,2,0,B|384:208|384:208|360:296,1,135
264,264,72451,2,0,L|184:248,1,45
160,264,72767,2,0,L|176:200,1,45
120,232,73083,2,0,P|64:248|24:232,1,90
88,104,73714,5,8,0:0:0:0:
88,104,73872,1,8,0:0:0:0:
88,104,74030,2,8,L|136:104,1,45
176,104,74346,1,8,0:0:0:0:
176,104,74504,1,8,0:0:0:0:
176,104,74662,2,8,L|224:104,1,45
248,160,74977,5,8,0:0:0:0:
248,160,75135,1,8,0:0:0:0:
248,160,75293,2,8,L|304:160,1,45
328,208,75609,1,8,0:0:0:0:
328,208,75767,1,8,0:0:0:0:
328,208,75924,2,8,L|376:232,1,45,8|0,0:0|0:0,0:0:0:0:
368,336,76240,6,0,L|328:296,1,45,0|8,0:0|0:0,0:0:0:0:
368,336,76556,2,0,L|408:304,1,45,0|8,0:0|0:0,0:0:0:0:
368,336,76872,2,0,L|416:376,1,45,0|8,0:0|0:0,0:0:0:0:
368,336,77187,2,0,L|320:368,1,45,0|8,0:0|0:0,0:0:0:0:
216,328,77503,6,0,L|176:288,1,45,4|8,0:0|0:0,0:0:0:0:
216,328,77819,2,0,L|256:296,1,45,0|8,0:0|0:0,0:0:0:0:
216,328,78135,2,0,L|264:368,1,45,0|8,0:0|0:0,0:0:0:0:
216,328,78450,2,0,L|168:360,1,45,0|8,0:0|0:0,0:0:0:0:
216,328,78766,1,4,0:0:0:0:
