osu file format v14

[General]
AudioFilename: Mc caco La Cajita feliz.mp3
AudioLeadIn: 0
PreviewTime: -1
Countdown: 0
SampleSet: Normal
StackLeniency: 0.7
Mode: 0
LetterboxInBreaks: 0
WidescreenStoryboard: 0

[Editor]
DistanceSpacing: 0.9
BeatDivisor: 4
GridSize: 4
TimelineZoom: 1

[Metadata]
Title:Me compre una cajita feliz
TitleUnicode:Me compre una cajita feliz
Artist:Mc Caco
ArtistUnicode:Mc Caco
Creator:Ale555
Version:De la cabeza
Source:cumbia
Tags:me compre una cajita feliz
BeatmapID:929252
BeatmapSetID:430794

[Difficulty]
HPDrainRate:4
CircleSize:4
OverallDifficulty:4
ApproachRate:9
SliderMultiplier:1.8
SliderTickRate:2

[Events]
//Background and Video events
0,0,"search.jpg",0,0
//Break Periods
//Storyboard Layer 0 (Background)
//Storyboard Layer 1 (Fail)
//Storyboard Layer 2 (Pass)
//Storyboard Layer 3 (Foreground)
//Storyboard Layer 4 (Overlay)
//Storyboard Sound Samples

[TimingPoints]
1720,631.578947368421,4,1,0,49,1,0
9624,-100,4,1,0,60,0,0
10572,-100,4,1,0,90,0,0
57940,-100,4,1,0,80,0,1
80045,-100,4,1,0,30,0,0

[HitObjects]
80,72,1720,6,0,L|188:72,1,90
400,72,2351,2,0,L|300:72,1,90
120,204,2983,2,0,L|208:140,1,90
392,220,3614,2,0,L|320:152,1,90
104,252,4246,5,0,0:0:0:0:
172,44,4877,1,0,0:0:0:0:
236,248,5509,1,0,0:0:0:0:
320,44,6141,1,0,0:0:0:0:
104,304,6772,5,0,0:0:0:0:
300,248,7404,1,0,0:0:0:0:
108,196,8035,1,0,0:0:0:0:
336,132,8667,1,0,0:0:0:0:
192,216,9298,1,0,0:0:0:0:
376,152,9614,5,8,0:0:0:0:
376,152,9693,1,8,0:0:0:0:
376,152,9772,1,8,0:0:0:0:
264,248,9930,1,8,0:0:0:0:
264,248,10009,1,8,0:0:0:0:
264,248,10088,1,8,0:0:0:0:
264,248,10167,1,8,0:0:0:0:
424,200,10562,5,4,0:0:0:0:
64,204,11193,1,4,0:0:0:0:
292,40,11825,5,0,0:0:0:0:
140,96,11983,1,0,0:0:0:0:
260,168,12141,1,8,0:0:0:0:
112,240,12298,1,0,0:0:0:0:
244,80,12456,1,0,0:0:0:0:
352,228,12614,1,0,0:0:0:0:
152,160,12772,1,8,0:0:0:0:
344,108,12930,1,0,0:0:0:0:
168,276,13088,6,0,L|264:276,1,90,0|8,0:0|0:0,0:0:0:0:
340,196,13562,1,0,0:0:0:0:
112,104,13720,2,0,L|60:140,1,45
352,128,14035,2,0,L|404:96,1,45,8|0,0:0|0:0,0:0:0:0:
300,264,14351,5,0,0:0:0:0:
204,48,14509,1,0,0:0:0:0:
128,260,14667,1,8,0:0:0:0:
280,44,14825,1,8,0:0:0:0:
412,248,14983,1,0,0:0:0:0:
316,316,15141,1,0,0:0:0:0:
344,192,15298,1,8,0:0:0:0:
440,324,15456,1,8,0:0:0:0:
448,208,15614,6,0,P|448:128|440:104,1,90
404,84,16088,1,8,0:0:0:0:
344,76,16246,2,0,L|232:76,1,90
204,104,16720,1,8,0:0:0:0:
160,148,16877,2,0,P|124:176|96:224,1,90
128,256,17351,1,8,0:0:0:0:
184,272,17509,2,0,P|240:272|284:252,1,90,0|8,0:0|0:0,0:0:0:0:
304,208,17983,5,2,0:0:0:0:
280,76,18141,1,0,0:0:0:0:
384,92,18298,1,0,0:0:0:0:
184,120,18456,1,0,0:0:0:0:
300,164,18614,1,8,0:0:0:0:
388,208,18772,5,8,0:0:0:0:
388,208,18851,1,0,0:0:0:0:
388,208,18930,1,0,0:0:0:0:
228,208,19088,1,0,0:0:0:0:
228,208,19167,1,0,0:0:0:0:
228,208,19246,1,0,0:0:0:0:
316,88,19404,1,4,0:0:0:0:
80,264,20035,5,4,0:0:0:0:
384,172,20351,1,4,0:0:0:0:
80,112,20667,1,4,0:0:0:0:
128,96,21614,5,0,0:0:0:0:
128,96,21693,1,0,0:0:0:0:
128,96,21772,1,0,0:0:0:0:
124,92,21930,1,0,0:0:0:0:
212,108,22088,1,0,0:0:0:0:
292,88,22246,1,0,0:0:0:0:
372,112,22404,1,0,0:0:0:0:
192,268,22562,2,0,L|272:204,1,90
368,216,23035,1,0,0:0:0:0:
176,132,23193,2,0,L|100:188,1,90
428,120,23825,6,0,B|428:64|428:64|372:28,1,90
340,48,24298,1,0,0:0:0:0:
276,48,24456,2,0,L|180:48,1,90
136,80,24930,1,0,0:0:0:0:
376,156,25088,1,0,0:0:0:0:
436,156,25246,1,0,0:0:0:0:
204,236,25404,1,0,0:0:0:0:
140,240,25562,1,0,0:0:0:0:
408,312,25720,2,0,L|408:196,1,90
344,132,26667,5,0,0:0:0:0:
224,72,26825,1,0,0:0:0:0:
424,64,26983,1,0,0:0:0:0:
484,64,27141,1,0,0:0:0:0:
284,132,27298,1,0,0:0:0:0:
224,132,27456,1,0,0:0:0:0:
436,180,27614,2,0,B|436:232|436:232|408:272,1,90
352,264,28088,5,0,0:0:0:0:
256,144,28246,1,0,0:0:0:0:
184,260,28404,1,0,0:0:0:0:
328,196,28562,1,0,0:0:0:0:
176,88,28720,1,0,0:0:0:0:
168,328,28877,2,0,B|240:320|240:320|288:304,1,90
260,200,29351,1,0,0:0:0:0:
364,216,29509,1,0,0:0:0:0:
292,288,29667,1,0,0:0:0:0:
192,96,29825,1,0,0:0:0:0:
76,152,29983,1,0,0:0:0:0:
232,176,30141,2,0,B|292:172|292:172|328:196,1,90
392,272,30614,5,0,0:0:0:0:
264,328,30772,1,0,0:0:0:0:
172,192,31088,1,0,0:0:0:0:
356,196,31404,1,0,0:0:0:0:
256,64,31720,1,0,0:0:0:0:
260,196,32035,1,4,0:0:0:0:
100,96,33298,6,0,P|172:76|220:64,1,90
324,224,33930,2,0,L|424:176,1,90
84,240,34562,2,0,L|176:184,1,90
312,76,35193,1,0,0:0:0:0:
372,184,35351,1,0,0:0:0:0:
428,76,35509,1,0,0:0:0:0:
236,280,35667,1,0,0:0:0:0:
192,196,35825,2,0,L|316:192,1,90
372,80,36456,5,0,0:0:0:0:
448,188,36772,1,0,0:0:0:0:
288,192,37088,2,0,L|184:232,1,90
116,120,37720,2,0,L|208:76,1,90
320,80,38351,5,0,0:0:0:0:
420,164,38667,1,0,0:0:0:0:
168,160,38983,1,0,0:0:0:0:
248,232,39141,1,0,0:0:0:0:
168,316,39298,1,0,0:0:0:0:
248,156,39456,1,0,0:0:0:0:
340,308,39614,2,0,L|244:312,1,90
156,160,40246,2,0,L|256:164,1,90
376,112,40877,5,0,0:0:0:0:
340,256,41193,1,0,0:0:0:0:
284,116,41509,1,0,0:0:0:0:
236,252,41825,1,0,0:0:0:0:
448,132,42141,1,4,0:0:0:0:
88,112,43404,5,0,0:0:0:0:
200,112,43720,1,0,0:0:0:0:
292,192,44035,1,0,0:0:0:0:
424,192,44351,1,0,0:0:0:0:
344,64,44667,1,0,0:0:0:0:
276,200,44983,1,0,0:0:0:0:
160,200,45298,1,0,0:0:0:0:
52,116,45614,1,0,0:0:0:0:
156,76,45930,2,0,B|228:72|228:72|268:88,1,90
444,76,46562,2,0,P|364:80|328:100,1,90
264,144,47193,1,4,0:0:0:0:
108,208,47509,6,0,P|160:216|208:236,1,90
288,232,48141,1,0,0:0:0:0:
408,228,48456,2,0,P|380:144|288:80,1,180
160,88,49404,1,0,0:0:0:0:
304,88,49720,2,0,B|384:128|384:128|432:312|432:312|508:340,1,360
200,96,52246,5,0,0:0:0:0:
328,168,52404,1,0,0:0:0:0:
268,64,52562,1,0,0:0:0:0:
272,216,52720,1,0,0:0:0:0:
336,72,52877,1,0,0:0:0:0:
216,176,53035,1,0,0:0:0:0:
376,132,53193,1,0,0:0:0:0:
216,104,53351,1,0,0:0:0:0:
344,188,53509,2,0,B|300:240|300:240|248:248,1,90
220,244,53983,5,0,0:0:0:0:
180,208,54141,2,0,B|168:160|168:160|188:104,1,90
392,76,54772,5,0,0:0:0:0:
256,112,54930,1,0,0:0:0:0:
388,144,55088,1,0,0:0:0:0:
252,176,55246,1,0,0:0:0:0:
384,212,55404,1,0,0:0:0:0:
304,308,55562,1,0,0:0:0:0:
448,312,55720,1,0,0:0:0:0:
376,124,55877,1,0,0:0:0:0:
244,176,56035,1,4,0:0:0:0:
88,212,56351,1,0,0:0:0:0:
216,280,56667,1,0,0:0:0:0:
312,332,56983,1,0,0:0:0:0:
448,352,57298,1,0,0:0:0:0:
72,328,58088,5,0,0:0:0:0:
116,240,58246,1,0,0:0:0:0:
208,172,58404,1,0,0:0:0:0:
384,100,58562,1,0,0:0:0:0:
208,40,58720,1,0,0:0:0:0:
100,116,58877,1,0,0:0:0:0:
364,236,59035,1,0,0:0:0:0:
100,296,59193,1,0,0:0:0:0:
244,104,59351,1,0,0:0:0:0:
360,48,59509,5,0,0:0:0:0:
440,320,59667,1,0,0:0:0:0:
140,124,59825,2,0,L|96:164,1,45
240,256,60141,1,0,0:0:0:0:
136,40,60298,1,0,0:0:0:0:
268,68,60456,1,0,0:0:0:0:
392,140,60614,1,0,0:0:0:0:
72,184,60772,1,0,0:0:0:0:
456,252,60930,1,0,0:0:0:0:
88,76,61088,6,0,L|140:104,1,45
192,100,61404,1,0,0:0:0:0:
376,100,61720,1,0,0:0:0:0:
312,100,61798,1,0,0:0:0:0:
252,100,61877,1,0,0:0:0:0:
192,100,61956,1,0,0:0:0:0:
192,164,62035,1,0,0:0:0:0:
256,164,62114,1,0,0:0:0:0:
316,164,62193,1,0,0:0:0:0:
380,164,62272,1,0,0:0:0:0:
444,164,62351,1,4,0:0:0:0:
112,72,62983,5,4,0:0:0:0:
400,72,63298,1,4,0:0:0:0:
80,304,63614,5,0,0:0:0:0:
152,192,63772,1,0,0:0:0:0:
204,308,63930,1,0,0:0:0:0:
280,192,64088,1,0,0:0:0:0:
336,308,64246,1,0,0:0:0:0:
220,232,64404,1,0,0:0:0:0:
336,156,64562,1,0,0:0:0:0:
216,84,64720,1,0,0:0:0:0:
80,160,64877,1,0,0:0:0:0:
148,264,65035,1,0,0:0:0:0:
272,308,65193,1,0,0:0:0:0:
384,256,65351,1,0,0:0:0:0:
456,52,65509,5,0,0:0:0:0:
432,160,65667,1,0,0:0:0:0:
392,276,65825,1,0,0:0:0:0:
308,344,65983,1,0,0:0:0:0:
192,272,66141,2,0,L|104:320,1,90
52,316,66614,1,0,0:0:0:0:
288,272,66772,2,0,L|212:328,1,90
52,252,67246,1,0,0:0:0:0:
376,276,67404,2,0,L|296:336,1,90
52,180,67877,1,0,0:0:0:0:
440,168,68035,2,0,L|444:272,1,90
64,60,68667,5,0,0:0:0:0:
220,60,68825,1,0,0:0:0:0:
64,168,68983,1,0,0:0:0:0:
220,168,69141,1,0,0:0:0:0:
336,60,69298,1,0,0:0:0:0:
460,64,69456,1,0,0:0:0:0:
460,212,69614,1,0,0:0:0:0:
336,216,69772,1,0,0:0:0:0:
76,76,69930,6,0,L|76:136,1,45
224,180,70246,2,0,L|276:132,1,45
416,272,70562,2,0,L|456:236,1,45
424,132,70877,1,0,0:0:0:0:
336,52,71035,1,0,0:0:0:0:
196,48,71193,1,4,0:0:0:0:
352,208,71825,1,4,0:0:0:0:
96,208,72456,1,4,0:0:0:0:
296,324,73088,1,4,0:0:0:0:
76,320,73720,5,0,0:0:0:0:
156,240,73877,1,0,0:0:0:0:
72,160,74035,1,0,0:0:0:0:
224,240,74193,1,0,0:0:0:0:
452,328,74351,1,0,0:0:0:0:
372,240,74509,1,0,0:0:0:0:
452,148,74667,1,0,0:0:0:0:
308,240,74825,1,0,0:0:0:0:
96,56,74983,5,0,0:0:0:0:
292,156,75141,1,0,0:0:0:0:
456,324,75298,1,0,0:0:0:0:
136,132,75456,1,0,0:0:0:0:
284,240,75614,1,0,0:0:0:0:
368,344,75772,1,0,0:0:0:0:
80,192,75930,1,0,0:0:0:0:
196,264,76088,1,0,0:0:0:0:
76,340,76246,1,0,0:0:0:0:
420,80,76404,5,0,0:0:0:0:
160,332,76562,1,0,0:0:0:0:
448,160,76720,1,0,0:0:0:0:
128,248,76877,1,0,0:0:0:0:
416,244,77035,1,0,0:0:0:0:
144,164,77193,1,0,0:0:0:0:
376,312,77351,1,0,0:0:0:0:
216,88,77509,1,0,0:0:0:0:
308,332,77667,5,0,0:0:0:0:
284,68,77825,1,0,0:0:0:0:
212,328,77983,1,0,0:0:0:0:
380,80,78141,1,0,0:0:0:0:
140,240,78298,1,0,0:0:0:0:
444,140,78456,1,0,0:0:0:0:
160,112,78614,1,0,0:0:0:0:
256,192,78772,12,0,80035,0:0:0:0:
