osu file format v14

[General]
AudioFilename: audio.mp3
AudioLeadIn: 0
PreviewTime: 87588
Countdown: 0
SampleSet: Soft
StackLeniency: 0.4
Mode: 0
LetterboxInBreaks: 0
WidescreenStoryboard: 1

[Editor]
DistanceSpacing: 1
BeatDivisor: 2
GridSize: 8
TimelineZoom: 1

[Metadata]
Title:Where Do We Go (Cut Ver.)
TitleUnicode:Where Do We Go (Cut Ver.)
Artist:Mazare & RUNN
ArtistUnicode:Mazare & RUNN
Creator:AJT
Version:Normal
Source:
Tags:english electronic dnb drum and bass monstercat asphyxia log off now log_off_now lon
BeatmapID:3697096
BeatmapSetID:1802942

[Difficulty]
HPDrainRate:2
CircleSize:3.5
OverallDifficulty:4
ApproachRate:6
SliderMultiplier:1.1
SliderTickRate:1

[Events]
//Background and Video events
0,0,"wallhaven-qdmk2r.jpg",0,0
//Break Periods
2,6954,7704
2,17620,18371
//Storyboard Layer 0 (Background)
//Storyboard Layer 1 (Fail)
//Storyboard Layer 2 (Pass)
//Storyboard Layer 3 (Foreground)
//Storyboard Layer 4 (Overlay)
//Storyboard Sound Samples

[TimingPoints]
2255,333.333333333333,4,2,1,45,1,0
2255,-111.111111111111,4,2,1,45,0,0
12171,-111.111111111111,4,2,1,10,0,0
12254,-111.111111111111,4,2,1,45,0,0
22838,-111.111111111111,4,2,1,10,0,0
22921,-111.111111111111,4,2,1,45,0,0
23588,-111.111111111111,4,2,1,55,0,0
23921,-105.263157894737,4,2,1,55,0,0
44921,-100,4,2,1,60,0,0
55588,-100,4,2,1,53,0,0
56921,-100,4,2,1,56,0,0
58254,-100,4,2,1,59,0,0
59588,-100,4,2,1,62,0,0
60921,-100,4,2,1,53,0,0
62254,-100,4,2,1,56,0,0
63588,-100,4,2,1,59,0,0
64921,-100,4,2,1,62,0,0
65588,-100,4,2,1,75,0,0
65754,-100,4,2,1,75,0,0
65921,-100,4,2,2,65,0,0
66254,-90.9090909090909,4,2,2,85,0,1
108921,-100,4,2,2,85,0,0

[Colours]
Combo1 : 255,45,45
Combo2 : 0,149,221
Combo3 : 128,0,255
Combo4 : 255,36,146

[HitObjects]
512,0,2254,5,0,1:0:0:0:
462,85,2588,2,0,B|400:85|399:29|319:40,1,148.49999546814,2|2,0:0|0:0,0:0:0:0:
328,188,3588,2,0,P|342:214|358:249,2,49.4999984893799,2|0|0,0:0|0:0|0:0,0:0:0:0:
280,175,4088,2,0,P|227:202|225:296,1,148.49999546814,2|2,0:0|0:0,0:0:0:0:
250,323,4754,1,2,0:0:0:0:
111,376,5254,5,2,0:0:0:0:
18,259,5754,1,2,0:0:0:0:
72,120,6254,2,0,P|93:90|158:136,1,98.9999969787599,2|0,0:0|0:0,0:0:0:0:
175,142,6754,1,2,0:0:0:0:
441,384,8754,5,2,0:0:0:0:
441,384,8920,2,0,B|451:275,1,98.9999969787599,2|2,0:0|0:0,0:0:0:0:
402,269,9421,2,0,P|416:199|487:184,1,148.49999546814,2|2,0:0|0:0,0:0:0:0:
443,91,10254,2,0,B|359:91|358:166|251:151,2,197.99999395752,2|2|2,0:0|0:0|0:0,0:0:0:0:
490,283,12254,1,2,0:0:0:0:
311,368,12921,5,0,0:0:0:0:
308,268,13255,2,0,B|246:268|245:324|165:313,1,148.49999546814,2|2,0:0|0:0,0:0:0:0:
195,166,14255,2,0,P|181:140|165:105,2,49.4999984893799,2|0|0,0:0|0:0|0:0,0:0:0:0:
243,179,14755,2,0,P|296:152|298:58,1,148.49999546814,2|2,0:0|0:0,0:0:0:0:
276,29,15421,1,2,0:0:0:0:
128,9,15921,5,2,0:0:0:0:
28,119,16421,1,0,0:0:0:0:
28,119,16588,2,0,P|35:153|36:241,1,98.9999969787599,2|2,0:0|0:0,0:0:0:0:
105,289,17254,2,0,P|100:321|91:344,1,49.4999984893799,0|2,0:0|0:0,0:0:0:0:
424,42,19421,5,2,0:0:0:0:
424,42,19588,2,0,P|452:50|488:63,2,49.4999984893799,2|0|2,0:0|0:0|0:0,0:0:0:0:
374,49,20088,2,0,P|321:76|319:170,1,148.49999546814,2|2,0:0|0:0,0:0:0:0:
361,243,20921,1,2,0:0:0:0:
184,333,21588,1,2,0:0:0:0:
95,156,22254,1,2,0:0:0:0:
256,192,22421,12,0,23588,1:0:0:0:
256,192,24254,6,0,P|281:195|358:213,2,104.499997209549,2|10|0,0:0|0:0|1:0,0:0:0:0:
171,253,25254,1,10,0:0:0:0:
95,180,25588,2,0,P|92:155|74:78,1,104.499997209549,2|10,0:0|0:0,0:0:0:0:
332,37,26754,5,2,0:0:0:0:
435,55,27088,1,2,1:2:0:0:
480,149,27421,2,0,P|477:174|459:251,1,104.499997209549,2|2,0:0|0:0,0:0:0:0:
408,263,27921,2,0,P|366:271|352:288,1,52.2499986047745,10|2,0:0|0:0,0:0:0:0:
358,330,28254,2,0,P|335:340|268:383,2,104.499997209549,2|10|0,0:0|0:0|1:0,0:0:0:0:
214,177,29588,6,0,P|205:135|188:121,1,52.2499986047745,2|0,0:0|1:0,0:0:0:0:
156,98,29920,2,0,P|114:106|100:123,1,52.2499986047745,10|2,0:0|0:0,0:0:0:0:
67,146,30254,2,0,P|64:171|17:314,1,156.749995814324,2|2,1:2|0:0,0:0:0:0:
47,344,30921,1,2,0:0:0:0:
256,192,31088,12,2,33588,0:0:0:0:
361,247,34588,6,0,P|366:212|368:179,1,52.2499986047745,10|2,0:0|0:0,0:0:0:0:
322,148,34921,1,2,0:0:0:0:
404,83,35254,2,0,P|377:30|332:13,1,104.499997209549,10|0,0:0|1:0,0:0:0:0:
239,45,35921,2,0,P|233:79|232:113,1,52.2499986047745,10|2,0:0|0:0,0:0:0:0:
190,128,36254,2,0,P|154:120|68:108,2,104.499997209549,2|10|0,0:0|0:0|1:0,0:0:0:0:
117,269,37421,5,2,0:0:0:0:
66,360,37754,1,2,1:2:0:0:
169,375,38088,2,0,P|205:367|291:355,1,104.499997209549,2|2,0:0|0:0,0:0:0:0:
304,316,38588,2,0,P|309:281|311:248,1,52.2499986047745,10|2,0:0|0:0,0:0:0:0:
287,223,38921,1,2,0:0:0:0:
346,137,39254,1,10,0:0:0:0:
56,16,40254,6,0,P|25:33|-1:52,1,52.2499986047745,2|0,0:0|1:0,0:0:0:0:
14,95,40588,2,0,P|31:125|50:152,1,52.2499986047745,8|2,0:0|0:0,0:0:0:0:
86,165,40921,2,0,B|50:228|88:254|35:325,1,156.749995814324,2|2,1:2|0:0,0:0:0:0:
10,354,41588,1,2,0:0:0:0:
174,225,42254,1,0,1:0:0:0:
256,192,42421,12,2,44254,0:0:0:0:
464,336,44921,6,0,P|460:263|330:223,1,220,0|0,1:0|1:0,0:0:0:0:
245,280,45921,1,8,0:0:0:0:
242,170,46254,2,0,P|247:110|272:52,1,110,0|8,1:0|0:0,0:0:0:0:
361,10,46921,2,0,P|387:3|446:-2,2,55,2|0|10,0:0|1:0|0:0,0:0:0:0:
359,65,47421,2,0,P|379:222|446:343,1,275,10|0,0:0|3:0,0:0:0:0:
334,372,48588,1,10,0:0:0:0:
334,372,48754,1,2,0:0:0:0:
132,281,49422,5,2,0:0:0:0:
111,178,49754,1,2,1:2:0:0:
81,71,50088,1,10,0:0:0:0:
300,74,50754,5,2,0:0:0:0:
391,134,51088,2,0,B|418:128|418:128|437:104,1,55,2|10,1:2|0:0,0:0:0:0:
449,58,51420,1,2,0:0:0:0:
183,6,52254,1,2,0:0:0:0:
183,6,52421,1,0,1:0:0:0:
117,94,52754,6,0,P|116:126|102:219,1,110,2|2,0:0|0:0,0:0:0:0:
223,217,53421,1,2,0:0:0:0:
223,217,53588,1,2,0:0:0:0:
223,217,53754,2,0,P|224:185|238:92,2,110,0|2|2,1:2|0:0|0:0,0:0:0:0:
249,323,54754,2,0,P|276:334|320:336,2,55,2|2|2,0:0|0:0|0:0,0:0:0:0:
222,372,55254,1,10,0:0:0:0:
222,372,55421,6,0,P|35:224|146:-7,1,495,2|0,0:0|1:0,0:0:0:0:
266,69,57421,2,0,P|277:42|279:-2,2,55,2|0|10,0:0|1:0|0:0,0:0:0:0:
214,69,57921,1,10,1:2:0:0:
214,69,58088,2,0,P|162:186|262:266,1,275,2|0,0:0|1:0,0:0:0:0:
313,245,59088,1,10,0:0:0:0:
362,343,59421,2,0,P|410:322|424:270,1,110,2|0,0:0|0:0,0:0:0:0:
495,186,60088,2,0,P|469:139|416:116,1,110,2|10,0:0|0:0,0:0:0:0:
365,106,60588,2,0,P|363:74|349:37,1,55,10|2,1:2|0:0,0:0:0:0:
310,21,60921,5,0,1:0:0:0:
200,26,61254,1,0,1:0:0:0:
103,79,61588,1,0,1:0:0:0:
69,183,61921,1,0,1:0:0:0:
128,275,62254,1,0,1:0:0:0:
230,314,62588,1,0,1:0:0:0:
284,327,62754,1,0,1:0:0:0:
284,327,62921,2,0,L|323:403,2,55,0|0|0,1:0|1:0|1:0,0:0:0:0:
329,296,63421,1,0,1:0:0:0:
256,192,63588,12,8,64921,1:3:0:0:
344,361,65921,5,8,0:0:0:0:
232,314,66254,2,0,P|220:282|224:249,1,60.5000018463135,4|2,1:1|0:0,0:0:0:0:
189,211,66588,1,10,0:0:0:0:
189,211,66754,2,0,P|145:210|59:191,1,121.000003692627,2|0,0:0|1:0,0:0:0:0:
28,150,67254,1,8,0:0:0:0:
115,65,67588,2,0,P|147:53|180:57,1,60.5000018463135,2|2,1:2|0:0,0:0:0:0:
208,5,67922,1,10,0:0:0:0:
208,5,68088,2,0,P|252:6|338:25,1,121.000003692627,2|2,0:0|1:2,0:0:0:0:
370,63,68588,2,0,P|382:95|378:128,1,60.5000018463135,8|0,0:0|0:0,0:0:0:0:
339,165,68921,5,2,1:2:0:0:
250,247,69254,2,0,P|206:248|120:267,1,121.000003692627,8|0,0:0|3:0,0:0:0:0:
84,301,69754,1,0,1:0:0:0:
84,301,69921,1,10,0:0:0:0:
176,379,70254,2,0,P|208:367|241:371,1,60.5000018463135,2|2,0:0|1:2,0:0:0:0:
294,370,70588,1,10,0:0:0:0:
294,370,70754,2,0,P|307:311|310:250,1,121.000003692627,2|0,0:0|1:0,0:0:0:0:
365,226,71254,1,10,0:0:0:0:
426,121,71588,6,0,P|458:109|491:113,2,60.5000018463135,0|2|10,1:0|0:0|0:0,0:0:0:0:
385,75,72088,2,0,P|326:61|265:58,1,121.000003692627,2|0,0:0|1:0,0:0:0:0:
225,13,72588,1,8,0:0:0:0:
105,26,72921,2,0,P|73:14|40:18,2,60.5000018463135,2|2|10,1:2|0:0|0:0,0:0:0:0:
136,77,73421,2,0,P|122:135|98:191,1,121.000003692627,2|0,0:0|1:0,0:0:0:0:
41,194,73921,1,10,0:0:0:0:
33,314,74254,1,2,1:2:0:0:
150,345,74588,5,10,0:0:0:0:
232,256,74921,2,0,P|265:257|307:275,1,60.5000018463135,2|0,0:0|1:0,0:0:0:0:
325,315,75254,1,10,0:0:0:0:
445,304,75588,2,0,P|446:271|464:229,1,60.5000018463135,2|0,0:0|1:0,0:0:0:0:
504,210,75921,1,10,0:0:0:0:
484,90,76254,2,0,P|451:74|423:72,1,60.5000018463135,0|0,1:0|1:0,0:0:0:0:
366,74,76588,1,8,0:0:0:0:
322,115,76754,1,0,1:0:0:0:
261,107,76921,6,0,P|249:75|253:42,1,60.5000018463135,0|2,1:0|0:0,0:0:0:0:
201,22,77255,1,10,0:0:0:0:
201,22,77421,2,0,P|157:23|71:42,1,121.000003692627,2|0,0:0|1:0,0:0:0:0:
38,81,77921,1,8,0:0:0:0:
133,155,78254,2,0,P|165:143|198:147,2,60.5000018463135,0|2|8,1:0|0:0|0:0,0:0:0:0:
125,218,78754,1,0,0:0:0:0:
125,218,78921,2,0,P|101:241|66:247,1,60.5000018463135,2|2,0:0|1:2,0:0:0:0:
14,247,79254,1,10,0:0:0:0:
26,367,79588,5,0,1:0:0:0:
137,319,79921,2,0,P|181:320|267:339,1,121.000003692627,10|0,0:0|3:0,0:0:0:0:
299,384,80421,1,0,1:0:0:0:
299,384,80588,1,8,0:0:0:0:
407,329,80921,2,0,P|395:297|399:264,1,60.5000018463135,2|0,0:0|1:0,0:0:0:0:
383,216,81255,1,8,0:0:0:0:
383,216,81421,2,0,P|324:203|263:200,1,121.000003692627,0|0,0:0|1:0,0:0:0:0:
217,161,81921,2,0,P|212:130|225:90,1,60.5000018463135,10|2,0:0|1:2,0:0:0:0:
263,61,82254,5,0,1:0:0:0:
372,9,82588,1,10,0:0:0:0:
372,9,82755,2,0,P|416:10|502:29,1,121.000003692627,2|0,0:0|1:0,0:0:0:0:
499,85,83255,1,8,0:0:0:0:
478,204,83588,2,0,P|447:209|407:196,1,60.5000018463135,2|2,1:2|0:0,0:0:0:0:
368,232,83921,1,10,0:0:0:0:
368,232,84088,2,0,P|367:276|348:362,1,121.000003692627,2|0,0:0|1:0,0:0:0:0:
295,375,84588,1,10,0:0:0:0:
175,356,84921,6,0,P|178:320|186:277,1,60.5000018463135,0|0,1:2|1:0,0:0:0:0:
140,251,85254,2,0,P|104:254|61:262,2,60.5000018463135,8|0|0,0:0|1:0|1:0,0:0:0:0:
173,200,85754,2,0,P|209:203|252:211,2,60.5000018463135,8|0|0,0:0|1:0|1:0,0:0:0:0:
128,159,86254,2,0,P|105:99|156:76,1,121.000003692627,8|0,0:0|1:0,0:0:0:0:
183,27,86754,1,8,0:0:0:0:
183,27,86921,2,0,B|256:50|256:50|318:19|318:19|416:55,1,242.000007385254,8|4,0:3|1:0,0:0:0:0:
469,156,87921,6,0,P|438:162|402:164,1,60.5000018463135,10|2,0:0|0:0,0:0:0:0:
368,209,88254,1,2,0:0:0:0:
368,209,88421,1,2,1:2:0:0:
386,266,88588,1,8,0:0:0:0:
303,354,88921,2,0,P|272:356|243:362,1,60.5000018463135,2|2,1:2|0:0,0:0:0:0:
192,330,89254,1,10,0:0:0:0:
140,361,89421,2,0,P|146:342|168:218,1,121.000003692627,2|0,0:0|1:3,0:0:0:0:
126,203,89921,1,8,0:0:0:0:
56,104,90254,5,0,1:0:0:0:
146,22,90588,2,0,P|176:28|212:30,1,60.5000018463135,10|2,0:0|0:0,0:0:0:0:
247,75,90921,1,2,0:0:0:0:
247,75,91088,1,2,1:2:0:0:
229,132,91255,1,8,0:0:0:0:
325,204,91588,2,0,P|355:206|384:212,2,60.5000018463135,2|2|10,0:0|1:2|0:0,0:0:0:0:
286,250,92088,1,2,0:0:0:0:
286,250,92254,2,0,P|283:280|277:309,1,60.5000018463135,0|0,3:0|1:3,0:0:0:0:
250,364,92588,2,0,P|219:361|190:355,1,60.5000018463135,8|2,0:0|1:2,0:0:0:0:
137,325,92921,5,0,1:0:0:0:
25,371,93254,2,0,P|19:341|17:305,1,60.5000018463135,10|2,0:0|0:0,0:0:0:0:
60,268,93588,2,0,P|66:238|68:202,1,60.5000018463135,2|2,0:0|1:2,0:0:0:0:
35,157,93921,1,8,0:0:0:0:
75,43,94254,2,0,P|106:45|135:51,1,60.5000018463135,2|2,1:2|0:0,0:0:0:0:
189,76,94587,1,10,0:0:0:0:
230,31,94754,2,0,P|236:50|258:174,1,121.000003692627,2|2,0:0|1:3,0:0:0:0:
222,199,95254,1,8,0:0:0:0:
135,283,95587,5,0,1:0:0:0:
224,364,95921,2,0,P|254:362|290:366,1,60.5000018463135,10|2,0:0|0:0,0:0:0:0:
332,327,96254,1,2,0:0:0:0:
332,327,96421,1,2,1:2:0:0:
323,268,96588,1,8,0:0:0:0:
416,190,96921,2,0,P|446:192|475:198,2,60.5000018463135,2|2|10,0:0|1:2|0:0,0:0:0:0:
399,131,97421,2,0,P|402:101|424:33,2,90.7500027694703,0|0|8,1:0|1:0|0:0,0:0:0:0:
343,122,98088,1,0,1:0:0:0:
343,122,98254,2,0,P|304:113|274:113,1,60.5000018463135,0|0,1:0|1:0,0:0:0:0:
236,150,98587,5,10,0:0:0:0:
284,260,98921,2,0,P|254:266|218:268,1,60.5000018463135,2|2,0:0|1:2,0:0:0:0:
179,309,99254,1,8,0:0:0:0:
61,278,99588,1,2,1:2:0:0:
15,238,99754,1,2,0:0:0:0:
28,178,99922,2,0,B|77:149|77:149|137:174,1,121.000003692627,10|2,0:0|0:0,0:0:0:0:
175,128,100421,1,0,1:0:0:0:
151,72,100587,1,8,0:0:0:0:
271,54,100921,5,0,1:0:0:0:
390,38,101254,2,0,P|396:68|398:104,1,60.5000018463135,10|2,0:0|0:0,0:0:0:0:
429,150,101588,2,0,P|459:156|495:158,1,60.5000018463135,2|2,0:0|1:2,0:0:0:0:
510,214,101921,1,8,0:0:0:0:
480,331,102254,2,0,P|449:329|420:323,1,60.5000018463135,2|2,0:0|1:2,0:0:0:0:
366,298,102587,1,10,0:0:0:0:
325,343,102754,2,0,P|319:324|297:200,1,121.000003692627,2|2,0:0|1:2,0:0:0:0:
243,200,103254,2,0,P|212:202|183:208,1,60.5000018463135,8|2,0:0|1:2,0:0:0:0:
148,258,103588,5,0,1:0:0:0:
194,369,103921,2,0,P|225:375|261:377,1,60.5000018463135,10|2,0:0|0:0,0:0:0:0:
301,339,104254,1,2,0:0:0:0:
301,339,104421,1,2,1:2:0:0:
360,349,104588,1,8,0:0:0:0:
452,271,104921,2,0,P|454:240|460:211,1,60.5000018463135,2|2,1:2|0:0,0:0:0:0:
428,160,105254,1,10,0:0:0:0:
459,108,105421,2,0,P|440:114|316:136,1,121.000003692627,2|0,0:0|1:0,0:0:0:0:
301,94,105921,1,8,0:0:0:0:
182,116,106254,5,0,1:0:0:0:
68,73,106588,2,0,P|70:42|76:13,2,60.5000018463135,10|2|2,0:0|0:0|0:0,0:0:0:0:
20,110,107088,2,0,P|26:129|48:253,1,121.000003692627,10|0,0:0|1:0,0:0:0:0:
52,288,107588,2,0,P|25:304|-1:316,2,60.5000018463135,2|2|10,1:2|0:0|0:0,0:0:0:0:
101,322,108088,1,2,0:0:0:0:
101,322,108254,2,0,P|132:324|160:330,2,60.5000018463135,0|8|8,3:0|0:0|0:0,0:0:0:0:
151,223,108921,1,0,1:0:0:0:
