osu file format v14

[General]
AudioFilename: audio.mp3
AudioLeadIn: 0
PreviewTime: 87588
Countdown: 0
SampleSet: Soft
StackLeniency: 0.7
Mode: 0
LetterboxInBreaks: 0
WidescreenStoryboard: 1

[Editor]
Bookmarks: 70088
DistanceSpacing: 1.2
BeatDivisor: 4
GridSize: 8
TimelineZoom: 1.4

[Metadata]
Title:Where Do We Go (Cut Ver.)
TitleUnicode:Where Do We Go (Cut Ver.)
Artist:Mazare & RUNN
ArtistUnicode:Mazare & RUNN
Creator:AJT
Version:Insane
Source:
Tags:english electronic dnb drum and bass monstercat asphyxia log off now log_off_now lon
BeatmapID:3697095
BeatmapSetID:1802942

[Difficulty]
HPDrainRate:4
CircleSize:4
OverallDifficulty:8
ApproachRate:9
SliderMultiplier:1.64
SliderTickRate:1

[Events]
//Background and Video events
0,0,"wallhaven-qdmk2r.jpg",0,0
//Break Periods
//Storyboard Layer 0 (Background)
//Storyboard Layer 1 (Fail)
//Storyboard Layer 2 (Pass)
//Storyboard Layer 3 (Foreground)
//Storyboard Layer 4 (Overlay)
//Storyboard Sound Samples

[TimingPoints]
2255,333.333333333333,4,2,1,45,1,0
2255,-111.111111111111,4,2,1,45,0,0
12171,-111.111111111111,4,2,1,10,0,0
12254,-111.111111111111,4,2,1,45,0,0
22838,-111.111111111111,4,2,1,10,0,0
22921,-111.111111111111,4,2,1,45,0,0
23588,-111.111111111111,4,2,1,55,0,0
23921,-105.263157894737,4,2,1,55,0,0
44921,-100,4,2,1,60,0,0
55588,-100,4,2,1,53,0,0
56921,-100,4,2,1,56,0,0
58254,-100,4,2,1,59,0,0
59588,-100,4,2,1,62,0,0
60921,-100,4,2,1,53,0,0
62254,-100,4,2,1,56,0,0
63588,-100,4,2,1,59,0,0
64921,-100,4,2,1,62,0,0
65588,-100,4,2,1,75,0,0
65754,-100,4,2,1,75,0,0
65921,-100,4,2,2,65,0,0
66254,-76.9230769230769,4,2,2,85,0,1
87588,-66.6666666666667,4,2,2,85,0,1
87921,-66.6666666666667,4,2,2,85,0,1
106254,-76.9230769230769,4,2,2,85,0,1
108921,-100,4,2,2,85,0,0

[Colours]
Combo1 : 255,45,45
Combo2 : 0,149,221
Combo3 : 128,0,255
Combo4 : 255,36,146

[HitObjects]
0,384,2254,5,0,1:0:0:0:
153,330,2588,2,0,P|162:267|165:176,1,147.599995495606,2|0,0:0|0:0,0:0:0:0:
244,343,3088,2,0,P|253:280|277:192,1,147.599995495606,2|0,0:0|0:0,0:0:0:0:
416,144,3588,5,2,0:0:0:0:
335,154,3754,1,0,0:0:0:0:
254,164,3921,1,0,0:0:0:0:
295,56,4088,2,0,P|291:164|368:240,1,221.399993243408,2|2,0:0|0:0,0:0:0:0:
312,336,4754,2,0,P|360:285|435:277,1,147.599995495606,2|0,0:0|0:0,0:0:0:0:
404,370,5254,5,2,0:0:0:0:
404,370,5754,1,2,0:0:0:0:
404,370,6088,1,0,0:0:0:0:
312,336,6254,2,0,P|281:314|246:306,1,73.7999977478028,2|0,0:0|0:0,0:0:0:0:
152,384,6588,1,0,0:0:0:0:
152,384,6754,2,0,P|195:295|220:171,1,221.399993243408,2|2,0:0|0:0,0:0:0:0:
0,111,7588,5,0,0:0:0:0:
0,111,7921,2,0,P|44:36|180:1,1,221.399993243408,2|2,0:0|0:0,0:0:0:0:
0,111,8754,5,2,0:0:0:0:
13,191,8921,2,0,P|57:266|72:281,2,73.7999977478028,2|0|2,0:0|0:0|0:0,0:0:0:0:
0,111,9421,2,0,P|44:36|180:1,1,221.399993243408,2|2,0:0|0:0,0:0:0:0:
282,86,10254,5,2,0:0:0:0:
256,192,10920,1,2,0:0:0:0:
229,297,11587,1,2,0:0:0:0:
256,192,11754,12,0,12588,0:0:0:0:
174,326,12921,5,0,0:0:0:0:
141,167,13254,2,0,P|80:146|-7:125,1,147.599995495606,2|0,0:0|0:0,0:0:0:0:
36,22,13754,2,0,P|102:55|172:80,1,147.599995495606,2|0,0:0|0:0,0:0:0:0:
232,16,14255,2,0,P|258:-2|300:9,2,73.7999977478028,2|0|0,0:0|0:0|0:0,0:0:0:0:
172,80,14755,2,0,P|176:132|218:313,1,221.399993243408,2|2,0:0|0:0,0:0:0:0:
259,363,15421,1,2,0:0:0:0:
259,363,15921,5,2,0:0:0:0:
259,363,16421,1,0,0:0:0:0:
212,296,16588,2,0,P|178:289|140:292,1,73.7999977478028,2|0,0:0|0:0,0:0:0:0:
84,232,16921,1,2,0:0:0:0:
127,321,17088,1,0,0:0:0:0:
40,384,17254,1,0,0:0:0:0:
84,232,17421,1,2,0:0:0:0:
84,232,17921,1,2,0:0:0:0:
0,150,18254,5,0,0:0:0:0:
0,150,18588,2,0,P|70:141|219:107,1,221.399993243408,2|2,0:0|0:0,0:0:0:0:
424,187,19421,5,2,0:0:0:0:
424,187,19588,2,0,P|396:179|346:172,2,73.7999977478028,2|0|2,0:0|0:0|0:0,0:0:0:0:
512,150,20088,2,0,P|442:141|293:107,1,221.399993243408,2|2,0:0|0:0,0:0:0:0:
208,0,20921,5,2,0:0:0:0:
256,192,21588,1,2,0:0:0:0:
304,384,22254,1,2,0:0:0:0:
256,192,22421,12,0,23588,1:0:0:0:
280,384,23921,5,10,0:0:0:0:
219,319,24088,1,2,0:0:0:0:
336,264,24254,2,0,P|370:275|412:295,1,77.8999979198456,2|0,0:0|1:0,0:0:0:0:
248,192,24588,2,0,P|214:203|172:223,1,77.8999979198456,10|0,0:0|0:0,0:0:0:0:
219,319,24921,2,0,P|199:284|95:246,1,155.799995839691,0|10,1:0|0:0,0:0:0:0:
95,245,25421,1,2,0:0:0:0:
59,149,25588,2,0,P|62:188|0:279,2,155.799995839691,2|10|0,0:0|0:0|1:0,0:0:0:0:
59,149,26588,1,8,0:0:0:0:
59,149,26754,5,2,0:0:0:0:
216,217,27088,1,2,1:2:0:0:
342,102,27421,2,0,P|291:63|201:16,1,155.799995839691,2|2,0:0|0:0,0:0:0:0:
41,85,27921,5,10,0:0:0:0:
41,85,28088,1,2,0:0:0:0:
119,168,28254,2,0,P|85:179|43:199,1,77.8999979198456,2|0,0:0|1:0,0:0:0:0:
49,310,28588,2,0,P|119:276|193:252,2,155.799995839691,10|0|8,0:0|1:0|0:0,0:0:0:0:
272,312,29587,5,2,0:0:0:0:
318,383,29754,1,0,1:0:0:0:
400,361,29920,1,10,0:0:0:0:
405,275,30087,1,2,0:0:0:0:
325,246,30254,6,0,P|288:213|379:134,1,155.799995839691,2|8,1:2|0:0,0:0:0:0:
391,189,30754,1,2,0:0:0:0:
325,246,30921,2,0,P|280:264|249:292,1,77.8999979198456,2|0,0:0|1:0,0:0:0:0:
223,361,31254,1,8,0:0:0:0:
104,120,31588,1,0,1:0:0:0:
104,120,31921,6,0,P|64:116|92:33,1,155.799995839691,8|0,0:0|0:0,0:0:0:0:
178,19,32421,2,0,P|218:23|190:106,1,155.799995839691,0|0,1:0|0:0,0:0:0:0:
0,112,32921,6,0,P|63:125|230:173,1,233.699993759537,0|0,1:0|0:0,0:0:0:0:
225,171,33588,2,0,P|215:207|198:253,1,77.8999979198456,2|0,0:0|1:0,0:0:0:0:
232,384,33921,1,8,0:0:0:0:
232,384,34254,5,0,1:0:0:0:
274,309,34587,1,10,0:0:0:0:
201,248,34754,1,2,0:0:0:0:
272,160,34920,2,0,P|283:126|303:84,1,77.8999979198456,2|0,0:0|1:0,0:0:0:0:
201,248,35254,2,0,P|138:269|44:319,2,155.799995839691,10|0|10,0:0|1:0|0:0,0:0:0:0:
201,248,36087,1,2,0:0:0:0:
211,87,36254,2,0,P|227:123|240:160,1,77.8999979198456,2|0,0:0|1:0,0:0:0:0:
274,309,36588,2,0,P|337:330|431:380,2,155.799995839691,10|0|8,0:0|1:0|0:0,0:0:0:0:
240,160,37420,5,2,0:0:0:0:
398,93,37754,1,2,1:2:0:0:
301,234,38087,2,0,P|226:213|148:204,1,155.799995839691,2|2,0:0|0:0,0:0:0:0:
63,211,38587,5,10,0:0:0:0:
192,170,38754,1,2,0:0:0:0:
88,85,38920,2,0,P|66:27|150:7,2,155.799995839691,2|10|0,0:0|0:0|1:0,0:0:0:0:
240,312,39921,1,8,0:0:0:0:
240,312,40253,5,2,0:0:0:0:
112,361,40420,1,0,1:0:0:0:
187,246,40588,1,8,0:0:0:0:
194,383,40753,1,2,0:0:0:0:
107,275,40920,6,0,P|144:242|53:163,1,155.799995839691,2|8,1:2|0:0,0:0:0:0:
39,208,41420,1,2,0:0:0:0:
107,275,41587,5,2,0:0:0:0:
192,263,41754,1,0,1:0:0:0:
276,248,41921,1,8,0:0:0:0:
444,218,42254,1,0,1:0:0:0:
444,218,42588,6,0,P|484:222|456:305,1,155.799995839691,8|0,0:0|0:0,0:0:0:0:
371,329,43088,2,0,P|331:325|359:242,1,155.799995839691,0|0,1:0|0:0,0:0:0:0:
450,346,43588,6,0,P|387:359|291:387,1,155.799995839691,0|8,1:0|0:0,0:0:0:0:
256,288,44088,5,2,0:0:0:0:
293,270,44254,1,2,0:0:0:0:
334,194,44420,1,0,1:0:0:0:
289,109,44588,1,10,0:0:0:0:
194,92,44754,1,10,0:0:0:0:
54,81,44921,6,0,P|166:147|260:7,1,328,0|0,1:0|1:0,0:0:0:0:
334,190,45921,2,0,B|294:131|351:97|295:20,2,164,8|0|8,0:0|1:0|0:0,0:0:0:0:
334,190,46921,1,2,0:0:0:0:
289,275,47089,1,0,1:0:0:0:
194,292,47255,1,10,0:0:0:0:
54,303,47422,6,0,P|166:237|260:377,1,328,10|0,0:0|0:0,0:0:0:0:
260,373,48254,2,0,L|286:274,1,82,0|0,3:0|1:0,0:0:0:0:
369,273,48588,1,10,0:0:0:0:
302,192,48754,2,0,P|293:154|289:112,2,82,2|0|0,0:0|3:0|0:0,0:0:0:0:
369,273,49254,1,8,0:0:0:0:
408,0,49422,5,2,0:0:0:0:
352,352,49754,2,0,B|386:385|430:378,1,82,2|8,1:2|0:0,0:0:0:0:
369,273,50088,2,0,P|242:296|166:399,1,246,10|8,0:0|0:0,0:0:0:0:
171,382,50754,6,0,B|163:347|136:299,1,82,2|0,0:0|0:0,0:0:0:0:
106,174,51088,1,2,1:2:0:0:
47,259,51254,1,10,0:0:0:0:
140,306,51421,1,2,0:0:0:0:
202,222,51588,6,0,B|249:170|306:211|347:140,1,164,0|8,1:0|0:0,0:0:0:0:
342,147,52088,1,2,0:0:0:0:
384,288,52254,1,2,0:0:0:0:
382,145,52421,2,0,P|389:103|397:53,1,82,0|8,1:0|0:0,0:0:0:0:
256,0,52754,5,2,0:0:0:0:
384,288,53088,1,2,0:0:0:0:
256,0,53421,1,2,0:0:0:0:
200,160,53588,5,2,0:0:0:0:
256,0,53754,2,0,P|219:12|171:20,1,82,0|8,1:2|0:0,0:0:0:0:
0,80,54088,2,0,P|37:92|85:100,1,82,2|0,0:0|1:0,0:0:0:0:
107,224,54421,2,0,P|111:167|141:38,1,164,2|2,0:0|0:0,0:0:0:0:
54,281,54921,1,2,0:0:0:0:
54,281,55088,2,0,P|94:268|134:270,2,82,2|10|2,0:0|0:0|0:0,0:0:0:0:
140,359,55588,6,0,P|100:372|60:370,1,82,0|0,1:0|0:0,0:0:0:0:
0,331,55920,1,8,1:2:0:0:
184,384,56088,2,0,P|186:345|226:137,1,246,2|8,0:0|1:2,0:0:0:0:
372,359,56921,6,0,P|412:372|452:370,1,82,0|0,1:0|0:0,0:0:0:0:
512,331,57253,1,8,1:2:0:0:
328,384,57421,5,2,0:0:0:0:
344,287,57587,1,0,1:0:0:0:
304,196,57754,1,10,0:0:0:0:
230,130,57921,1,10,1:2:0:0:
294,0,58088,6,0,P|231:111|25:103,1,328,2|0,0:0|0:0,0:0:0:0:
46,118,58921,1,0,1:0:0:0:
232,193,59088,2,0,B|214:181|214:181|218:117|178:75|178:75|190:49,2,164,10|2|0,0:0|0:0|0:0,0:0:0:0:
133,340,59921,1,8,1:2:0:0:
336,312,60088,6,0,B|386:365|432:312|499:380,1,164,2|10,0:0|0:0,0:0:0:0:
485,367,60588,2,0,P|483:335|461:285,1,82,10|2,1:2|0:0,0:0:0:0:
512,40,60921,6,0,P|510:72|488:122,1,82,0|0,1:0|1:0,0:0:0:0:
400,232,61254,2,0,P|402:200|424:150,1,82,0|0,1:0|1:0,0:0:0:0:
256,0,61588,6,0,P|258:32|280:82,1,82,0|0,1:0|1:0,0:0:0:0:
368,192,61921,2,0,P|366:160|344:110,1,82,0|0,1:0|1:0,0:0:0:0:
480,0,62254,6,0,P|448:2|398:24,1,82,0|0,1:0|1:0,0:0:0:0:
186,244,62587,2,0,P|218:242|268:220,1,82,0|0,1:0|1:0,0:0:0:0:
512,192,62921,6,0,P|480:190|430:168,1,82,0|0,1:0|1:0,0:0:0:0:
157,155,63254,2,0,P|194:139|235:135,1,82,0|0,1:0|1:0,0:0:0:0:
354,289,63588,5,0,1:0:0:0:
256,330,63754,1,0,1:0:0:0:
157,289,63921,1,0,1:0:0:0:
116,191,64088,1,0,1:0:0:0:
157,92,64254,1,0,1:0:0:0:
256,51,64421,1,0,1:0:0:0:
354,93,64588,1,0,1:0:0:0:
395,191,64754,1,0,1:0:0:0:
352,344,64921,5,8,1:3:0:0:
160,344,65088,1,8,1:3:0:0:
352,344,65254,1,4,1:3:0:0:
160,344,65421,1,4,1:3:0:0:
256,384,65588,6,0,L|256:296,1,82,8|0,1:2|1:0,0:0:0:0:
256,0,65921,1,8,0:0:0:0:
256,0,66254,6,0,P|236:50|227:105,1,106.599995120239,4|2,1:1|0:0,0:0:0:0:
104,72,66588,1,10,0:0:0:0:
336,120,66754,2,0,P|226:137|118:193,1,213.199990240479,2|0,0:0|1:0,0:0:0:0:
104,72,67254,1,8,0:0:0:0:
104,72,67588,5,2,1:2:0:0:
0,283,67754,1,2,0:0:0:0:
134,180,67922,1,10,0:0:0:0:
0,283,68088,2,0,P|93:294|223:346,1,213.199990240479,2|2,0:0|1:2,0:0:0:0:
397,347,68588,2,0,P|356:359|288:389,1,106.599995120239,8|0,0:0|0:0,0:0:0:0:
200,384,68921,5,2,1:2:0:0:
231,248,69088,1,2,0:0:0:0:
262,113,69254,1,8,0:0:0:0:
195,212,69420,1,2,0:0:0:0:
385,67,69588,5,0,3:0:0:0:
385,67,69754,1,0,1:0:0:0:
251,7,69921,2,0,P|254:60|262:113,1,106.599995120239,10|0,0:0|0:0,0:0:0:0:
95,234,70254,5,2,0:0:0:0:
272,160,70421,1,2,1:2:0:0:
118,45,70588,1,10,0:0:0:0:
83,328,70754,6,0,P|49:226|2:131,1,213.199990240479,2|0,0:0|1:0,0:0:0:0:
191,120,71254,2,0,P|207:71|222:6,1,106.599995120239,10|2,0:0|1:2,0:0:0:0:
205,284,71588,6,0,P|259:272|325:274,2,106.599995120239,0|2|10,1:0|0:0|0:0,0:0:0:0:
96,384,72088,2,0,P|147:351|165:208,1,213.199990240479,2|0,0:0|1:0,0:0:0:0:
0,104,72588,2,0,P|53:108|104:121,1,106.599995120239,8|0,0:0|0:0,0:0:0:0:
56,224,72921,5,2,1:2:0:0:
189,187,73088,1,2,0:0:0:0:
324,160,73254,1,10,0:0:0:0:
427,384,73421,6,0,P|441:326|485:209,1,159.899992680359,2|2,0:0|0:0,0:0:0:0:
474,231,73754,1,0,1:0:0:0:
416,102,73921,2,0,P|430:160|458:233,1,106.599995120239,10|0,0:0|0:0,0:0:0:0:
427,384,74254,5,2,1:2:0:0:
427,384,74421,1,0,1:0:0:0:
381,249,74588,6,0,P|323:263|250:291,1,106.599995120239,10|0,0:0|0:0,0:0:0:0:
85,384,74921,1,2,0:0:0:0:
85,384,75088,1,0,1:0:0:0:
131,249,75254,2,0,P|189:263|262:291,1,106.599995120239,10|0,0:0|0:0,0:0:0:0:
427,384,75588,5,2,0:0:0:0:
256,384,75754,1,0,1:0:0:0:
381,249,75921,1,10,0:0:0:0:
256,192,76088,5,0,1:0:0:0:
256,192,76171,1,0,1:0:0:0:
256,192,76254,5,0,1:0:0:0:
256,0,76421,1,0,1:0:0:0:
360,96,76588,5,8,0:0:0:0:
152,96,76754,1,0,1:0:0:0:
152,95,76837,1,0,1:0:0:0:
152,95,76921,6,0,P|146:117|126:213,1,106.599995120239,0|2,1:0|0:0,0:0:0:0:
155,376,77255,1,10,0:0:0:0:
155,376,77421,2,0,P|154:332|6:226,1,213.199990240479,2|0,0:0|1:0,0:0:0:0:
37,225,77921,1,8,0:0:0:0:
37,225,78088,1,0,3:0:0:0:
26,384,78254,6,0,P|51:348|85:291,1,106.599995120239,0|2,1:0|0:0,0:0:0:0:
107,165,78588,2,0,P|132:129|166:72,1,106.599995120239,8|0,0:0|0:0,0:0:0:0:
247,247,78921,5,2,0:0:0:0:
204,62,79088,1,2,1:2:0:0:
117,233,79254,1,10,0:0:0:0:
352,176,79420,1,2,0:0:0:0:
376,384,79588,6,0,P|390:342|408:278,1,106.599995120239,0|0,1:0|0:0,0:0:0:0:
480,40,79922,2,0,P|494:81|512:145,2,106.599995120239,10|2|0,0:0|0:0|3:0,0:0:0:0:
352,224,80421,1,0,1:0:0:0:
408,282,80588,2,0,P|393:333|376:384,1,106.599995120239,8|0,0:0|0:0,0:0:0:0:
269,375,80921,5,2,0:0:0:0:
232,176,81088,1,0,1:0:0:0:
352,224,81254,5,8,0:0:0:0:
192,328,81421,2,0,P|141:361|98:374,1,106.599995120239,0|2,0:0|0:0,0:0:0:0:
98,374,81671,1,2,0:0:0:0:
98,374,81754,1,0,1:0:0:0:
160,224,81921,5,10,0:0:0:0:
336,264,82087,1,2,1:2:0:0:
256,384,82254,6,0,P|276:334|285:279,1,106.599995120239,0|0,1:0|0:0,0:0:0:0:
408,312,82588,1,10,0:0:0:0:
176,264,82754,2,0,P|286:247|394:191,1,213.199990240479,2|0,0:0|1:0,0:0:0:0:
408,312,83254,1,8,0:0:0:0:
408,312,83588,5,2,1:2:0:0:
512,101,83754,1,2,0:0:0:0:
378,204,83922,1,10,0:0:0:0:
512,101,84088,2,0,P|455:98|402:83,1,106.599995120239,2|2,0:0|3:2,0:0:0:0:
407,85,84338,1,2,0:0:0:0:
407,85,84421,1,0,1:0:0:0:
300,171,84588,6,0,P|341:159|299:54,1,159.899992680359,10|0,0:0|0:0,0:0:0:0:
272,8,84921,6,0,P|236:11|159:30,1,106.599995120239,0|0,1:2|1:0,0:0:0:0:
72,112,85254,1,8,0:0:0:0:
322,217,85421,2,0,P|288:203|211:185,1,106.599995120239,0|0,1:0|1:0,0:0:0:0:
72,112,85754,5,8,0:0:0:0:
220,128,85921,1,0,1:0:0:0:
367,150,86088,1,0,1:0:0:0:
400,257,86254,6,0,P|350:276|295:276,1,106.599995120239,8|0,0:0|1:0,0:0:0:0:
222,185,86588,1,0,1:0:0:0:
368,384,86754,1,8,0:0:0:0:
507,104,86921,5,8,0:3:0:0:
507,104,87004,1,8,0:3:0:0:
507,104,87088,1,4,0:3:0:0:
222,185,87254,1,8,0:0:0:0:
391,149,87421,1,0,1:0:0:0:
391,149,87504,1,0,1:0:0:0:
391,149,87588,6,0,B|352:132|245:118,1,123.000004692078,4|0,1:0|0:0,0:0:0:0:
97,0,87921,5,10,0:0:0:0:
248,136,88087,1,2,0:0:0:0:
160,200,88254,5,2,0:0:0:0:
280,0,88421,1,2,1:2:0:0:
280,0,88588,2,0,P|336:6|401:35,1,123.000004692078,8|0,0:0|0:0,0:0:0:0:
512,144,88921,5,2,1:2:0:0:
378,190,89088,1,2,0:0:0:0:
264,288,89254,1,10,0:0:0:0:
378,190,89421,6,0,B|363:128|338:69,1,123.000004692078,2|0,0:0|3:0,0:0:0:0:
339,72,89671,1,2,3:0:0:0:
339,72,89754,1,0,1:3:0:0:
512,216,89921,2,0,B|449:223|388:241,1,123.000004692078,8|0,0:0|0:0,0:0:0:0:
264,288,90254,1,0,1:0:0:0:
264,288,90587,5,10,0:0:0:0:
90,354,90754,1,2,0:0:0:0:
192,198,90922,1,2,0:0:0:0:
201,384,91087,1,2,1:2:0:0:
83,237,91254,6,0,P|133:192|140:135,1,123.000004692078,8|0,0:0|0:0,0:0:0:0:
201,0,91588,1,2,0:0:0:0:
192,186,91753,1,2,1:2:0:0:
90,30,91921,1,10,0:0:0:0:
192,186,92088,2,0,P|224:169|264:168,1,61.5000023460389,2|0,0:0|3:0,0:0:0:0:
248,257,92254,5,0,3:0:0:0:
248,257,92338,1,2,3:0:0:0:
248,257,92421,1,0,1:3:0:0:
512,192,92588,2,0,P|453:181|374:171,1,123.000004692078,8|2,0:0|1:2,0:0:0:0:
328,384,92921,5,0,1:0:0:0:
328,384,93254,5,10,0:0:0:0:
390,172,93420,1,2,0:0:0:0:
272,264,93588,5,2,0:0:0:0:
303,370,93754,1,2,1:2:0:0:
390,173,93921,6,0,P|384:132|364:45,1,123.000004692078,8|0,0:0|0:0,0:0:0:0:
494,50,94254,5,2,1:2:0:0:
348,26,94420,1,2,0:0:0:0:
200,3,94588,1,10,0:0:0:0:
72,176,94754,6,0,P|78:135|98:48,1,123.000004692078,2|0,0:0|3:0,0:0:0:0:
95,55,95004,1,2,3:0:0:0:
95,55,95088,1,2,1:3:0:0:
0,264,95254,2,0,P|6:305|26:392,2,123.000004692078,8|0|0,0:0|0:0|1:0,0:0:0:0:
0,264,95921,6,0,P|30:318|105:337,1,123.000004692078,10|2,0:0|0:0,0:0:0:0:
240,208,96254,1,2,0:0:0:0:
240,208,96421,2,0,P|235:269|175:318,1,123.000004692078,2|8,1:2|0:0,0:0:0:0:
84,338,96754,1,0,0:0:0:0:
229,365,96921,5,2,0:0:0:0:
281,226,97088,1,2,1:2:0:0:
334,88,97255,1,10,0:0:0:0:
163,0,97421,6,0,B|179:91|217:185,2,184.500007038117,0|0|8,1:0|1:0|0:0,0:0:0:0:
154,122,98088,5,0,1:0:0:0:
154,103,98171,1,0,1:0:0:0:
140,92,98254,1,0,1:0:0:0:
70,153,98421,1,0,1:0:0:0:
97,384,98588,5,10,0:0:0:0:
248,248,98754,1,2,0:0:0:0:
160,184,98921,5,2,0:0:0:0:
280,384,99088,1,2,1:2:0:0:
280,384,99255,2,0,P|336:378|401:349,1,123.000004692078,8|0,0:0|0:0,0:0:0:0:
512,240,99588,5,2,1:2:0:0:
328,187,99755,1,2,0:0:0:0:
444,38,99921,1,10,0:0:0:0:
328,187,100088,6,0,B|321:250|303:311,1,123.000004692078,2|2,0:0|0:0,0:0:0:0:
304,307,100338,1,2,0:3:0:0:
304,307,100421,1,0,1:0:0:0:
512,240,100588,6,0,B|419:225|435:163|345:153,1,184.500007038117,8|0,0:0|0:0,0:0:0:0:
264,96,100921,1,0,1:0:0:0:
264,96,101254,5,10,0:0:0:0:
201,0,101421,1,2,0:0:0:0:
192,186,101589,1,2,0:0:0:0:
90,30,101754,1,2,1:2:0:0:
83,147,101921,6,0,P|133:192|140:249,1,123.000004692078,8|0,0:0|0:0,0:0:0:0:
201,384,102254,1,2,0:0:0:0:
192,198,102421,1,2,1:2:0:0:
90,354,102588,1,10,0:0:0:0:
192,198,102754,6,0,P|224:215|264:216,1,61.5000023460389,2|0,0:0|0:0,0:0:0:0:
268,143,102921,2,0,P|236:126|196:125,1,61.5000023460389,2|2,3:2|0:0,0:0:0:0:
211,123,103088,1,2,1:2:0:0:
296,0,103254,6,0,P|299:27|319:133,1,123.000004692078,8|2,0:0|1:2,0:0:0:0:
316,121,103504,2,0,P|327:161|334:179,1,61.5000023460389,0|0,3:0|1:0,0:0:0:0:
264,300,103921,5,10,0:0:0:0:
106,256,104088,1,2,0:0:0:0:
209,384,104254,1,2,0:0:0:0:
112,358,104421,1,2,1:2:0:0:
201,221,104588,6,0,P|244:181|179:102,1,184.500007038117,8|0,0:0|0:0,0:0:0:0:
177,102,104921,1,2,1:2:0:0:
51,25,105087,1,2,0:0:0:0:
116,173,105254,1,10,0:0:0:0:
255,0,105421,6,0,P|295:19|435:77,1,184.500007038117,2|2,0:0|3:0,0:0:0:0:
424,73,105754,1,0,1:0:0:0:
512,0,105921,1,8,0:0:0:0:
256,384,106254,1,0,1:0:0:0:
137,345,106588,6,0,P|112:296|132:247,1,106.599995120239,10|2,0:0|0:0,0:0:0:0:
383,250,106921,2,0,P|399:299|375:345,1,106.599995120239,2|10,0:0|0:0,0:0:0:0:
256,384,107254,1,0,3:0:0:0:
256,384,107421,1,0,1:0:0:0:
200,288,107588,5,2,1:2:0:0:
336,192,107754,1,2,0:0:0:0:
176,192,107921,1,10,0:0:0:0:
312,288,108088,1,2,0:0:0:0:
256,128,108254,1,0,3:0:0:0:
256,128,108338,1,0,3:0:0:0:
256,128,108421,1,8,0:0:0:0:
259,279,108588,6,0,B|275:322|235:346|259:391,1,106.599995120239,8|0,0:0|1:0,0:0:0:0:
255,383,108838,1,0,1:0:0:0:
255,383,108921,1,0,1:0:0:0:
