osu file format v14

[General]
AudioFilename: audio.mp3
AudioLeadIn: 0
PreviewTime: 65315
Countdown: 0
SampleSet: Soft
StackLeniency: 0.7
Mode: 0
LetterboxInBreaks: 0
EpilepsyWarning: 1
WidescreenStoryboard: 1

[Editor]
DistanceSpacing: 1.1
BeatDivisor: 4
GridSize: 32
TimelineZoom: 2.1

[Metadata]
Title:Battlecry
TitleUnicode:Battlecry
Artist:Mazare & Philip Strand
ArtistUnicode:Mazare & Philip Strand
Creator:Moko
Version:Fervor of Battle
Source:
Tags:dnb drum and bass drumstep english melodic vocal male edm electronic monstercat sb storyboard xm4ti3 hantrik jaybone
BeatmapID:2434310
BeatmapSetID:1167000

[Difficulty]
HPDrainRate:5
CircleSize:3.7
OverallDifficulty:8.6
ApproachRate:9.2
SliderMultiplier:1.7
SliderTickRate:1

[Events]
//Background and Video events
0,0,"bg.jpg",0,0
//Break Periods
2,130848,148745
//Storyboard Layer 0 (Background)
Sprite,Background,Centre,"sb\b\bgbc.jpg",0,0 M,17,2648,6203,320,240,318.1901,237.4614 R,17,2648,6203,0,-0.01072091 S,0,2648,45315,0.4 M,17,6203,9758,318.1901,237.4614,319.5347,242.3517 R,17,6203,9758,-0.01072091,-0.002355392 M,17,9758,13313,319.5347,242.3517,316.7518,240.4626 R,17,9758,13313,-0.002355392,-0.01910199 M,17,13313,16868,316.7518,240.4626,321.8104,241.6647 R,17,13313,16868,-0.01910199,0.001307412 M,17,16868,20423,321.8104,241.6647,318.9387,240.2439 R,17,16868,20423,0.001307412,-0.01928605 M,17,20423,23978,318.9387,240.2439,323.757,237.101 R,17,20423,23978,-0.01928605,-0.01981388 M,17,23978,27533,323.757,237.101,318.5826,241.4833 R,17,23978,27533,-0.01981388,-0.01267632 M,17,27533,31088,318.5826,241.4833,317.2156,236.0648 R,17,27533,31088,-0.01267632,0.01869499 M,17,31088,34643,317.2156,236.0648,318.4005,239.7897 R,17,31088,34643,0.01869499,-0.01736075 M,17,34643,38198,318.4005,239.7897,318.499,239.6255 R,17,34643,38198,-0.01736075,0.0167556 M,17,38198,41753,318.499,239.6255,322.503,240.3734 R,17,38198,41753,0.0167556,0.008113125 M,17,41753,45308,322.503,240.3734,316.0916,238.8584 R,17,41753,45308,0.008113125,-0.01051854
Sprite,Background,Centre,"sb\b\bgb.jpg",0,0 M,17,45315,48648,320,240,318.1901,237.4614 R,17,45315,48648,0,-0.01072091 S,0,45315,65315,0.4 M,17,48648,51981,318.1901,237.4614,319.5347,242.3517 R,17,48648,51981,-0.01072091,-0.002355392 M,17,51981,55314,319.5347,242.3517,316.7518,240.4626 R,17,51981,55314,-0.002355392,-0.01910199 M,17,55314,58647,316.7518,240.4626,321.8104,241.6647 R,17,55314,58647,-0.01910199,0.001307412 M,17,58647,61980,321.8104,241.6647,318.9387,240.2439 R,17,58647,61980,0.001307412,-0.01928605 M,17,61980,65313,318.9387,240.2439,323.757,237.101 R,17,61980,65313,-0.01928605,-0.01981388
Sprite,Background,Centre,"bg.jpg",0,0 M,17,66648,69314,320,240,318.1901,237.4614 R,17,66648,69314,0,-0.01072091 S,0,66648,87981,0.4 M,17,69314,71980,318.1901,237.4614,319.5347,242.3517 R,17,69314,71980,-0.01072091,-0.002355392 M,17,71980,74646,319.5347,242.3517,316.7518,240.4626 R,17,71980,74646,-0.002355392,-0.01910199 M,17,74646,77312,316.7518,240.4626,321.8104,241.6647 R,17,74646,77312,-0.01910199,0.001307412 M,17,77312,79978,321.8104,241.6647,318.9387,240.2439 R,17,77312,79978,0.001307412,-0.01928605 M,17,79978,82644,318.9387,240.2439,323.757,237.101 R,17,79978,82644,-0.01928605,-0.01981388 M,17,82644,85310,323.757,237.101,318.5826,241.4833 R,17,82644,85310,-0.01981388,-0.01267632 M,17,85310,87976,318.5826,241.4833,317.2156,236.0648 R,17,85310,87976,-0.01267632,0.01869499
Sprite,Background,Centre,"sb\b\bgb.jpg",0,0 M,17,87981,90647,320,240,318.1901,237.4614 R,17,87981,90647,0,-0.01072091 S,0,87981,109315,0.4 M,17,90647,93313,318.1901,237.4614,319.5347,242.3517 R,17,90647,93313,-0.01072091,-0.002355392 M,17,93313,95979,319.5347,242.3517,316.7518,240.4626 R,17,93313,95979,-0.002355392,-0.01910199 M,17,95979,98645,316.7518,240.4626,321.8104,241.6647 R,17,95979,98645,-0.01910199,0.001307412 M,17,98645,101311,321.8104,241.6647,318.9387,240.2439 R,17,98645,101311,0.001307412,-0.01928605 M,17,101311,103977,318.9387,240.2439,323.757,237.101 R,17,101311,103977,-0.01928605,-0.01981388 M,17,103977,106643,323.757,237.101,318.5826,241.4833 R,17,103977,106643,-0.01981388,-0.01267632 M,17,106643,109309,318.5826,241.4833,317.2156,236.0648 R,17,106643,109309,-0.01267632,0.01869499
Sprite,Background,Centre,"sb\b\bgb.jpg",0,0 M,17,151981,155536,320,240,318.1901,237.4614 R,17,151981,155536,0,-0.01072091 S,0,151981,173315,0.4 M,17,155536,159091,318.1901,237.4614,319.5347,242.3517 R,17,155536,159091,-0.01072091,-0.002355392 M,17,159091,162646,319.5347,242.3517,316.7518,240.4626 R,17,159091,162646,-0.002355392,-0.01910199 M,17,162646,166201,316.7518,240.4626,321.8104,241.6647 R,17,162646,166201,-0.01910199,0.001307412 M,17,166201,169756,321.8104,241.6647,318.9387,240.2439 R,17,166201,169756,0.001307412,-0.01928605 M,17,169756,173311,318.9387,240.2439,323.757,237.101 R,17,169756,173311,-0.01928605,-0.01981388
Sprite,Background,Centre,"bg.jpg",0,0 M,17,173315,175981,320,240,318.1901,237.4614 R,17,173315,175981,0,-0.01072091 S,0,173315,194648,0.4 M,17,175981,178647,318.1901,237.4614,319.5347,242.3517 R,17,175981,178647,-0.01072091,-0.002355392 M,17,178647,181313,319.5347,242.3517,316.7518,240.4626 R,17,178647,181313,-0.002355392,-0.01910199 M,17,181313,183979,316.7518,240.4626,321.8104,241.6647 R,17,181313,183979,-0.01910199,0.001307412 M,17,183979,186645,321.8104,241.6647,318.9387,240.2439 R,17,183979,186645,0.001307412,-0.01928605 M,17,186645,189311,318.9387,240.2439,323.757,237.101 R,17,186645,189311,-0.01928605,-0.01981388 M,17,189311,191977,323.757,237.101,318.5826,241.4833 R,17,189311,191977,-0.01981388,-0.01267632 M,17,191977,194643,318.5826,241.4833,317.2156,236.0648 R,17,191977,194643,-0.01267632,0.01869499
Sprite,Background,Centre,"sb\b\bgb.jpg",0,0 M,17,194648,197314,320,240,318.1901,237.4614 R,17,194648,197314,0,-0.01072091 S,0,194648,215981,0.4 M,17,197314,199980,318.1901,237.4614,319.5347,242.3517 R,17,197314,199980,-0.01072091,-0.002355392 M,17,199980,202646,319.5347,242.3517,316.7518,240.4626 R,17,199980,202646,-0.002355392,-0.01910199 M,17,202646,205312,316.7518,240.4626,321.8104,241.6647 R,17,202646,205312,-0.01910199,0.001307412 M,17,205312,207978,321.8104,241.6647,318.9387,240.2439 R,17,205312,207978,0.001307412,-0.01928605 M,17,207978,210644,318.9387,240.2439,323.757,237.101 R,17,207978,210644,-0.01928605,-0.01981388 M,17,210644,213310,323.757,237.101,318.5826,241.4833 R,17,210644,213310,-0.01981388,-0.01267632 M,17,213310,215976,318.5826,241.4833,317.2156,236.0648 R,17,213310,215976,-0.01267632,0.01869499
Sprite,Background,Centre,"sb\b\bgbc.jpg",0,0 M,17,215981,220514,320,240,318.1901,237.4614 R,17,215981,220514,0,-0.01072091 S,0,215981,238648,0.4 M,17,220514,225047,318.1901,237.4614,319.5347,242.3517 R,17,220514,225047,-0.01072091,-0.002355392 M,17,225047,229580,319.5347,242.3517,316.7518,240.4626 R,17,225047,229580,-0.002355392,-0.01910199 M,17,229580,234113,316.7518,240.4626,321.8104,241.6647 R,17,229580,234113,-0.01910199,0.001307412 M,17,234113,238646,321.8104,241.6647,318.9387,240.2439 R,17,234113,238646,0.001307412,-0.01928605
Sprite,Background,Centre,"sb\b\bgbc.jpg",0,0 M,17,109315,112870,320,240,318.1901,237.4614 R,17,109315,112870,0,-0.01072091 S,0,109315,151981,0.4 M,17,112870,116425,318.1901,237.4614,319.5347,242.3517 R,17,112870,116425,-0.01072091,-0.002355392 M,17,116425,119980,319.5347,242.3517,316.7518,240.4626 R,17,116425,119980,-0.002355392,-0.01910199 M,17,119980,123535,316.7518,240.4626,321.8104,241.6647 R,17,119980,123535,-0.01910199,0.001307412 M,17,123535,127090,321.8104,241.6647,318.9387,240.2439 R,17,123535,127090,0.001307412,-0.01928605 M,17,127090,130645,318.9387,240.2439,323.757,237.101 R,17,127090,130645,-0.01928605,-0.01981388 M,17,130645,134200,323.757,237.101,318.5826,241.4833 R,17,130645,134200,-0.01981388,-0.01267632 M,17,134200,137755,318.5826,241.4833,317.2156,236.0648 R,17,134200,137755,-0.01267632,0.01869499 M,17,137755,141310,317.2156,236.0648,318.4005,239.7897 R,17,137755,141310,0.01869499,-0.01736075 M,17,141310,144865,318.4005,239.7897,318.499,239.6255 R,17,141310,144865,-0.01736075,0.0167556 M,17,144865,148420,318.499,239.6255,322.503,240.3734 R,17,144865,148420,0.0167556,0.008113125 M,17,148420,151975,322.503,240.3734,316.0916,238.8584 R,17,148420,151975,0.008113125,-0.01051854
Sprite,Background,Centre,"sb\fog.png",0,0 F,0,-19,,0.6 F,0,-19,181,0,0.6 M,0,-19,29981,-607,436.1989,1247,436.1989 P,0,-19,74981,A F,0,29781,29981,0.6,0 F,0,44981,45181,0,0.6 M,0,44981,74981,-607,409.3058,1247,409.3058 F,0,74781,74981,0.6,0
Sprite,Background,Centre,"sb\fog.png",0,0 F,0,14981,,0.6 F,0,14981,15181,0,0.6 M,0,14981,44981,-607,450.7721,1247,450.7721 P,0,14981,89981,A F,0,44781,44981,0.6,0 F,0,59981,60181,0,0.6 M,0,59981,89981,-607,352.9653,1247,352.9653 F,0,89781,89981,0.6,0
Sprite,Background,Centre,"sb\fog.png",0,0 F,0,29981,,0.6 F,0,29981,30181,0,0.6 M,0,29981,59981,-607,442.8836,1247,442.8836 P,0,29981,104981,A F,0,59781,59981,0.6,0 F,0,74981,75181,0,0.6 M,0,74981,104981,-607,409.4216,1247,409.4216 F,0,104781,104981,0.6,0
Sprite,Background,Centre,"sb\fog.png",0,0 F,0,89981,,0.6 F,0,89981,90181,0,0.6 M,0,89981,119981,-607,464.9643,1247,464.9643 P,0,89981,164981,A F,0,119781,119981,0.6,0 F,0,134981,135181,0,0.6 M,0,134981,164981,-607,363.7927,1247,363.7927 F,0,164781,164981,0.6,0
Sprite,Background,Centre,"sb\fog.png",0,0 F,0,104981,,0.6 F,0,104981,105181,0,0.6 M,0,104981,134981,-607,390.7484,1247,390.7484 P,0,104981,179981,A F,0,134781,134981,0.6,0 F,0,149981,150181,0,0.6 M,0,149981,179981,-607,366.705,1247,366.705 F,0,179781,179981,0.6,0
Sprite,Background,Centre,"sb\fog.png",0,0 F,0,119981,,0.6 F,0,119981,120181,0,0.6 M,0,119981,149981,-607,476.408,1247,476.408 P,0,119981,194981,A F,0,149781,149981,0.6,0 F,0,164981,165181,0,0.6 M,0,164981,194981,-607,394.7704,1247,394.7704 F,0,194781,194981,0.6,0
Sprite,Background,Centre,"sb\fog.png",0,0 F,0,179981,,0.6 F,0,179981,180181,0,0.6 M,0,179981,209981,-607,421.2255,1247,421.2255 P,0,179981,209981,A F,0,209781,209981,0.6,0
Sprite,Background,Centre,"sb\fog.png",0,0 F,0,194981,,0.6 F,0,194981,195181,0,0.6 M,0,194981,224981,-607,395.1219,1247,395.1219 P,0,194981,224981,A F,0,224781,224981,0.6,0
Sprite,Background,Centre,"sb\fog.png",0,0 F,0,-19,,0.6 C,0,-19,,29,29,29 F,0,-19,181,0,0.6 M,0,-19,24981,739.455,420,739.455,540 P,0,-19,62481,A F,0,24781,24981,0.6,0 F,0,37481,37681,0,0.6 M,0,37481,62481,427.8309,420,427.8309,540 F,0,62281,62481,0.6,0
Sprite,Background,Centre,"sb\fog.png",0,0 F,0,12481,,0.6 C,0,12481,,29,29,29 F,0,12481,12681,0,0.6 M,0,12481,37481,908.3212,420,908.3212,540 P,0,12481,74981,A F,0,37281,37481,0.6,0 F,0,49981,50181,0,0.6 M,0,49981,74981,-225.0145,420,-225.0145,540 F,0,74781,74981,0.6,0
Sprite,Background,Centre,"sb\fog.png",0,0 F,0,24981,,0.6 C,0,24981,,29,29,29 F,0,24981,25181,0,0.6 M,0,24981,49981,816.9141,420,816.9141,540 P,0,24981,87481,A F,0,49781,49981,0.6,0 F,0,62481,62681,0,0.6 M,0,62481,87481,429.1724,420,429.1724,540 F,0,87281,87481,0.6,0
Sprite,Background,Centre,"sb\fog.png",0,0 F,0,74981,,0.6 C,0,74981,,29,29,29 F,0,74981,75181,0,0.6 M,0,74981,99981,1072.774,420,1072.774,540 P,0,74981,137481,A F,0,99781,99981,0.6,0 F,0,112481,112681,0,0.6 M,0,112481,137481,-99.55191,420,-99.55191,540 F,0,137281,137481,0.6,0
Sprite,Background,Centre,"sb\fog.png",0,0 F,0,87481,,0.6 C,0,87481,,29,29,29 F,0,87481,87681,0,0.6 M,0,87481,112481,212.7978,420,212.7978,540 P,0,87481,149981,A F,0,112281,112481,0.6,0 F,0,124981,125181,0,0.6 M,0,124981,149981,-65.80573,420,-65.80573,540 F,0,149781,149981,0.6,0
Sprite,Background,Centre,"sb\fog.png",0,0 F,0,99981,,0.6 C,0,99981,,29,29,29 F,0,99981,100181,0,0.6 M,0,99981,124981,1205.377,420,1205.377,540 P,0,99981,162481,A F,0,124781,124981,0.6,0 F,0,137481,137681,0,0.6 M,0,137481,162481,259.4014,420,259.4014,540 F,0,162281,162481,0.6,0
Sprite,Background,Centre,"sb\fog.png",0,0 F,0,149981,,0.6 C,0,149981,,29,29,29 F,0,149981,150181,0,0.6 M,0,149981,174981,565.95,420,565.95,540 P,0,149981,212481,A F,0,174781,174981,0.6,0 F,0,187481,187681,0,0.6 M,0,187481,212481,-550.6996,420,-550.6996,540 F,0,212281,212481,0.6,0
Sprite,Background,Centre,"sb\fog.png",0,0 F,0,162481,,0.6 C,0,162481,,29,29,29 F,0,162481,162681,0,0.6 M,0,162481,187481,263.475,420,263.475,540 P,0,162481,224981,A F,0,187281,187481,0.6,0 F,0,199981,200181,0,0.6 M,0,199981,224981,991.8342,420,991.8342,540 F,0,224781,224981,0.6,0
Sprite,Background,Centre,"sb\fog.png",0,0 F,0,174981,,0.6 C,0,174981,,29,29,29 F,0,174981,175181,0,0.6 M,0,174981,199981,1213.908,420,1213.908,540 P,0,174981,237481,A F,0,199781,199981,0.6,0 F,0,212481,212681,0,0.6 M,0,212481,237481,1238.374,420,1238.374,540 F,0,237281,237481,0.6,0
Sprite,Background,Centre,"sb\p\d.png",0,0 L,65669,42 F,1,0,203,0,0.8620538 M,0,0,1019,267.3831,241.6051,-89.23215,-240.9149 F,2,815,1019,0.8620538,0 S,0,65669,,0.05 R,0,65669,,4.075921 C,0,65669,,255,149,20
Sprite,Background,Centre,"sb\p\d.png",0,0 L,65690,42 F,1,0,203,0,0.8620538 M,0,0,1019,618.8567,166.7249,500.8062,-421.5472 F,2,815,1019,0.8620538,0 S,0,65690,,0.05 R,0,65690,,4.514346 C,0,65690,,255,149,20
Sprite,Background,Centre,"sb\p\d.png",0,0 L,65711,42 F,1,0,203,0,0.8620538 M,0,0,1019,391.1379,492.3488,-10.03775,46.18951 F,2,815,1019,0.8620538,0 S,0,65711,,0.05 R,0,65711,,3.980029 C,0,65711,,255,149,20
Sprite,Background,Centre,"sb\p\d.png",0,0 L,65732,42 F,1,0,203,0,0.8620538 M,0,0,1019,254.1668,117.3854,138.9525,-471.4488 F,2,815,1019,0.8620538,0 S,0,65732,,0.05 R,0,65732,,4.519165 C,0,65732,,255,149,20
Sprite,Background,Centre,"sb\p\d.png",0,0 L,65754,42 F,1,0,203,0,0.8620538 M,0,0,1019,748.2432,363.4005,641.1763,-226.9694 F,2,815,1019,0.8620538,0 S,0,65754,,0.05 R,0,65754,,4.532983 C,0,65754,,255,149,20
Sprite,Background,Centre,"sb\p\d.png",0,0 L,65775,42 F,1,0,203,0,0.8620538 M,0,0,1019,330.8051,118.8499,115.9257,-441.3526 F,2,815,1019,0.8620538,0 S,0,65775,,0.05 R,0,65775,,4.346122 C,0,65775,,255,149,20
Sprite,Background,Centre,"sb\p\d.png",0,0 L,65796,42 F,1,0,203,0,0.8620538 M,0,0,1019,627.1778,7.377594,70.70099,-216.9738 F,2,815,1019,0.8620538,0 S,0,65796,,0.05 R,0,65796,,3.524824 C,0,65796,,255,149,20
Sprite,Background,Centre,"sb\p\d.png",0,0 L,65817,42 F,1,0,203,0,0.8620538 M,0,0,1019,339.2055,51.64809,194.4702,-530.6334 F,2,815,1019,0.8620538,0 S,0,65817,,0.05 R,0,65817,,4.46876 C,0,65817,,255,149,20
Sprite,Background,Centre,"sb\p\d.png",0,0 L,65839,42 F,1,0,203,0,0.8620538 M,0,0,1019,318.3121,53.97794,-226.0615,-198.3262 F,2,815,1019,0.8620538,0 S,0,65839,,0.05 R,0,65839,,3.575597 C,0,65839,,255,149,20
Sprite,Background,Centre,"sb\p\d.png",0,0 L,65860,42 F,1,0,203,0,0.8620538 M,0,0,1019,513.2853,523.7165,39.38684,155.7216 F,2,815,1019,0.8620538,0 S,0,65860,,0.05 R,0,65860,,3.801856 C,0,65860,,255,149,20
Sprite,Background,Centre,"sb\p\d.png",0,0 L,65881,42 F,1,0,203,0,0.8620538 M,0,0,1019,707.8589,279.2436,461.6933,-267.9333 F,2,815,1019,0.8620538,0 S,0,65881,,0.05 R,0,65881,,4.289632 C,0,65881,,255,149,20
Sprite,Background,Centre,"sb\p\d.png",0,0 L,65902,42 F,1,0,203,0,0.8620538 M,0,0,1019,638.1722,342.179,182.5312,-48.19418 F,2,815,1019,0.8620538,0 S,0,65902,,0.05 R,0,65902,,3.849996 C,0,65902,,255,149,20
Sprite,Background,Centre,"sb\p\d.png",0,0 L,65924,42 F,1,0,203,0,0.8620538 M,0,0,1019,666.7734,232.4157,393.9906,-301.9901 F,2,815,1019,0.8620538,0 S,0,65924,,0.05 R,0,65924,,4.240423 C,0,65924,,255,149,20
Sprite,Background,Centre,"sb\p\d.png",0,0 L,65945,42 F,1,0,203,0,0.8620538 M,0,0,1019,558.0718,427.9668,396.9807,-150.0035 F,2,815,1019,0.8620538,0 S,0,65945,,0.05 R,0,65945,,4.440569 C,0,65945,,255,149,20
Sprite,Background,Centre,"sb\p\d.png",0,0 L,65966,42 F,1,0,203,0,0.8620538 M,0,0,1019,478.0234,99.17853,72.14865,-342.7102 F,2,815,1019,0.8620538,0 S,0,65966,,0.05 R,0,65966,,3.969446 C,0,65966,,255,149,20
Sprite,Background,Centre,"sb\p\d.png",0,0 L,65987,42 F,1,0,203,0,0.8620538 M,0,0,1019,522.2599,435.0012,95.07666,13.67648 F,2,815,1019,0.8620538,0 S,0,65987,,0.05 R,0,65987,,3.920086 C,0,65987,,255,149,20
Sprite,Background,Centre,"sb\p\d.png",0,0 L,66009,42 F,1,0,203,0,0.8620538 M,0,0,1019,364.666,22.0285,-26.76706,-432.7024 F,2,815,1019,0.8620538,0 S,0,66009,,0.05 R,0,66009,,4.001657 C,0,66009,,255,149,20
Sprite,Background,Centre,"sb\p\d.png",0,0 L,66030,42 F,1,0,203,0,0.8620538 M,0,0,1019,534.4502,617.356,324.5748,55.25958 F,2,815,1019,0.8620538,0 S,0,66030,,0.05 R,0,66030,,4.35504 C,0,66030,,255,149,20
Sprite,Background,Centre,"sb\p\d.png",0,0 L,66072,42 F,1,0,203,0,0.8620538 M,0,0,1019,300.9346,181.1347,132.7532,-394.8123 F,2,815,1019,0.8620538,0 S,0,66072,,0.05 R,0,66072,,4.42828 C,0,66072,,255,149,20
Sprite,Background,Centre,"sb\p\d.png",0,0 L,66094,42 F,1,0,203,0,0.8620538 M,0,0,1019,504.2835,235.8358,302.1716,-329.0985 F,2,815,1019,0.8620538,0 S,0,66094,,0.05 R,0,66094,,4.368816 C,0,66094,,255,149,20
Sprite,Background,Centre,"sb\p\d.png",0,0 L,66115,42 F,1,0,203,0,0.8620538 M,0,0,1019,558.9631,553.3112,349.9068,-9.090271 F,2,815,1019,0.8620538,0 S,0,66115,,0.05 R,0,66115,,4.356496 C,0,66115,,255,149,20
Sprite,Background,Centre,"sb\p\d.png",0,0 L,66136,42 F,1,0,203,0,0.8620538 M,0,0,1019,489.2603,653.2697,94.69278,201.2559 F,2,815,1019,0.8620538,0 S,0,66136,,0.05 R,0,66136,,3.994744 C,0,66136,,255,149,20
Sprite,Background,Centre,"sb\p\d.png",0,0 L,66157,42 F,1,0,203,0,0.8620538 M,0,0,1019,243.924,50.45294,24.68344,-508.0572 F,2,815,1019,0.8620538,0 S,0,66157,,0.05 R,0,66157,,4.338326 C,0,66157,,255,149,20
Sprite,Background,Centre,"sb\p\d.png",0,0 L,66179,42 F,1,0,203,0,0.8620538 M,0,0,1019,667.6201,482.1396,396.225,-52.97217 F,2,815,1019,0.8620538,0 S,0,66179,,0.05 R,0,66179,,4.243018 C,0,66179,,255,149,20
Sprite,Background,Centre,"sb\p\d.png",0,0 L,66200,42 F,1,0,203,0,0.8620538 M,0,0,1019,661.3852,542.9899,148.9681,230.8541 F,2,815,1019,0.8620538,0 S,0,66200,,0.05 R,0,66200,,3.688709 C,0,66200,,255,149,20
Sprite,Background,Centre,"sb\p\d.png",0,0 L,66221,42 F,1,0,203,0,0.8620538 M,0,0,1019,158.0657,338.4383,-304.7089,-43.45129 F,2,815,1019,0.8620538,0 S,0,66221,,0.05 R,0,66221,,3.831522 C,0,66221,,255,149,20
Sprite,Background,Centre,"sb\p\d.png",0,0 L,66242,42 F,1,0,203,0,0.8620538 M,0,0,1019,302.7131,83.3248,97.59763,-480.5259 F,2,815,1019,0.8620538,0 S,0,66242,,0.05 R,0,66242,,4.363494 C,0,66242,,255,149,20
Sprite,Background,Centre,"sb\p\d.png",0,0 L,66264,42 F,1,0,203,0,0.8620538 M,0,0,1019,536.5678,1.225098,291.2863,-546.3486 F,2,815,1019,0.8620538,0 S,0,66264,,0.05 R,0,66264,,4.291247 C,0,66264,,255,149,20
Sprite,Background,Centre,"sb\p\d.png",0,0 L,66285,42 F,1,0,203,0,0.8620538 M,0,0,1019,600.6642,225.2202,226.0674,-243.4772 F,2,815,1019,0.8620538,0 S,0,66285,,0.05 R,0,66285,,4.038118 C,0,66285,,255,149,20
Sprite,Background,Centre,"sb\p\d.png",0,0 L,66306,42 F,1,0,203,0,0.8620538 M,0,0,1019,312.5168,122.3743,-165.38,-240.413 F,2,815,1019,0.8620538,0 S,0,66306,,0.05 R,0,66306,,3.790913 C,0,66306,,255,149,20
Sprite,Background,Centre,"sb\p\d.png",0,0 L,66327,42 F,1,0,203,0,0.8620538 M,0,0,1019,492.8937,146.6219,-20.25818,-164.3044 F,2,815,1019,0.8620538,0 S,0,66327,,0.05 R,0,66327,,3.68635 C,0,66327,,255,149,20
Sprite,Background,Centre,"sb\p\d.png",0,0 L,66349,42 F,1,0,203,0,0.8620538 M,0,0,1019,678.5568,418.7413,393.0229,-108.9617 F,2,815,1019,0.8620538,0 S,0,66349,,0.05 R,0,66349,,4.216413 C,0,66349,,255,149,20
Sprite,Background,Centre,"sb\p\d.png",0,0 L,66370,42 F,1,0,203,0,0.8620538 M,0,0,1019,183.2739,46.6572,-318.3225,-282.5859 F,2,815,1019,0.8620538,0 S,0,66370,,0.05 R,0,66370,,3.722447 C,0,66370,,255,149,20
Sprite,Background,Centre,"sb\p\d.png",0,0 L,66391,42 F,1,0,203,0,0.8620538 M,0,0,1019,503.6898,259.7853,338.3704,-316.9897 F,2,815,1019,0.8620538,0 S,0,66391,,0.05 R,0,66391,,4.433246 C,0,66391,,255,149,20
Sprite,Background,Centre,"sb\p\d.png",0,0 L,66412,42 F,1,0,203,0,0.8620538 M,0,0,1019,372.075,200.588,-152.9716,-89.80161 F,2,815,1019,0.8620538,0 S,0,66412,,0.05 R,0,66412,,3.646793 C,0,66412,,255,149,20
Sprite,Background,Centre,"sb\p\d.png",0,0 L,66434,42 F,1,0,203,0,0.8620538 M,0,0,1019,639.9909,475.052,506.8836,-109.9972 F,2,815,1019,0.8620538,0 S,0,66434,,0.05 R,0,66434,,4.488682 C,0,66434,,255,149,20
Sprite,Background,Centre,"sb\p\d.png",0,0 L,66455,42 F,1,0,203,0,0.8620538 M,0,0,1019,281.7191,308.1547,-12.30576,-214.8648 F,2,815,1019,0.8620538,0 S,0,66455,,0.05 R,0,66455,,4.200252 C,0,66455,,255,149,20
Sprite,Background,Centre,"sb\p\d.png",0,0 L,66476,42 F,1,0,203,0,0.8620538 M,0,0,1019,265.2875,227.3619,-60.69699,-276.3583 F,2,815,1019,0.8620538,0 S,0,66476,,0.05 R,0,66476,,4.138017 C,0,66476,,255,149,20
Sprite,Background,Centre,"sb\p\d.png",0,0 L,66497,42 F,1,0,203,0,0.8620538 M,0,0,1019,636.1713,306.9052,441.1185,-260.5051 F,2,815,1019,0.8620538,0 S,0,66497,,0.05 R,0,66497,,4.381284 C,0,66497,,255,149,20
Sprite,Background,Centre,"sb\p\d.png",0,0 L,66519,42 F,1,0,203,0,0.8620538 M,0,0,1019,596.5984,372.9005,317.6798,-158.3287 F,2,815,1019,0.8620538,0 S,0,66519,,0.05 R,0,66519,,4.228908 C,0,66519,,255,149,20
Sprite,Background,Centre,"sb\p\d.png",0,0 L,66540,42 F,1,0,203,0,0.8620538 M,0,0,1019,765.926,207.8846,328.7471,-203.0589 F,2,815,1019,0.8620538,0 S,0,66540,,0.05 R,0,66540,,3.896067 C,0,66540,,255,149,20
Sprite,Background,Centre,"sb\p\d.png",0,0 L,66561,42 F,1,0,203,0,0.8620538 M,0,0,1019,231.3376,272.8589,-151.1608,-189.4127 F,2,815,1019,0.8620538,0 S,0,66561,,0.05 R,0,66561,,4.021143 C,0,66561,,255,149,20
Sprite,Background,Centre,"sb\p\d.png",0,0 L,66582,42 F,1,0,203,0,0.8620538 M,0,0,1019,335.7313,283.0567,-144.499,-76.63596 F,2,815,1019,0.8620538,0 S,0,66582,,0.05 R,0,66582,,3.784454 C,0,66582,,255,149,20
Sprite,Background,Centre,"sb\p\d.png",0,0 L,66604,42 F,1,0,203,0,0.8620538 M,0,0,1019,88.89749,308.1593,-239.7328,-193.8388 F,2,815,1019,0.8620538,0 S,0,66604,,0.05 R,0,66604,,4.132756 C,0,66604,,255,149,20
Sprite,Background,Centre,"sb\p\d.png",0,0 L,66625,42 F,1,0,203,0,0.8620538 M,0,0,1019,666.0845,488.8076,235.3002,71.16541 F,2,815,1019,0.8620538,0 S,0,66625,,0.05 R,0,66625,,3.911502 C,0,66625,,255,149,20
Sprite,Background,Centre,"sb\p\d.png",0,0 L,66646,42 F,1,0,203,0,0.8620538 M,0,0,1019,538.9158,247.1083,257.0401,-282.5577 F,2,815,1019,0.8620538,0 S,0,66646,,0.05 R,0,66646,,4.223333 C,0,66646,,255,149,20
Sprite,Background,Centre,"sb\p\d.png",0,0 L,172336,42 F,1,0,203,0,1 M,0,0,1019,267.3831,241.6051,-89.23215,-240.9149 F,2,815,1019,1,0 S,0,172336,,0.05 R,0,172336,,4.075921 C,0,172336,,255,149,20
Sprite,Background,Centre,"sb\p\d.png",0,0 L,172357,42 F,1,0,203,0,1 M,0,0,1019,618.8567,166.7249,500.8062,-421.5472 F,2,815,1019,1,0 S,0,172357,,0.05 R,0,172357,,4.514346 C,0,172357,,255,149,20
Sprite,Background,Centre,"sb\p\d.png",0,0 L,172378,42 F,1,0,203,0,1 M,0,0,1019,391.1379,492.3488,-10.03775,46.18951 F,2,815,1019,1,0 S,0,172378,,0.05 R,0,172378,,3.980029 C,0,172378,,255,149,20
Sprite,Background,Centre,"sb\p\d.png",0,0 L,172399,42 F,1,0,203,0,1 M,0,0,1019,254.1668,117.3854,138.9525,-471.4488 F,2,815,1019,1,0 S,0,172399,,0.05 R,0,172399,,4.519165 C,0,172399,,255,149,20
Sprite,Background,Centre,"sb\p\d.png",0,0 L,172421,42 F,1,0,203,0,1 M,0,0,1019,748.2432,363.4005,641.1763,-226.9694 F,2,815,1019,1,0 S,0,172421,,0.05 R,0,172421,,4.532983 C,0,172421,,255,149,20
Sprite,Background,Centre,"sb\p\d.png",0,0 L,172442,42 F,1,0,203,0,1 M,0,0,1019,330.8051,118.8499,115.9257,-441.3526 F,2,815,1019,1,0 S,0,172442,,0.05 R,0,172442,,4.346122 C,0,172442,,255,149,20
Sprite,Background,Centre,"sb\p\d.png",0,0 L,172463,42 F,1,0,203,0,1 M,0,0,1019,627.1778,7.377594,70.70099,-216.9738 F,2,815,1019,1,0 S,0,172463,,0.05 R,0,172463,,3.524824 C,0,172463,,255,149,20
Sprite,Background,Centre,"sb\p\d.png",0,0 L,172484,42 F,1,0,203,0,1 M,0,0,1019,339.2055,51.64809,194.4702,-530.6334 F,2,815,1019,1,0 S,0,172484,,0.05 R,0,172484,,4.46876 C,0,172484,,255,149,20
Sprite,Background,Centre,"sb\p\d.png",0,0 L,172506,42 F,1,0,203,0,1 M,0,0,1019,318.3121,53.97794,-226.0615,-198.3262 F,2,815,1019,1,0 S,0,172506,,0.05 R,0,172506,,3.575597 C,0,172506,,255,149,20
Sprite,Background,Centre,"sb\p\d.png",0,0 L,172527,42 F,1,0,203,0,1 M,0,0,1019,513.2853,523.7165,39.38684,155.7216 F,2,815,1019,1,0 S,0,172527,,0.05 R,0,172527,,3.801856 C,0,172527,,255,149,20
Sprite,Background,Centre,"sb\p\d.png",0,0 L,172548,42 F,1,0,203,0,1 M,0,0,1019,707.8589,279.2436,461.6933,-267.9333 F,2,815,1019,1,0 S,0,172548,,0.05 R,0,172548,,4.289632 C,0,172548,,255,149,20
Sprite,Background,Centre,"sb\p\d.png",0,0 L,172569,42 F,1,0,203,0,1 M,0,0,1019,638.1722,342.179,182.5312,-48.19418 F,2,815,1019,1,0 S,0,172569,,0.05 R,0,172569,,3.849996 C,0,172569,,255,149,20
Sprite,Background,Centre,"sb\p\d.png",0,0 L,172591,42 F,1,0,203,0,1 M,0,0,1019,666.7734,232.4157,393.9906,-301.9901 F,2,815,1019,1,0 S,0,172591,,0.05 R,0,172591,,4.240423 C,0,172591,,255,149,20
Sprite,Background,Centre,"sb\p\d.png",0,0 L,172612,42 F,1,0,203,0,1 M,0,0,1019,558.0718,427.9668,396.9807,-150.0035 F,2,815,1019,1,0 S,0,172612,,0.05 R,0,172612,,4.440569 C,0,172612,,255,149,20
Sprite,Background,Centre,"sb\p\d.png",0,0 L,172633,42 F,1,0,203,0,1 M,0,0,1019,478.0234,99.17853,72.14865,-342.7102 F,2,815,1019,1,0 S,0,172633,,0.05 R,0,172633,,3.969446 C,0,172633,,255,149,20
Sprite,Background,Centre,"sb\p\d.png",0,0 L,172654,42 F,1,0,203,0,1 M,0,0,1019,522.2599,435.0012,95.07666,13.67648 F,2,815,1019,1,0 S,0,172654,,0.05 R,0,172654,,3.920086 C,0,172654,,255,149,20
Sprite,Background,Centre,"sb\p\d.png",0,0 L,172676,42 F,1,0,203,0,1 M,0,0,1019,364.666,22.0285,-26.76706,-432.7024 F,2,815,1019,1,0 S,0,172676,,0.05 R,0,172676,,4.001657 C,0,172676,,255,149,20
Sprite,Background,Centre,"sb\p\d.png",0,0 L,172697,42 F,1,0,203,0,1 M,0,0,1019,534.4502,617.356,324.5748,55.25958 F,2,815,1019,1,0 S,0,172697,,0.05 R,0,172697,,4.35504 C,0,172697,,255,149,20
Sprite,Background,Centre,"sb\p\d.png",0,0 L,172739,42 F,1,0,203,0,1 M,0,0,1019,300.9346,181.1347,132.7532,-394.8123 F,2,815,1019,1,0 S,0,172739,,0.05 R,0,172739,,4.42828 C,0,172739,,255,149,20
Sprite,Background,Centre,"sb\p\d.png",0,0 L,172761,42 F,1,0,203,0,1 M,0,0,1019,504.2835,235.8358,302.1716,-329.0985 F,2,815,1019,1,0 S,0,172761,,0.05 R,0,172761,,4.368816 C,0,172761,,255,149,20
Sprite,Background,Centre,"sb\p\d.png",0,0 L,172782,42 F,1,0,203,0,1 M,0,0,1019,558.9631,553.3112,349.9068,-9.090271 F,2,815,1019,1,0 S,0,172782,,0.05 R,0,172782,,4.356496 C,0,172782,,255,149,20
Sprite,Background,Centre,"sb\p\d.png",0,0 L,172803,42 F,1,0,203,0,1 M,0,0,1019,489.2603,653.2697,94.69278,201.2559 F,2,815,1019,1,0 S,0,172803,,0.05 R,0,172803,,3.994744 C,0,172803,,255,149,20
Sprite,Background,Centre,"sb\p\d.png",0,0 L,172824,42 F,1,0,203,0,1 M,0,0,1019,243.924,50.45294,24.68344,-508.0572 F,2,815,1019,1,0 S,0,172824,,0.05 R,0,172824,,4.338326 C,0,172824,,255,149,20
Sprite,Background,Centre,"sb\p\d.png",0,0 L,172846,42 F,1,0,203,0,1 M,0,0,1019,667.6201,482.1396,396.225,-52.97217 F,2,815,1019,1,0 S,0,172846,,0.05 R,0,172846,,4.243018 C,0,172846,,255,149,20
Sprite,Background,Centre,"sb\p\d.png",0,0 L,172867,42 F,1,0,203,0,1 M,0,0,1019,661.3852,542.9899,148.9681,230.8541 F,2,815,1019,1,0 S,0,172867,,0.05 R,0,172867,,3.688709 C,0,172867,,255,149,20
Sprite,Background,Centre,"sb\p\d.png",0,0 L,172888,42 F,1,0,203,0,1 M,0,0,1019,158.0657,338.4383,-304.7089,-43.45129 F,2,815,1019,1,0 S,0,172888,,0.05 R,0,172888,,3.831522 C,0,172888,,255,149,20
Sprite,Background,Centre,"sb\p\d.png",0,0 L,172909,42 F,1,0,203,0,1 M,0,0,1019,302.7131,83.3248,97.59763,-480.5259 F,2,815,1019,1,0 S,0,172909,,0.05 R,0,172909,,4.363494 C,0,172909,,255,149,20
Sprite,Background,Centre,"sb\p\d.png",0,0 L,172931,42 F,1,0,203,0,1 M,0,0,1019,536.5678,1.225098,291.2863,-546.3486 F,2,815,1019,1,0 S,0,172931,,0.05 R,0,172931,,4.291247 C,0,172931,,255,149,20
Sprite,Background,Centre,"sb\p\d.png",0,0 L,172952,42 F,1,0,203,0,1 M,0,0,1019,600.6642,225.2202,226.0674,-243.4772 F,2,815,1019,1,0 S,0,172952,,0.05 R,0,172952,,4.038118 C,0,172952,,255,149,20
Sprite,Background,Centre,"sb\p\d.png",0,0 L,172973,42 F,1,0,203,0,1 M,0,0,1019,312.5168,122.3743,-165.38,-240.413 F,2,815,1019,1,0 S,0,172973,,0.05 R,0,172973,,3.790913 C,0,172973,,255,149,20
Sprite,Background,Centre,"sb\p\d.png",0,0 L,172994,42 F,1,0,203,0,1 M,0,0,1019,492.8937,146.6219,-20.25818,-164.3044 F,2,815,1019,1,0 S,0,172994,,0.05 R,0,172994,,3.68635 C,0,172994,,255,149,20
Sprite,Background,Centre,"sb\p\d.png",0,0 L,173016,42 F,1,0,203,0,1 M,0,0,1019,678.5568,418.7413,393.0229,-108.9617 F,2,815,1019,1,0 S,0,173016,,0.05 R,0,173016,,4.216413 C,0,173016,,255,149,20
Sprite,Background,Centre,"sb\p\d.png",0,0 L,173037,42 F,1,0,203,0,1 M,0,0,1019,183.2739,46.6572,-318.3225,-282.5859 F,2,815,1019,1,0 S,0,173037,,0.05 R,0,173037,,3.722447 C,0,173037,,255,149,20
Sprite,Background,Centre,"sb\p\d.png",0,0 L,173058,42 F,1,0,203,0,1 M,0,0,1019,503.6898,259.7853,338.3704,-316.9897 F,2,815,1019,1,0 S,0,173058,,0.05 R,0,173058,,4.433246 C,0,173058,,255,149,20
Sprite,Background,Centre,"sb\p\d.png",0,0 L,173079,42 F,1,0,203,0,1 M,0,0,1019,372.075,200.588,-152.9716,-89.80161 F,2,815,1019,1,0 S,0,173079,,0.05 R,0,173079,,3.646793 C,0,173079,,255,149,20
Sprite,Background,Centre,"sb\p\d.png",0,0 L,173101,42 F,1,0,203,0,1 M,0,0,1019,639.9909,475.052,506.8836,-109.9972 F,2,815,1019,1,0 S,0,173101,,0.05 R,0,173101,,4.488682 C,0,173101,,255,149,20
Sprite,Background,Centre,"sb\p\d.png",0,0 L,173122,42 F,1,0,203,0,1 M,0,0,1019,281.7191,308.1547,-12.30576,-214.8648 F,2,815,1019,1,0 S,0,173122,,0.05 R,0,173122,,4.200252 C,0,173122,,255,149,20
Sprite,Background,Centre,"sb\p\d.png",0,0 L,173143,42 F,1,0,203,0,1 M,0,0,1019,265.2875,227.3619,-60.69699,-276.3583 F,2,815,1019,1,0 S,0,173143,,0.05 R,0,173143,,4.138017 C,0,173143,,255,149,20
Sprite,Background,Centre,"sb\p\d.png",0,0 L,173164,42 F,1,0,203,0,1 M,0,0,1019,636.1713,306.9052,441.1185,-260.5051 F,2,815,1019,1,0 S,0,173164,,0.05 R,0,173164,,4.381284 C,0,173164,,255,149,20
Sprite,Background,Centre,"sb\p\d.png",0,0 L,173186,42 F,1,0,203,0,1 M,0,0,1019,596.5984,372.9005,317.6798,-158.3287 F,2,815,1019,1,0 S,0,173186,,0.05 R,0,173186,,4.228908 C,0,173186,,255,149,20
Sprite,Background,Centre,"sb\p\d.png",0,0 L,173207,42 F,1,0,203,0,1 M,0,0,1019,765.926,207.8846,328.7471,-203.0589 F,2,815,1019,1,0 S,0,173207,,0.05 R,0,173207,,3.896067 C,0,173207,,255,149,20
Sprite,Background,Centre,"sb\p\d.png",0,0 L,173228,42 F,1,0,203,0,1 M,0,0,1019,231.3376,272.8589,-151.1608,-189.4127 F,2,815,1019,1,0 S,0,173228,,0.05 R,0,173228,,4.021143 C,0,173228,,255,149,20
Sprite,Background,Centre,"sb\p\d.png",0,0 L,173249,42 F,1,0,203,0,1 M,0,0,1019,335.7313,283.0567,-144.499,-76.63596 F,2,815,1019,1,0 S,0,173249,,0.05 R,0,173249,,3.784454 C,0,173249,,255,149,20
Sprite,Background,Centre,"sb\p\d.png",0,0 L,173271,42 F,1,0,203,0,1 M,0,0,1019,88.89749,308.1593,-239.7328,-193.8388 F,2,815,1019,1,0 S,0,173271,,0.05 R,0,173271,,4.132756 C,0,173271,,255,149,20
Sprite,Background,Centre,"sb\p\d.png",0,0 L,173292,42 F,1,0,203,0,1 M,0,0,1019,666.0845,488.8076,235.3002,71.16541 F,2,815,1019,1,0 S,0,173292,,0.05 R,0,173292,,3.911502 C,0,173292,,255,149,20
Sprite,Background,Centre,"sb\p\d.png",0,0 L,173313,42 F,1,0,203,0,1 M,0,0,1019,538.9158,247.1083,257.0401,-282.5577 F,2,815,1019,1,0 S,0,173313,,0.05 R,0,173313,,4.223333 C,0,173313,,255,149,20
//Storyboard Layer 1 (Fail)
//Storyboard Layer 2 (Pass)
//Storyboard Layer 3 (Foreground)
Sprite,Foreground,Centre,"sb\p\ring.png",576,296 F,2,2648,3148,0.4,0 S,19,2648,3148,0.4,0.8 P,0,2648,4147,A
Sprite,Foreground,Centre,"sb\p\ring.png",490,304 F,2,3815,4315,0.4,0 S,19,3815,4315,0.4,0.8 P,0,3815,4315,A
Sprite,Foreground,Centre,"sb\p\ring.png",331,258 F,2,3981,4481,0.4,0 S,19,3981,4481,0.4,0.8 P,0,3981,4481,A
Sprite,Foreground,Centre,"sb\p\ring.png",366,414 F,2,4148,4648,0.4,0 S,19,4148,4648,0.4,0.8 P,0,4148,4648,A
Sprite,Foreground,Centre,"sb\p\ring.png",259,303 F,2,4315,4815,0.4,0 S,19,4315,4815,0.4,0.8 P,0,4315,5064,A
Sprite,Foreground,Centre,"sb\p\ring.png",262,207 F,2,4648,5148,0.4,0 S,19,4648,5148,0.4,0.8 P,0,4648,5314,A
Sprite,Foreground,Centre,"sb\p\ring.png",234,72 F,2,4981,5481,0.4,0 S,19,4981,5481,0.4,0.8 P,0,4981,5481,A
Sprite,Foreground,Centre,"sb\p\ring.png",104,140 F,2,5148,5648,0.4,0 S,19,5148,5648,0.4,0.8 P,0,5148,5981,A
Sprite,Foreground,Centre,"sb\p\ring.png",208,328 F,2,5648,6148,0.4,0 S,19,5648,6148,0.4,0.8 P,0,5648,6814,A
Sprite,Foreground,Centre,"sb\p\ring.png",131,365 F,2,6481,6981,0.4,0 S,19,6481,6981,0.4,0.8 P,0,6481,6981,A
Sprite,Foreground,Centre,"sb\p\ring.png",272,264 F,2,6648,7148,0.4,0 S,19,6648,7148,0.4,0.8 P,0,6648,7148,A
Sprite,Foreground,Centre,"sb\p\ring.png",216,424 F,2,6815,7315,0.4,0 S,19,6815,7315,0.4,0.8 P,0,6815,7315,A
Sprite,Foreground,Centre,"sb\p\ring.png",352,304 F,2,6982,7482,0.4,0 S,19,6982,7482,0.4,0.8 P,0,6982,7648,A
Sprite,Foreground,Centre,"sb\p\ring.png",536,360 F,2,7315,7815,0.4,0 S,19,7315,7815,0.4,0.8 P,0,7315,7981,A
Sprite,Foreground,Centre,"sb\p\ring.png",352,408 F,2,7648,8148,0.4,0 S,19,7648,8148,0.4,0.8 P,0,7648,8148,A
Sprite,Foreground,Centre,"sb\p\ring.png",343,214 F,2,7815,8315,0.4,0 S,19,7815,8315,0.4,0.8 P,0,7815,8981,A
Sprite,Foreground,Centre,"sb\p\ring.png",496,88 F,2,8648,9148,0.4,0 S,19,8648,9148,0.4,0.8 P,0,8648,9481,A
Sprite,Foreground,Centre,"sb\p\ring.png",514,171 F,2,9148,9648,0.4,0 S,19,9148,9648,0.4,0.8 P,0,9148,9648,A
Sprite,Foreground,Centre,"sb\p\ring.png",382,68 F,2,9315,9815,0.4,0 S,19,9315,9815,0.4,0.8 P,0,9315,9815,A
Sprite,Foreground,Centre,"sb\p\ring.png",456,264 F,2,9481,9981,0.4,0 S,19,9481,9981,0.4,0.8 P,0,9481,9981,A
Sprite,Foreground,Centre,"sb\p\ring.png",329,131 F,2,9648,10148,0.4,0 S,19,9648,10148,0.4,0.8 P,0,9648,10397,A
Sprite,Foreground,Centre,"sb\p\ring.png",234,150 F,2,9981,10481,0.4,0 S,19,9981,10481,0.4,0.8 P,0,9981,10647,A
Sprite,Foreground,Centre,"sb\p\ring.png",91,234 F,2,10315,10815,0.4,0 S,19,10315,10815,0.4,0.8 P,0,10315,10815,A
Sprite,Foreground,Centre,"sb\p\ring.png",64,152 F,2,10481,10981,0.4,0 S,19,10481,10981,0.4,0.8 P,0,10481,11314,A
Sprite,Foreground,Centre,"sb\p\ring.png",273,323 F,2,10981,11481,0.4,0 S,19,10981,11481,0.4,0.8 P,0,10981,11481,A
Sprite,Foreground,Centre,"sb\p\ring.png",299,241 F,2,11147,11647,0.4,0 S,19,11147,11647,0.4,0.8 P,0,11147,11980,A
Sprite,Foreground,Centre,"sb\p\ring.png",90,412 F,2,11648,12148,0.4,0 S,19,11648,12148,0.4,0.8 P,0,11648,12148,A
Sprite,Foreground,Centre,"sb\p\ring.png",173,428 F,2,11815,12315,0.4,0 S,19,11815,12315,0.4,0.8 P,0,11815,12814,A
Sprite,Foreground,Centre,"sb\p\ring.png",90,412 F,2,12481,12981,0.4,0 S,19,12481,12981,0.4,0.8 P,0,12481,13647,A
Sprite,Foreground,Centre,"sb\p\ring.png",397,412 F,2,13315,13815,0.4,0 S,19,13315,13815,0.4,0.8 P,0,13315,14814,A
Sprite,Foreground,Centre,"sb\p\ring.png",453,252 F,2,14481,14981,0.4,0 S,19,14481,14981,0.4,0.8 P,0,14481,14981,A
Sprite,Foreground,Centre,"sb\p\ring.png",240,280 F,2,14648,15148,0.4,0 S,19,14648,15148,0.4,0.8 P,0,14648,15148,A
Sprite,Foreground,Centre,"sb\p\ring.png",328,136 F,2,14815,15315,0.4,0 S,19,14815,15315,0.4,0.8 P,0,14815,15315,A
Sprite,Foreground,Centre,"sb\p\ring.png",168,168 F,2,14981,15481,0.4,0 S,19,14981,15481,0.4,0.8 P,0,14981,15730,A
Sprite,Foreground,Centre,"sb\p\ring.png",158,271 F,2,15315,15815,0.4,0 S,19,15315,15815,0.4,0.8 P,0,15315,15981,A
Sprite,Foreground,Centre,"sb\p\ring.png",146,415 F,2,15648,16148,0.4,0 S,19,15648,16148,0.4,0.8 P,0,15648,16148,A
Sprite,Foreground,Centre,"sb\p\ring.png",320,296 F,2,15815,16315,0.4,0 S,19,15815,16315,0.4,0.8 P,0,15815,16648,A
Sprite,Foreground,Centre,"sb\p\ring.png",488,424 F,2,16315,16815,0.4,0 S,19,16315,16815,0.4,0.8 P,0,16315,17648,A
Sprite,Foreground,Centre,"sb\p\ring.png",346,378 F,2,17315,17815,0.4,0 S,19,17315,17815,0.4,0.8 P,0,17315,17815,A
Sprite,Foreground,Centre,"sb\p\ring.png",387,216 F,2,17481,17981,0.4,0 S,19,17481,17981,0.4,0.8 P,0,17481,17981,A
Sprite,Foreground,Centre,"sb\p\ring.png",262,392 F,2,17648,18148,0.4,0 S,19,17648,18148,0.4,0.8 P,0,17648,18397,A
Sprite,Foreground,Centre,"sb\p\ring.png",206,312 F,2,17981,18481,0.4,0 S,19,17981,18481,0.4,0.8 P,0,17981,18647,A
Sprite,Foreground,Centre,"sb\p\ring.png",292,311 F,2,18315,18815,0.4,0 S,19,18315,18815,0.4,0.8 P,0,18315,18815,A
Sprite,Foreground,Centre,"sb\p\ring.png",136,250 F,2,18481,18981,0.4,0 S,19,18481,18981,0.4,0.8 P,0,18481,19647,A
Sprite,Foreground,Centre,"sb\p\ring.png",282,196 F,2,19315,19815,0.4,0 S,19,19315,19815,0.4,0.8 P,0,19315,20148,A
Sprite,Foreground,Centre,"sb\p\ring.png",344,138 F,2,19815,20315,0.4,0 S,19,19815,20315,0.4,0.8 P,0,19815,20315,A
Sprite,Foreground,Centre,"sb\p\ring.png",136,250 F,2,19981,20481,0.4,0 S,19,19981,20481,0.4,0.8 P,0,19981,20481,A
Sprite,Foreground,Centre,"sb\p\ring.png",319,280 F,2,20148,20648,0.4,0 S,19,20148,20648,0.4,0.8 P,0,20148,20648,A
Sprite,Foreground,Centre,"sb\p\ring.png",178,176 F,2,20315,20815,0.4,0 S,19,20315,20815,0.4,0.8 P,0,20315,20815,A
Sprite,Foreground,Centre,"sb\p\ring.png",256,360 F,2,20481,20981,0.4,0 S,19,20481,20981,0.4,0.8 P,0,20481,20981,A
Sprite,Foreground,Centre,"sb\p\ring.png",392,216 F,2,20648,21148,0.4,0 S,19,20648,21148,0.4,0.8 P,0,20648,21397,A
Sprite,Foreground,Centre,"sb\p\ring.png",488,200 F,2,20981,21481,0.4,0 S,19,20981,21481,0.4,0.8 P,0,20981,21481,A
Sprite,Foreground,Centre,"sb\p\ring.png",569,227 F,2,21148,21648,0.4,0 S,19,21148,21648,0.4,0.8 P,0,21148,21981,A
Sprite,Foreground,Centre,"sb\p\ring.png",420,304 F,2,21648,22148,0.4,0 S,19,21648,22148,0.4,0.8 P,0,21648,22148,A
Sprite,Foreground,Centre,"sb\p\ring.png",503,286 F,2,21815,22315,0.4,0 S,19,21815,22315,0.4,0.8 P,0,21815,22648,A
Sprite,Foreground,Centre,"sb\p\ring.png",413,428 F,2,22315,22815,0.4,0 S,19,22315,22815,0.4,0.8 P,0,22315,22815,A
Sprite,Foreground,Centre,"sb\p\ring.png",475,370 F,2,22481,22981,0.4,0 S,19,22481,22981,0.4,0.8 P,0,22481,23480,A
Sprite,Foreground,Centre,"sb\p\ring.png",413,428 F,2,23148,23648,0.4,0 S,19,23148,23648,0.4,0.8 P,0,23148,24314,A
Sprite,Foreground,Centre,"sb\p\ring.png",119,322 F,2,23981,24481,0.4,0 S,19,23981,24481,0.4,0.8 P,0,23981,24981,A
Sprite,Foreground,Centre,"sb\p\ring.png",294,354 F,2,24648,25148,0.4,0 S,19,24648,25148,0.4,0.8 P,0,24648,25481,A
Sprite,Foreground,Centre,"sb\p\ring.png",328,216 F,2,25148,25648,0.4,0 S,19,25148,25648,0.4,0.8 P,0,25148,25981,A
Sprite,Foreground,Centre,"sb\p\ring.png",224,400 F,2,25648,26148,0.4,0 S,19,25648,26148,0.4,0.8 P,0,25648,26148,A
Sprite,Foreground,Centre,"sb\p\ring.png",378,372 F,2,25815,26315,0.4,0 S,19,25815,26315,0.4,0.8 P,0,25815,26315,A
Sprite,Foreground,Centre,"sb\p\ring.png",208,200 F,2,25981,26481,0.4,0 S,19,25981,26481,0.4,0.8 P,0,25981,26647,A
Sprite,Foreground,Centre,"sb\p\ring.png",320,136 F,2,26315,26815,0.4,0 S,19,26315,26815,0.4,0.8 P,0,26315,26981,A
Sprite,Foreground,Centre,"sb\p\ring.png",467,78 F,2,26648,27148,0.4,0 S,19,26648,27148,0.4,0.8 P,0,26648,27648,A
Sprite,Foreground,Centre,"sb\p\ring.png",463,241 F,2,27315,27815,0.4,0 S,19,27315,27815,0.4,0.8 P,0,27315,28148,A
Sprite,Foreground,Centre,"sb\p\ring.png",325,275 F,2,27815,28315,0.4,0 S,19,27815,28315,0.4,0.8 P,0,27815,28648,A
Sprite,Foreground,Centre,"sb\p\ring.png",538,206 F,2,28315,28815,0.4,0 S,19,28315,28815,0.4,0.8 P,0,28315,28815,A
Sprite,Foreground,Centre,"sb\p\ring.png",451,369 F,2,28481,28981,0.4,0 S,19,28481,28981,0.4,0.8 P,0,28481,28981,A
Sprite,Foreground,Centre,"sb\p\ring.png",554,305 F,2,28648,29148,0.4,0 S,19,28648,29148,0.4,0.8 P,0,28648,29148,A
Sprite,Foreground,Centre,"sb\p\ring.png",368,382 F,2,28815,29315,0.4,0 S,19,28815,29315,0.4,0.8 P,0,28815,29315,A
Sprite,Foreground,Centre,"sb\p\ring.png",535,399 F,2,28981,29481,0.4,0 S,19,28981,29481,0.4,0.8 P,0,28981,29647,A
Sprite,Foreground,Centre,"sb\p\ring.png",281,410 F,2,29315,29815,0.4,0 S,19,29315,29815,0.4,0.8 P,0,29315,30315,A
Sprite,Foreground,Centre,"sb\p\ring.png",301,284 F,2,29981,30481,0.4,0 S,19,29981,30481,0.4,0.8 P,0,29981,30647,A
Sprite,Foreground,Centre,"sb\p\ring.png",152,408 F,2,30315,30815,0.4,0 S,19,30315,30815,0.4,0.8 P,0,30315,30815,A
Sprite,Foreground,Centre,"sb\p\ring.png",237,231 F,2,30481,30981,0.4,0 S,19,30481,30981,0.4,0.8 P,0,30481,31314,A
Sprite,Foreground,Centre,"sb\p\ring.png",144,104 F,2,30981,31481,0.4,0 S,19,30981,31481,0.4,0.8 P,0,30981,31481,A
Sprite,Foreground,Centre,"sb\p\ring.png",320,200 F,2,31148,31648,0.4,0 S,19,31148,31648,0.4,0.8 P,0,31148,31648,A
Sprite,Foreground,Centre,"sb\p\ring.png",104,240 F,2,31315,31815,0.4,0 S,19,31315,31815,0.4,0.8 P,0,31315,31981,A
Sprite,Foreground,Centre,"sb\p\ring.png",168,296 F,2,31648,32148,0.4,0 S,19,31648,32148,0.4,0.8 P,0,31648,32314,A
Sprite,Foreground,Centre,"sb\p\ring.png",160,408 F,2,31981,32481,0.4,0 S,19,31981,32481,0.4,0.8 P,0,31981,33147,A
Sprite,Foreground,Centre,"sb\p\ring.png",245,404 F,2,32815,33315,0.4,0 S,19,32815,33315,0.4,0.8 P,0,32815,33315,A
Sprite,Foreground,Centre,"sb\p\ring.png",360,248 F,2,32981,33481,0.4,0 S,19,32981,33481,0.4,0.8 P,0,32981,33481,A
Sprite,Foreground,Centre,"sb\p\ring.png",448,360 F,2,33148,33648,0.4,0 S,19,33148,33648,0.4,0.8 P,0,33148,33648,A
Sprite,Foreground,Centre,"sb\p\ring.png",432,203 F,2,33315,33815,0.4,0 S,19,33315,33815,0.4,0.8 P,0,33315,34148,A
Sprite,Foreground,Centre,"sb\p\ring.png",289,202 F,2,33815,34315,0.4,0 S,19,33815,34315,0.4,0.8 P,0,33815,34315,A
Sprite,Foreground,Centre,"sb\p\ring.png",352,80 F,2,33981,34481,0.4,0 S,19,33981,34481,0.4,0.8 P,0,33981,34481,A
Sprite,Foreground,Centre,"sb\p\ring.png",285,285 F,2,34148,34648,0.4,0 S,19,34148,34648,0.4,0.8 P,0,34148,34648,A
Sprite,Foreground,Centre,"sb\p\ring.png",160,128 F,2,34315,34815,0.4,0 S,19,34315,34815,0.4,0.8 P,0,34315,34981,A
Sprite,Foreground,Centre,"sb\p\ring.png",204,209 F,2,34648,35148,0.4,0 S,19,34648,35148,0.4,0.8 P,0,34648,35648,A
Sprite,Foreground,Centre,"sb\p\ring.png",87,260 F,2,35314,35814,0.4,0 S,19,35314,35814,0.4,0.8 P,0,35314,35980,A
Sprite,Foreground,Centre,"sb\p\ring.png",245,124 F,2,35648,36148,0.4,0 S,19,35648,36148,0.4,0.8 P,0,35648,36148,A
Sprite,Foreground,Centre,"sb\p\ring.png",160,327 F,2,35815,36315,0.4,0 S,19,35815,36315,0.4,0.8 P,0,35815,36648,A
Sprite,Foreground,Centre,"sb\p\ring.png",280,424 F,2,36315,36815,0.4,0 S,19,36315,36815,0.4,0.8 P,0,36315,36815,A
Sprite,Foreground,Centre,"sb\p\ring.png",208,248 F,2,36481,36981,0.4,0 S,19,36481,36981,0.4,0.8 P,0,36481,36981,A
Sprite,Foreground,Centre,"sb\p\ring.png",328,352 F,2,36648,37148,0.4,0 S,19,36648,37148,0.4,0.8 P,0,36648,37314,A
Sprite,Foreground,Centre,"sb\p\ring.png",440,296 F,2,36981,37481,0.4,0 S,19,36981,37481,0.4,0.8 P,0,36981,37647,A
Sprite,Foreground,Centre,"sb\p\ring.png",563,377 F,2,37315,37815,0.4,0 S,19,37315,37815,0.4,0.8 P,0,37315,38315,A
Sprite,Foreground,Centre,"sb\p\ring.png",572,149 F,2,37981,38481,0.4,0 S,19,37981,38481,0.4,0.8 P,0,37981,38647,A
Sprite,Foreground,Centre,"sb\p\ring.png",440,296 F,2,38315,38815,0.4,0 S,19,38315,38815,0.4,0.8 P,0,38315,38815,A
Sprite,Foreground,Centre,"sb\p\ring.png",489,142 F,2,38481,38981,0.4,0 S,19,38481,38981,0.4,0.8 P,0,38481,39314,A
Sprite,Foreground,Centre,"sb\p\ring.png",312,192 F,2,38981,39481,0.4,0 S,19,38981,39481,0.4,0.8 P,0,38981,39481,A
Sprite,Foreground,Centre,"sb\p\ring.png",436,215 F,2,39148,39648,0.4,0 S,19,39148,39648,0.4,0.8 P,0,39148,39648,A
Sprite,Foreground,Centre,"sb\p\ring.png",344,110 F,2,39315,39815,0.4,0 S,19,39315,39815,0.4,0.8 P,0,39315,39815,A
Sprite,Foreground,Centre,"sb\p\ring.png",224,280 F,2,39481,39981,0.4,0 S,19,39481,39981,0.4,0.8 P,0,39481,39981,A
Sprite,Foreground,Centre,"sb\p\ring.png",261,122 F,2,39648,40148,0.4,0 S,19,39648,40148,0.4,0.8 P,0,39648,40314,A
Sprite,Foreground,Centre,"sb\p\ring.png",121,333 F,2,39981,40481,0.4,0 S,19,39981,40481,0.4,0.8 P,0,39981,40981,A
Sprite,Foreground,Centre,"sb\p\ring.png",296,240 F,2,40648,41148,0.4,0 S,19,40648,41148,0.4,0.8 P,0,40648,41481,A
Sprite,Foreground,Centre,"sb\p\ring.png",305,381 F,2,41148,41648,0.4,0 S,19,41148,41648,0.4,0.8 P,0,41148,41981,A
Sprite,Foreground,Centre,"sb\p\ring.png",192,232 F,2,41648,42148,0.4,0 S,19,41648,42148,0.4,0.8 P,0,41648,42148,A
Sprite,Foreground,Centre,"sb\p\ring.png",222,385 F,2,41815,42315,0.4,0 S,19,41815,42315,0.4,0.8 P,0,41815,42315,A
Sprite,Foreground,Centre,"sb\p\ring.png",424,320 F,2,41981,42481,0.4,0 S,19,41981,42481,0.4,0.8 P,0,41981,42647,A
Sprite,Foreground,Centre,"sb\p\ring.png",392,203 F,2,42315,42815,0.4,0 S,19,42315,42815,0.4,0.8 P,0,42315,42981,A
Sprite,Foreground,Centre,"sb\p\ring.png",496,136 F,2,42648,43148,0.4,0 S,19,42648,43148,0.4,0.8 P,0,42648,43814,A
Sprite,Foreground,Centre,"sb\p\ring.png",451,61 F,2,43482,43982,0.4,0 S,19,43482,43982,0.4,0.8 P,0,43482,43982,A
Sprite,Foreground,Centre,"sb\p\ring.png",336,184 F,2,43648,44148,0.4,0 S,19,43648,44148,0.4,0.8 P,0,43648,44148,A
Sprite,Foreground,Centre,"sb\p\ring.png",264,88 F,2,43815,44315,0.4,0 S,19,43815,44315,0.4,0.8 P,0,43815,44315,A
Sprite,Foreground,Centre,"sb\p\ring.png",184,216 F,2,43981,44481,0.4,0 S,19,43981,44481,0.4,0.8 P,0,43981,44814,A
Sprite,Foreground,Centre,"sb\p\ring.png",208,368 F,2,44481,44981,0.4,0 S,19,44481,44981,0.4,0.8 P,0,44481,44981,A
Sprite,Foreground,Centre,"sb\p\ring.png",88,240 F,2,44648,45148,0.4,0 S,19,44648,45148,0.4,0.8 P,0,44648,45148,A
Sprite,Foreground,Centre,"sb\p\ring.png",128,408 F,2,44815,45315,0.4,0 S,19,44815,45315,0.4,0.8 P,0,44815,45315,A
Sprite,Foreground,Centre,"sb\p\ring.png",276,317 F,2,44981,45481,0.4,0 S,19,44981,45481,0.4,0.8 P,0,44981,45647,A
Sprite,Foreground,Centre,"sb\p\ring.png",472,272 F,2,109315,109815,0.4,0 S,19,109315,109815,0.4,0.8 P,0,109315,109981,A
Sprite,Foreground,Centre,"sb\p\ring.png",400,160 F,2,109648,110148,0.4,0 S,19,109648,110148,0.4,0.8 P,0,109648,110481,A
Sprite,Foreground,Centre,"sb\p\ring.png",556,247 F,2,110148,110648,0.4,0 S,19,110148,110648,0.4,0.8 P,0,110148,110648,A
Sprite,Foreground,Centre,"sb\p\ring.png",392,262 F,2,110315,110815,0.4,0 S,19,110315,110815,0.4,0.8 P,0,110315,110815,A
Sprite,Foreground,Centre,"sb\p\ring.png",349,93 F,2,110481,110981,0.4,0 S,19,110481,110981,0.4,0.8 P,0,110481,110981,A
Sprite,Foreground,Centre,"sb\p\ring.png",320,191 F,2,110648,111148,0.4,0 S,19,110648,111148,0.4,0.8 P,0,110648,111148,A
Sprite,Foreground,Centre,"sb\p\ring.png",320,191 F,2,110815,111315,0.4,0 S,19,110815,111315,0.4,0.8 P,0,110815,111315,A
Sprite,Foreground,Centre,"sb\p\ring.png",264,112 F,2,110981,111481,0.4,0 S,19,110981,111481,0.4,0.8 P,0,110981,111730,A
Sprite,Foreground,Centre,"sb\p\ring.png",161,135 F,2,111315,111815,0.4,0 S,19,111315,111815,0.4,0.8 P,0,111315,111815,A
Sprite,Foreground,Centre,"sb\p\ring.png",224,264 F,2,111481,111981,0.4,0 S,19,111481,111981,0.4,0.8 P,0,111481,111981,A
Sprite,Foreground,Centre,"sb\p\ring.png",80,216 F,2,111648,112148,0.4,0 S,19,111648,112148,0.4,0.8 P,0,111648,112148,A
Sprite,Foreground,Centre,"sb\p\ring.png",138,278 F,2,111815,112315,0.4,0 S,19,111815,112315,0.4,0.8 P,0,111815,112648,A
Sprite,Foreground,Centre,"sb\p\ring.png",64,360 F,2,112315,112815,0.4,0 S,19,112315,112815,0.4,0.8 P,0,112315,113148,A
Sprite,Foreground,Centre,"sb\p\ring.png",232,384 F,2,112815,113315,0.4,0 S,19,112815,113315,0.4,0.8 P,0,112815,113315,A
Sprite,Foreground,Centre,"sb\p\ring.png",224,264 F,2,112981,113481,0.4,0 S,19,112981,113481,0.4,0.8 P,0,112981,113481,A
Sprite,Foreground,Centre,"sb\p\ring.png",145,336 F,2,113148,113648,0.4,0 S,19,113148,113648,0.4,0.8 P,0,113148,113648,A
Sprite,Foreground,Centre,"sb\p\ring.png",368,416 F,2,113315,113815,0.4,0 S,19,113315,113815,0.4,0.8 P,0,113315,113815,A
Sprite,Foreground,Centre,"sb\p\ring.png",368,416 F,2,113481,113981,0.4,0 S,19,113481,113981,0.4,0.8 P,0,113481,113981,A
Sprite,Foreground,Centre,"sb\p\ring.png",456,416 F,2,113648,114148,0.4,0 S,19,113648,114148,0.4,0.8 P,0,113648,114397,A
Sprite,Foreground,Centre,"sb\p\ring.png",473,314 F,2,113981,114481,0.4,0 S,19,113981,114481,0.4,0.8 P,0,113981,114481,A
Sprite,Foreground,Centre,"sb\p\ring.png",368,416 F,2,114148,114648,0.4,0 S,19,114148,114648,0.4,0.8 P,0,114148,114648,A
Sprite,Foreground,Centre,"sb\p\ring.png",560,344 F,2,114315,114815,0.4,0 S,19,114315,114815,0.4,0.8 P,0,114315,114815,A
Sprite,Foreground,Centre,"sb\p\ring.png",429,239 F,2,114481,114981,0.4,0 S,19,114481,114981,0.4,0.8 P,0,114481,114981,A
Sprite,Foreground,Centre,"sb\p\ring.png",576,144 F,2,114648,115148,0.4,0 S,19,114648,115148,0.4,0.8 P,0,114648,115314,A
Sprite,Foreground,Centre,"sb\p\ring.png",440,80 F,2,114981,115481,0.4,0 S,19,114981,115481,0.4,0.8 P,0,114981,115814,A
Sprite,Foreground,Centre,"sb\p\ring.png",404,157 F,2,115481,115981,0.4,0 S,19,115481,115981,0.4,0.8 P,0,115481,115981,A
Sprite,Foreground,Centre,"sb\p\ring.png",544,248 F,2,115648,116148,0.4,0 S,19,115648,116148,0.4,0.8 P,0,115648,116148,A
Sprite,Foreground,Centre,"sb\p\ring.png",344,264 F,2,115815,116315,0.4,0 S,19,115815,116315,0.4,0.8 P,0,115815,116315,A
Sprite,Foreground,Centre,"sb\p\ring.png",352,88 F,2,115981,116481,0.4,0 S,19,115981,116481,0.4,0.8 P,0,115981,116481,A
Sprite,Foreground,Centre,"sb\p\ring.png",286,196 F,2,116148,116648,0.4,0 S,19,116148,116648,0.4,0.8 P,0,116148,116648,A
Sprite,Foreground,Centre,"sb\p\ring.png",264,80 F,2,116315,116815,0.4,0 S,19,116315,116815,0.4,0.8 P,0,116315,116815,A
Sprite,Foreground,Centre,"sb\p\ring.png",344,264 F,2,116481,116981,0.4,0 S,19,116481,116981,0.4,0.8 P,0,116481,116981,A
Sprite,Foreground,Centre,"sb\p\ring.png",208,152 F,2,116648,117148,0.4,0 S,19,116648,117148,0.4,0.8 P,0,116648,117314,A
Sprite,Foreground,Centre,"sb\p\ring.png",64,164 F,2,116981,117481,0.4,0 S,19,116981,117481,0.4,0.8 P,0,116981,117481,A
Sprite,Foreground,Centre,"sb\p\ring.png",129,290 F,2,117148,117648,0.4,0 S,19,117148,117648,0.4,0.8 P,0,117148,117981,A
Sprite,Foreground,Centre,"sb\p\ring.png",89,364 F,2,117648,118148,0.4,0 S,19,117648,118148,0.4,0.8 P,0,117648,118148,A
Sprite,Foreground,Centre,"sb\p\ring.png",245,331 F,2,117815,118315,0.4,0 S,19,117815,118315,0.4,0.8 P,0,117815,118648,A
Sprite,Foreground,Centre,"sb\p\ring.png",172,378 F,2,118315,118815,0.4,0 S,19,118315,118815,0.4,0.8 P,0,118315,118815,A
Sprite,Foreground,Centre,"sb\p\ring.png",324,427 F,2,118481,118981,0.4,0 S,19,118481,118981,0.4,0.8 P,0,118481,119314,A
Sprite,Foreground,Centre,"sb\p\ring.png",238,431 F,2,118981,119481,0.4,0 S,19,118981,119481,0.4,0.8 P,0,118981,119481,A
Sprite,Foreground,Centre,"sb\p\ring.png",344,300 F,2,119148,119648,0.4,0 S,19,119148,119648,0.4,0.8 P,0,119148,119897,A
Sprite,Foreground,Centre,"sb\p\ring.png",437,336 F,2,119481,119981,0.4,0 S,19,119481,119981,0.4,0.8 P,0,119481,119981,A
Sprite,Foreground,Centre,"sb\p\ring.png",376,216 F,2,119648,120148,0.4,0 S,19,119648,120148,0.4,0.8 P,0,119648,120148,A
Sprite,Foreground,Centre,"sb\p\ring.png",514,374 F,2,119815,120315,0.4,0 S,19,119815,120315,0.4,0.8 P,0,119815,120398,A
Sprite,Foreground,Centre,"sb\p\ring.png",520,360 F,2,119981,120481,0.4,0 S,19,119981,120481,0.4,0.8 P,0,119981,120647,A
Sprite,Foreground,Centre,"sb\p\ring.png",461,234 F,2,120315,120815,0.4,0 S,19,120315,120815,0.4,0.8 P,0,120315,121148,A
Sprite,Foreground,Centre,"sb\p\ring.png",530,185 F,2,120815,121315,0.4,0 S,19,120815,121315,0.4,0.8 P,0,120815,121315,A
Sprite,Foreground,Centre,"sb\p\ring.png",437,336 F,2,120981,121481,0.4,0 S,19,120981,121481,0.4,0.8 P,0,120981,121481,A
Sprite,Foreground,Centre,"sb\p\ring.png",566,261 F,2,121148,121648,0.4,0 S,19,121148,121648,0.4,0.8 P,0,121148,121648,A
Sprite,Foreground,Centre,"sb\p\ring.png",373,207 F,2,121315,121815,0.4,0 S,19,121315,121815,0.4,0.8 P,0,121315,121815,A
Sprite,Foreground,Centre,"sb\p\ring.png",373,207 F,2,121481,121981,0.4,0 S,19,121481,121981,0.4,0.8 P,0,121481,121981,A
Sprite,Foreground,Centre,"sb\p\ring.png",320,280 F,2,121648,122148,0.4,0 S,19,121648,122148,0.4,0.8 P,0,121648,122397,A
Sprite,Foreground,Centre,"sb\p\ring.png",351,379 F,2,121981,122481,0.4,0 S,19,121981,122481,0.4,0.8 P,0,121981,122481,A
Sprite,Foreground,Centre,"sb\p\ring.png",168,296 F,2,122148,122648,0.4,0 S,19,122148,122648,0.4,0.8 P,0,122148,122648,A
Sprite,Foreground,Centre,"sb\p\ring.png",230,229 F,2,122315,122815,0.4,0 S,19,122315,122815,0.4,0.8 P,0,122315,122815,A
Sprite,Foreground,Centre,"sb\p\ring.png",146,378 F,2,122481,122981,0.4,0 S,19,122481,122981,0.4,0.8 P,0,122481,123314,A
Sprite,Foreground,Centre,"sb\p\ring.png",229,384 F,2,122981,123481,0.4,0 S,19,122981,123481,0.4,0.8 P,0,122981,123814,A
Sprite,Foreground,Centre,"sb\p\ring.png",83,300 F,2,123481,123981,0.4,0 S,19,123481,123981,0.4,0.8 P,0,123481,123981,A
Sprite,Foreground,Centre,"sb\p\ring.png",230,229 F,2,123648,124148,0.4,0 S,19,123648,124148,0.4,0.8 P,0,123648,124314,A
Sprite,Foreground,Centre,"sb\p\ring.png",291,288 F,2,123981,124481,0.4,0 S,19,123981,124481,0.4,0.8 P,0,123981,124481,A
Sprite,Foreground,Centre,"sb\p\ring.png",153,195 F,2,124148,124648,0.4,0 S,19,124148,124648,0.4,0.8 P,0,124148,124648,A
Sprite,Foreground,Centre,"sb\p\ring.png",354,231 F,2,124315,124815,0.4,0 S,19,124315,124815,0.4,0.8 P,0,124315,125064,A
Sprite,Foreground,Centre,"sb\p\ring.png",442,271 F,2,124648,125148,0.4,0 S,19,124648,125148,0.4,0.8 P,0,124648,125148,A
Sprite,Foreground,Centre,"sb\p\ring.png",466,159 F,2,124815,125315,0.4,0 S,19,124815,125315,0.4,0.8 P,0,124815,125315,A
Sprite,Foreground,Centre,"sb\p\ring.png",368,316 F,2,124982,125482,0.4,0 S,19,124982,125482,0.4,0.8 P,0,124982,125482,A
Sprite,Foreground,Centre,"sb\p\ring.png",528,288 F,2,125148,125648,0.4,0 S,19,125148,125648,0.4,0.8 P,0,125148,125648,A
Sprite,Foreground,Centre,"sb\p\ring.png",374,406 F,2,125315,125815,0.4,0 S,19,125315,125815,0.4,0.8 P,0,125315,125981,A
Sprite,Foreground,Centre,"sb\p\ring.png",215,426 F,2,125648,126148,0.4,0 S,19,125648,126148,0.4,0.8 P,0,125648,126481,A
Sprite,Foreground,Centre,"sb\p\ring.png",200,341 F,2,126148,126648,0.4,0 S,19,126148,126648,0.4,0.8 P,0,126148,126648,A
Sprite,Foreground,Centre,"sb\p\ring.png",368,316 F,2,126315,126815,0.4,0 S,19,126315,126815,0.4,0.8 P,0,126315,126815,A
Sprite,Foreground,Centre,"sb\p\ring.png",216,256 F,2,126481,126981,0.4,0 S,19,126481,126981,0.4,0.8 P,0,126481,126981,A
Sprite,Foreground,Centre,"sb\p\ring.png",324,243 F,2,126648,127148,0.4,0 S,19,126648,127148,0.4,0.8 P,0,126648,127148,A
Sprite,Foreground,Centre,"sb\p\ring.png",374,406 F,2,126815,127315,0.4,0 S,19,126815,127315,0.4,0.8 P,0,126815,127315,A
Sprite,Foreground,Centre,"sb\p\ring.png",448,280 F,2,126981,127481,0.4,0 S,19,126981,127481,0.4,0.8 P,0,126981,127481,A
Sprite,Foreground,Centre,"sb\p\ring.png",285,341 F,2,127148,127648,0.4,0 S,19,127148,127648,0.4,0.8 P,0,127148,127648,A
Sprite,Foreground,Centre,"sb\p\ring.png",460,416 F,2,127315,127815,0.4,0 S,19,127315,127815,0.4,0.8 P,0,127315,127981,A
Sprite,Foreground,Centre,"sb\p\ring.png",448,280 F,2,127648,128148,0.4,0 S,19,127648,128148,0.4,0.8 P,0,127648,128148,A
Sprite,Foreground,Centre,"sb\p\ring.png",285,341 F,2,127815,128315,0.4,0 S,19,127815,128315,0.4,0.8 P,0,127815,128648,A
Sprite,Foreground,Centre,"sb\p\ring.png",368,316 F,2,128315,128815,0.4,0 S,19,128315,128815,0.4,0.8 P,0,128315,128815,A
Sprite,Foreground,Centre,"sb\p\ring.png",240,224 F,2,128481,128981,0.4,0 S,19,128481,128981,0.4,0.8 P,0,128481,129314,A
Sprite,Foreground,Centre,"sb\p\ring.png",324,243 F,2,128981,129481,0.4,0 S,19,128981,129481,0.4,0.8 P,0,128981,129481,A
Sprite,Foreground,Centre,"sb\p\ring.png",259,99 F,2,129148,129648,0.4,0 S,19,129148,129648,0.4,0.8 P,0,129148,129981,A
Sprite,Foreground,Centre,"sb\p\ring.png",323,158 F,2,129648,130148,0.4,0 S,19,129648,130148,0.4,0.8 P,0,129648,130148,A
Sprite,Foreground,Centre,"sb\p\ring.png",152,240 F,2,129815,130315,0.4,0 S,19,129815,130315,0.4,0.8 P,0,129815,130648,A
Sprite,Foreground,Centre,"sb\p\ring.png",91,128 F,2,130315,130815,0.4,0 S,19,130315,130815,0.4,0.8 P,0,130315,130981,A
Sprite,Foreground,Centre,"sb\p\ring.png",72,416 F,2,130648,131148,0.4,0 S,19,130648,131148,0.4,0.8 P,0,130648,131148,A
Sprite,Foreground,Centre,"sb\p\ring.png",448,400 F,2,215981,216481,0.4,0 S,19,215981,216481,0.4,0.8 P,0,215981,218314,A
Sprite,Foreground,Centre,"sb\p\ring.png",385,191 F,2,217981,218481,0.4,0 S,19,217981,218481,0.4,0.8 P,0,217981,218481,A
Sprite,Foreground,Centre,"sb\p\ring.png",385,191 F,2,218148,218648,0.4,0 S,19,218148,218648,0.4,0.8 P,0,218148,218648,A
Sprite,Foreground,Centre,"sb\p\ring.png",421,83 F,2,218315,218815,0.4,0 S,19,218315,218815,0.4,0.8 P,0,218315,218815,A
Sprite,Foreground,Centre,"sb\p\ring.png",421,83 F,2,218481,218981,0.4,0 S,19,218481,218981,0.4,0.8 P,0,218481,218981,A
Sprite,Foreground,Centre,"sb\p\ring.png",272,77 F,2,218648,219148,0.4,0 S,19,218648,219148,0.4,0.8 P,0,218648,219148,A
Sprite,Foreground,Centre,"sb\p\ring.png",346,116 F,2,218815,219315,0.4,0 S,19,218815,219315,0.4,0.8 P,0,218815,219815,A
Sprite,Foreground,Centre,"sb\p\ring.png",210,274 F,2,219481,219981,0.4,0 S,19,219481,219981,0.4,0.8 P,0,219481,220147,A
Sprite,Foreground,Centre,"sb\p\ring.png",106,228 F,2,219815,220315,0.4,0 S,19,219815,220315,0.4,0.8 P,0,219815,220648,A
Sprite,Foreground,Centre,"sb\p\ring.png",79,379 F,2,220315,220815,0.4,0 S,19,220315,220815,0.4,0.8 P,0,220315,220815,A
Sprite,Foreground,Centre,"sb\p\ring.png",197,361 F,2,220481,220981,0.4,0 S,19,220481,220981,0.4,0.8 P,0,220481,220981,A
Sprite,Foreground,Centre,"sb\p\ring.png",286,423 F,2,220648,221148,0.4,0 S,19,220648,221148,0.4,0.8 P,0,220648,221314,A
Sprite,Foreground,Centre,"sb\p\ring.png",432,403 F,2,220981,221481,0.4,0 S,19,220981,221481,0.4,0.8 P,0,220981,221481,A
Sprite,Foreground,Centre,"sb\p\ring.png",432,403 F,2,221148,221648,0.4,0 S,19,221148,221648,0.4,0.8 P,0,221148,221981,A
Sprite,Foreground,Centre,"sb\p\ring.png",389,267 F,2,221648,222148,0.4,0 S,19,221648,222148,0.4,0.8 P,0,221648,222481,A
Sprite,Foreground,Centre,"sb\p\ring.png",485,246 F,2,222148,222648,0.4,0 S,19,222148,222648,0.4,0.8 P,0,222148,222814,A
Sprite,Foreground,Centre,"sb\p\ring.png",531,350 F,2,222482,222982,0.4,0 S,19,222482,222982,0.4,0.8 P,0,222482,223315,A
Sprite,Foreground,Centre,"sb\p\ring.png",369,345 F,2,222981,223481,0.4,0 S,19,222981,223481,0.4,0.8 P,0,222981,223481,A
Sprite,Foreground,Centre,"sb\p\ring.png",296,261 F,2,223148,223648,0.4,0 S,19,223148,223648,0.4,0.8 P,0,223148,223648,A
Sprite,Foreground,Centre,"sb\p\ring.png",383,193 F,2,223315,223815,0.4,0 S,19,223315,223815,0.4,0.8 P,0,223315,223981,A
Sprite,Foreground,Centre,"sb\p\ring.png",429,77 F,2,223648,224148,0.4,0 S,19,223648,224148,0.4,0.8 P,0,223648,224148,A
Sprite,Foreground,Centre,"sb\p\ring.png",429,77 F,2,223815,224315,0.4,0 S,19,223815,224315,0.4,0.8 P,0,223815,224815,A
Sprite,Foreground,Centre,"sb\p\ring.png",162,79 F,2,224481,224981,0.4,0 S,19,224481,224981,0.4,0.8 P,0,224481,225314,A
Sprite,Foreground,Centre,"sb\p\ring.png",164,168 F,2,224981,225481,0.4,0 S,19,224981,225481,0.4,0.8 P,0,224981,225481,A
Sprite,Foreground,Centre,"sb\p\ring.png",317,119 F,2,225148,225648,0.4,0 S,19,225148,225648,0.4,0.8 P,0,225148,225648,A
Sprite,Foreground,Centre,"sb\p\ring.png",164,168 F,2,225315,225815,0.4,0 S,19,225315,225815,0.4,0.8 P,0,225315,226148,A
Sprite,Foreground,Centre,"sb\p\ring.png",247,294 F,2,225815,226315,0.4,0 S,19,225815,226315,0.4,0.8 P,0,225815,226315,A
Sprite,Foreground,Centre,"sb\p\ring.png",247,294 F,2,225981,226481,0.4,0 S,19,225981,226481,0.4,0.8 P,0,225981,226647,A
Sprite,Foreground,Centre,"sb\p\ring.png",347,368 F,2,226315,226815,0.4,0 S,19,226315,226815,0.4,0.8 P,0,226315,226981,A
Sprite,Foreground,Centre,"sb\p\ring.png",470,335 F,2,226648,227148,0.4,0 S,19,226648,227148,0.4,0.8 P,0,226648,227148,A
Sprite,Foreground,Centre,"sb\p\ring.png",558,184 F,2,226981,227481,0.4,0 S,19,226981,227481,0.4,0.8 P,0,226981,227481,A
Sprite,Foreground,Centre,"sb\p\ring.png",532,395 F,2,227315,227815,0.4,0 S,19,227315,227815,0.4,0.8 P,0,227315,228981,A
Sprite,Foreground,Centre,"sb\p\ring.png",558,184 F,2,228648,229148,0.4,0 S,19,228648,229148,0.4,0.8 P,0,228648,229148,A
Sprite,Foreground,Centre,"sb\p\ring.png",558,184 F,2,228815,229315,0.4,0 S,19,228815,229315,0.4,0.8 P,0,228815,229315,A
Sprite,Foreground,Centre,"sb\p\ring.png",546,69 F,2,228981,229481,0.4,0 S,19,228981,229481,0.4,0.8 P,0,228981,229481,A
Sprite,Foreground,Centre,"sb\p\ring.png",546,69 F,2,229148,229648,0.4,0 S,19,229148,229648,0.4,0.8 P,0,229148,229648,A
Sprite,Foreground,Centre,"sb\p\ring.png",415,187 F,2,229315,229815,0.4,0 S,19,229315,229815,0.4,0.8 P,0,229315,229815,A
Sprite,Foreground,Centre,"sb\p\ring.png",488,132 F,2,229482,229982,0.4,0 S,19,229482,229982,0.4,0.8 P,0,229482,230482,A
Sprite,Foreground,Centre,"sb\p\ring.png",288,99 F,2,230148,230648,0.4,0 S,19,230148,230648,0.4,0.8 P,0,230148,230814,A
Sprite,Foreground,Centre,"sb\p\ring.png",185,150 F,2,230482,230982,0.4,0 S,19,230482,230982,0.4,0.8 P,0,230482,231315,A
Sprite,Foreground,Centre,"sb\p\ring.png",278,264 F,2,230981,231481,0.4,0 S,19,230981,231481,0.4,0.8 P,0,230981,231481,A
Sprite,Foreground,Centre,"sb\p\ring.png",185,327 F,2,231148,231648,0.4,0 S,19,231148,231648,0.4,0.8 P,0,231148,231648,A
Sprite,Foreground,Centre,"sb\p\ring.png",296,388 F,2,231315,231815,0.4,0 S,19,231315,231815,0.4,0.8 P,0,231315,231981,A
Sprite,Foreground,Centre,"sb\p\ring.png",194,243 F,2,231648,232148,0.4,0 S,19,231648,232148,0.4,0.8 P,0,231648,232148,A
Sprite,Foreground,Centre,"sb\p\ring.png",194,243 F,2,231815,232315,0.4,0 S,19,231815,232315,0.4,0.8 P,0,231815,232648,A
Sprite,Foreground,Centre,"sb\p\ring.png",110,358 F,2,232315,232815,0.4,0 S,19,232315,232815,0.4,0.8 P,0,232315,233148,A
Sprite,Foreground,Centre,"sb\p\ring.png",291,224 F,2,232815,233315,0.4,0 S,19,232815,233315,0.4,0.8 P,0,232815,233481,A
Sprite,Foreground,Centre,"sb\p\ring.png",354,303 F,2,233149,233649,0.4,0 S,19,233149,233649,0.4,0.8 P,0,233149,233982,A
Sprite,Foreground,Centre,"sb\p\ring.png",469,240 F,2,233648,234148,0.4,0 S,19,233648,234148,0.4,0.8 P,0,233648,234148,A
Sprite,Foreground,Centre,"sb\p\ring.png",419,144 F,2,233815,234315,0.4,0 S,19,233815,234315,0.4,0.8 P,0,233815,234315,A
Sprite,Foreground,Centre,"sb\p\ring.png",532,97 F,2,233981,234481,0.4,0 S,19,233981,234481,0.4,0.8 P,0,233981,234647,A
Sprite,Foreground,Centre,"sb\p\ring.png",469,240 F,2,234315,234815,0.4,0 S,19,234315,234815,0.4,0.8 P,0,234315,234815,A
Sprite,Foreground,Centre,"sb\p\ring.png",469,240 F,2,234481,234981,0.4,0 S,19,234481,234981,0.4,0.8 P,0,234481,235481,A
Sprite,Foreground,Centre,"sb\p\ring.png",437,316 F,2,235148,235648,0.4,0 S,19,235148,235648,0.4,0.8 P,0,235148,235981,A
Sprite,Foreground,Centre,"sb\p\ring.png",410,402 F,2,235648,236148,0.4,0 S,19,235648,236148,0.4,0.8 P,0,235648,236148,A
Sprite,Foreground,Centre,"sb\p\ring.png",572,337 F,2,235815,236315,0.4,0 S,19,235815,236315,0.4,0.8 P,0,235815,236315,A
Sprite,Foreground,Centre,"sb\p\ring.png",410,402 F,2,235981,236481,0.4,0 S,19,235981,236481,0.4,0.8 P,0,235981,236814,A
Sprite,Foreground,Centre,"sb\p\ring.png",268,312 F,2,236481,236981,0.4,0 S,19,236481,236981,0.4,0.8 P,0,236481,236981,A
Sprite,Foreground,Centre,"sb\p\ring.png",268,312 F,2,236648,237148,0.4,0 S,19,236648,237148,0.4,0.8 P,0,236648,237314,A
Sprite,Foreground,Centre,"sb\p\ring.png",247,428 F,2,236981,237481,0.4,0 S,19,236981,237481,0.4,0.8 P,0,236981,237481,A
Sprite,Foreground,Centre,"sb\p\square.png",272,240 F,0,66648,66948,0.7,0 R,0,66648,66948,-0.06787298 V,0,66648,66948,0.2,300 P,0,66648,66948,A
Sprite,Foreground,Centre,"sb\p\square.png",72,240 F,0,66981,67281,0.7,0 R,0,66981,67281,-0.09519761 V,0,66981,67281,0.2,300 P,0,66981,67281,A
Sprite,Foreground,Centre,"sb\p\square.png",153,240 F,0,67481,67781,0.7,0 R,0,67481,67781,-0.08040681 V,0,67481,67781,0.2,300 P,0,67481,67781,A
Sprite,Foreground,Centre,"sb\p\square.png",304,240 F,0,67648,67948,0.7,0 R,0,67648,67948,-0.01744836 V,0,67648,67948,0.2,300 P,0,67648,67948,A
Sprite,Foreground,Centre,"sb\p\square.png",139,240 F,0,67815,68115,0.7,0 R,0,67815,68115,0.08819006 V,0,67815,68115,0.2,300 P,0,67815,68115,A
Sprite,Foreground,Centre,"sb\p\square.png",375,240 F,0,67981,68281,0.7,0 R,0,67981,68281,-0.01766544 V,0,67981,68281,0.2,300 P,0,67981,68281,A
Sprite,Foreground,Centre,"sb\p\square.png",201,240 F,0,68315,68615,0.7,0 R,0,68315,68615,-0.1218081 V,0,68315,68615,0.2,300 P,0,68315,68615,A
Sprite,Foreground,Centre,"sb\p\square.png",440,240 F,0,68648,68948,0.7,0 R,0,68648,68948,0.01734664 V,0,68648,68948,0.2,300 P,0,68648,68948,A
Sprite,Foreground,Centre,"sb\p\square.png",272,240 F,0,68815,69115,0.7,0 R,0,68815,69115,-0.1432649 V,0,68815,69115,0.2,300 P,0,68815,69115,A
Sprite,Foreground,Centre,"sb\p\square.png",472,240 F,0,68981,69281,0.7,0 R,0,68981,69281,0.06788866 V,0,68981,69281,0.2,300 P,0,68981,69281,A
Sprite,Foreground,Centre,"sb\p\square.png",371,240 F,0,69148,69448,0.7,0 R,0,69148,69448,0.06242811 V,0,69148,69448,0.2,300 P,0,69148,69448,A
Sprite,Foreground,Centre,"sb\p\square.png",456,240 F,0,69315,69615,0.7,0 R,0,69315,69615,0.00980559 V,0,69315,69615,0.2,300 P,0,69315,69615,A
Sprite,Foreground,Centre,"sb\p\square.png",528,240 F,0,69481,69781,0.7,0 R,0,69481,69781,-0.03979772 V,0,69481,69781,0.2,300 P,0,69481,69781,A
Sprite,Foreground,Centre,"sb\p\square.png",375,240 F,0,69648,69948,0.7,0 R,0,69648,69948,0.009146436 V,0,69648,69948,0.2,300 P,0,69648,69948,A
Sprite,Foreground,Centre,"sb\p\square.png",86,240 F,0,70148,70448,0.7,0 R,0,70148,70448,-0.1446454 V,0,70148,70448,0.2,300 P,0,70148,70448,A
Sprite,Foreground,Centre,"sb\p\square.png",340,240 F,0,70315,70615,0.7,0 R,0,70315,70615,0.1408899 V,0,70315,70615,0.2,300 P,0,70315,70615,A
Sprite,Foreground,Centre,"sb\p\square.png",174,240 F,0,70481,70781,0.7,0 R,0,70481,70781,-0.108711 V,0,70481,70781,0.2,300 P,0,70481,70781,A
Sprite,Foreground,Centre,"sb\p\square.png",90,240 F,0,70648,70948,0.7,0 R,0,70648,70948,-0.1486041 V,0,70648,70948,0.2,300 P,0,70648,70948,A
Sprite,Foreground,Centre,"sb\p\square.png",268,240 F,0,70981,71281,0.7,0 R,0,70981,71281,-0.05315435 V,0,70981,71281,0.2,300 P,0,70981,71281,A
Sprite,Foreground,Centre,"sb\p\square.png",352,240 F,0,71315,71615,0.7,0 R,0,71315,71615,0.05562246 V,0,71315,71615,0.2,300 P,0,71315,71615,A
Sprite,Foreground,Centre,"sb\p\square.png",90,240 F,0,71481,71781,0.7,0 R,0,71481,71781,-0.09507237 V,0,71481,71781,0.2,300 P,0,71481,71781,A
Sprite,Foreground,Centre,"sb\p\square.png",144,240 F,0,71648,71948,0.7,0 R,0,71648,71948,-0.1044155 V,0,71648,71948,0.2,300 P,0,71648,71948,A
Sprite,Foreground,Centre,"sb\p\square.png",329,240 F,0,71815,72115,0.7,0 R,0,71815,72115,-0.1475707 V,0,71815,72115,0.2,300 P,0,71815,72115,A
Sprite,Foreground,Centre,"sb\p\square.png",472,240 F,0,71981,72281,0.7,0 R,0,71981,72281,0.1402124 V,0,71981,72281,0.2,300 P,0,71981,72281,A
Sprite,Foreground,Centre,"sb\p\square.png",336,240 F,0,72315,72615,0.7,0 R,0,72315,72615,-0.05998259 V,0,72315,72615,0.2,300 P,0,72315,72615,A
Sprite,Foreground,Centre,"sb\p\square.png",364,240 F,0,72815,73115,0.7,0 R,0,72815,73115,-0.007885243 V,0,72815,73115,0.2,300 P,0,72815,73115,A
Sprite,Foreground,Centre,"sb\p\square.png",520,240 F,0,72981,73281,0.7,0 R,0,72981,73281,-0.1302056 V,0,72981,73281,0.2,300 P,0,72981,73281,A
Sprite,Foreground,Centre,"sb\p\square.png",304,240 F,0,73148,73448,0.7,0 R,0,73148,73448,-0.05628609 V,0,73148,73448,0.2,300 P,0,73148,73448,A
Sprite,Foreground,Centre,"sb\p\square.png",568,240 F,0,73315,73615,0.7,0 R,0,73315,73615,-0.01404463 V,0,73315,73615,0.2,300 P,0,73315,73615,A
Sprite,Foreground,Centre,"sb\p\square.png",304,240 F,0,73648,73948,0.7,0 R,0,73648,73948,0.125667 V,0,73648,73948,0.2,300 P,0,73648,73948,A
Sprite,Foreground,Centre,"sb\p\square.png",432,240 F,0,73981,74281,0.7,0 R,0,73981,74281,0.09386263 V,0,73981,74281,0.2,300 P,0,73981,74281,A
Sprite,Foreground,Centre,"sb\p\square.png",403,240 F,0,74148,74448,0.7,0 R,0,74148,74448,0.01400184 V,0,74148,74448,0.2,300 P,0,74148,74448,A
Sprite,Foreground,Centre,"sb\p\square.png",328,240 F,0,74315,74615,0.7,0 R,0,74315,74615,0.06084844 V,0,74315,74615,0.2,300 P,0,74315,74615,A
Sprite,Foreground,Centre,"sb\p\square.png",520,240 F,0,74481,74781,0.7,0 R,0,74481,74781,-0.1465631 V,0,74481,74781,0.2,300 P,0,74481,74781,A
Sprite,Foreground,Centre,"sb\p\square.png",256,240 F,0,74648,74948,0.7,0 R,0,74648,74948,-0.04280924 V,0,74648,74948,0.2,300 P,0,74648,74948,A
Sprite,Foreground,Centre,"sb\p\square.png",528,240 F,0,74815,75115,0.7,0 R,0,74815,75115,-0.07888908 V,0,74815,75115,0.2,300 P,0,74815,75115,A
Sprite,Foreground,Centre,"sb\p\square.png",201,240 F,0,74981,75281,0.7,0 R,0,74981,75281,0.1408817 V,0,74981,75281,0.2,300 P,0,74981,75281,A
Sprite,Foreground,Centre,"sb\p\square.png",258,240 F,0,75481,75781,0.7,0 R,0,75481,75781,0.03569865 V,0,75481,75781,0.2,300 P,0,75481,75781,A
Sprite,Foreground,Centre,"sb\p\square.png",88,240 F,0,75648,75948,0.7,0 R,0,75648,75948,0.04705745 V,0,75648,75948,0.2,300 P,0,75648,75948,A
Sprite,Foreground,Centre,"sb\p\square.png",64,240 F,0,75815,76115,0.7,0 R,0,75815,76115,-0.1372366 V,0,75815,76115,0.2,300 P,0,75815,76115,A
Sprite,Foreground,Centre,"sb\p\square.png",279,240 F,0,75981,76281,0.7,0 R,0,75981,76281,-0.001538764 V,0,75981,76281,0.2,300 P,0,75981,76281,A
Sprite,Foreground,Centre,"sb\p\square.png",431,240 F,0,76315,76615,0.7,0 R,0,76315,76615,-0.06479175 V,0,76315,76615,0.2,300 P,0,76315,76615,A
Sprite,Foreground,Centre,"sb\p\square.png",175,240 F,0,76481,76781,0.7,0 R,0,76481,76781,0.1143127 V,0,76481,76781,0.2,300 P,0,76481,76781,A
Sprite,Foreground,Centre,"sb\p\square.png",366,240 F,0,76815,77115,0.7,0 R,0,76815,77115,0.06796455 V,0,76815,77115,0.2,300 P,0,76815,77115,A
Sprite,Foreground,Centre,"sb\p\square.png",157,240 F,0,76981,77281,0.7,0 R,0,76981,77281,-0.1221294 V,0,76981,77281,0.2,300 P,0,76981,77281,A
Sprite,Foreground,Centre,"sb\p\square.png",272,240 F,0,77315,77615,0.7,0 R,0,77315,77615,-0.08842967 V,0,77315,77615,0.2,300 P,0,77315,77615,A
Sprite,Foreground,Centre,"sb\p\square.png",488,240 F,0,77648,77948,0.7,0 R,0,77648,77948,0.0488519 V,0,77648,77948,0.2,300 P,0,77648,77948,A
Sprite,Foreground,Centre,"sb\p\square.png",519,240 F,0,78148,78448,0.7,0 R,0,78148,78448,0.01283736 V,0,78148,78448,0.2,300 P,0,78148,78448,A
Sprite,Foreground,Centre,"sb\p\square.png",570,240 F,0,78315,78615,0.7,0 R,0,78315,78615,0.1059525 V,0,78315,78615,0.2,300 P,0,78315,78615,A
Sprite,Foreground,Centre,"sb\p\square.png",288,240 F,0,78481,78781,0.7,0 R,0,78481,78781,0.08360558 V,0,78481,78781,0.2,300 P,0,78481,78781,A
Sprite,Foreground,Centre,"sb\p\square.png",481,240 F,0,78648,78948,0.7,0 R,0,78648,78948,0.02697802 V,0,78648,78948,0.2,300 P,0,78648,78948,A
Sprite,Foreground,Centre,"sb\p\square.png",224,240 F,0,78981,79281,0.7,0 R,0,78981,79281,-0.06561805 V,0,78981,79281,0.2,300 P,0,78981,79281,A
Sprite,Foreground,Centre,"sb\p\square.png",376,240 F,0,79315,79615,0.7,0 R,0,79315,79615,-0.03594908 V,0,79315,79615,0.2,300 P,0,79315,79615,A
Sprite,Foreground,Centre,"sb\p\square.png",421,240 F,0,79481,79781,0.7,0 R,0,79481,79781,0.003609584 V,0,79481,79781,0.2,300 P,0,79481,79781,A
Sprite,Foreground,Centre,"sb\p\square.png",443,240 F,0,79648,79948,0.7,0 R,0,79648,79948,0.09152597 V,0,79648,79948,0.2,300 P,0,79648,79948,A
Sprite,Foreground,Centre,"sb\p\square.png",272,240 F,0,79815,80115,0.7,0 R,0,79815,80115,-0.1134574 V,0,79815,80115,0.2,300 P,0,79815,80115,A
Sprite,Foreground,Centre,"sb\p\square.png",519,240 F,0,79981,80281,0.7,0 R,0,79981,80281,-0.09762695 V,0,79981,80281,0.2,300 P,0,79981,80281,A
Sprite,Foreground,Centre,"sb\p\square.png",576,240 F,0,80148,80448,0.7,0 R,0,80148,80448,-0.07061925 V,0,80148,80448,0.2,300 P,0,80148,80448,A
Sprite,Foreground,Centre,"sb\p\square.png",334,240 F,0,80315,80615,0.7,0 R,0,80315,80615,-0.1074658 V,0,80315,80615,0.2,300 P,0,80315,80615,A
Sprite,Foreground,Centre,"sb\p\square.png",217,240 F,0,80815,81115,0.7,0 R,0,80815,81115,-0.0539247 V,0,80815,81115,0.2,300 P,0,80815,81115,A
Sprite,Foreground,Centre,"sb\p\square.png",88,240 F,0,80981,81281,0.7,0 R,0,80981,81281,-0.03745984 V,0,80981,81281,0.2,300 P,0,80981,81281,A
Sprite,Foreground,Centre,"sb\p\square.png",272,240 F,0,81148,81448,0.7,0 R,0,81148,81448,0.08447797 V,0,81148,81448,0.2,300 P,0,81148,81448,A
Sprite,Foreground,Centre,"sb\p\square.png",216,240 F,0,81315,81615,0.7,0 R,0,81315,81615,-0.1186087 V,0,81315,81615,0.2,300 P,0,81315,81615,A
Sprite,Foreground,Centre,"sb\p\square.png",480,240 F,0,81648,81948,0.7,0 R,0,81648,81948,-0.1189319 V,0,81648,81948,0.2,300 P,0,81648,81948,A
Sprite,Foreground,Centre,"sb\p\square.png",392,240 F,0,81981,82281,0.7,0 R,0,81981,82281,0.124026 V,0,81981,82281,0.2,300 P,0,81981,82281,A
Sprite,Foreground,Centre,"sb\p\square.png",416,240 F,0,82148,82448,0.7,0 R,0,82148,82448,-0.1015737 V,0,82148,82448,0.2,300 P,0,82148,82448,A
Sprite,Foreground,Centre,"sb\p\square.png",505,240 F,0,82315,82615,0.7,0 R,0,82315,82615,0.09895715 V,0,82315,82615,0.2,300 P,0,82315,82615,A
Sprite,Foreground,Centre,"sb\p\square.png",264,240 F,0,82481,82781,0.7,0 R,0,82481,82781,-0.04323459 V,0,82481,82781,0.2,300 P,0,82481,82781,A
Sprite,Foreground,Centre,"sb\p\square.png",561,240 F,0,82648,82948,0.7,0 R,0,82648,82948,-0.09804432 V,0,82648,82948,0.2,300 P,0,82648,82948,A
Sprite,Foreground,Centre,"sb\p\square.png",385,240 F,0,82981,83281,0.7,0 R,0,82981,83281,0.0842437 V,0,82981,83281,0.2,300 P,0,82981,83281,A
Sprite,Foreground,Centre,"sb\p\square.png",99,240 F,0,83481,83781,0.7,0 R,0,83481,83781,-0.1499918 V,0,83481,83781,0.2,300 P,0,83481,83781,A
Sprite,Foreground,Centre,"sb\p\square.png",184,240 F,0,83648,83948,0.7,0 R,0,83648,83948,0.005590306 V,0,83648,83948,0.2,300 P,0,83648,83948,A
Sprite,Foreground,Centre,"sb\p\square.png",368,240 F,0,83815,84115,0.7,0 R,0,83815,84115,-0.04566157 V,0,83815,84115,0.2,300 P,0,83815,84115,A
Sprite,Foreground,Centre,"sb\p\square.png",232,240 F,0,83981,84281,0.7,0 R,0,83981,84281,-0.0659178 V,0,83981,84281,0.2,300 P,0,83981,84281,A
Sprite,Foreground,Centre,"sb\p\square.png",269,240 F,0,84315,84615,0.7,0 R,0,84315,84615,-0.09283877 V,0,84315,84615,0.2,300 P,0,84315,84615,A
Sprite,Foreground,Centre,"sb\p\square.png",304,240 F,0,84648,84948,0.7,0 R,0,84648,84948,0.1197194 V,0,84648,84948,0.2,300 P,0,84648,84948,A
Sprite,Foreground,Centre,"sb\p\square.png",479,240 F,0,84815,85115,0.7,0 R,0,84815,85115,-0.06872822 V,0,84815,85115,0.2,300 P,0,84815,85115,A
Sprite,Foreground,Centre,"sb\p\square.png",317,240 F,0,84981,85281,0.7,0 R,0,84981,85281,-0.06553521 V,0,84981,85281,0.2,300 P,0,84981,85281,A
Sprite,Foreground,Centre,"sb\p\square.png",576,240 F,0,85148,85448,0.7,0 R,0,85148,85448,0.1123418 V,0,85148,85448,0.2,300 P,0,85148,85448,A
Sprite,Foreground,Centre,"sb\p\square.png",432,240 F,0,85315,85615,0.7,0 R,0,85315,85615,-0.1215529 V,0,85315,85615,0.2,300 P,0,85315,85615,A
Sprite,Foreground,Centre,"sb\p\square.png",424,240 F,0,85481,85781,0.7,0 R,0,85481,85781,0.09326286 V,0,85481,85781,0.2,300 P,0,85481,85781,A
Sprite,Foreground,Centre,"sb\p\square.png",494,240 F,0,85648,85948,0.7,0 R,0,85648,85948,0.006957039 V,0,85648,85948,0.2,300 P,0,85648,85948,A
Sprite,Foreground,Centre,"sb\p\square.png",348,240 F,0,85981,86281,0.7,0 R,0,85981,86281,-0.01223857 V,0,85981,86281,0.2,300 P,0,85981,86281,A
Sprite,Foreground,Centre,"sb\p\square.png",418,240 F,0,86148,86448,0.7,0 R,0,86148,86448,0.05234979 V,0,86148,86448,0.2,300 P,0,86148,86448,A
Sprite,Foreground,Centre,"sb\p\square.png",160,240 F,0,86648,86948,0.7,0 R,0,86648,86948,-0.051311 V,0,86648,86948,0.2,300 P,0,86648,86948,A
Sprite,Foreground,Centre,"sb\p\square.png",210,240 F,0,86981,87281,0.7,0 R,0,86981,87281,0.009480678 V,0,86981,87281,0.2,300 P,0,86981,87281,A
Sprite,Foreground,Centre,"sb\p\square.png",256,240 F,0,87148,87448,0.7,0 R,0,87148,87448,-0.1000491 V,0,87148,87448,0.2,300 P,0,87148,87448,A
Sprite,Foreground,Centre,"sb\p\square.png",241,240 F,0,87231,87531,0.7,0 R,0,87231,87531,-0.09276114 V,0,87231,87531,0.2,300 P,0,87231,87531,A
Sprite,Foreground,Centre,"sb\p\square.png",225,240 F,0,87314,87614,0.7,0 R,0,87314,87614,-0.0880891 V,0,87314,87614,0.2,300 P,0,87314,87614,A
Sprite,Foreground,Centre,"sb\p\square.png",64,240 F,0,87481,87781,0.7,0 R,0,87481,87781,-0.0793518 V,0,87481,87781,0.2,300 P,0,87481,87781,A
Sprite,Foreground,Centre,"sb\p\square.png",240,240 F,0,87648,87948,0.7,0 R,0,87648,87948,-0.1312621 V,0,87648,87948,0.2,300 P,0,87648,87948,A
Sprite,Foreground,Centre,"sb\p\square.png",504,240 F,0,87981,88281,0.7,0 R,0,87981,88281,0.06150096 V,0,87981,88281,0.2,300 P,0,87981,88281,A
Sprite,Foreground,Centre,"sb\p\square.png",339,240 F,0,88315,88615,0.7,0 R,0,88315,88615,-0.00683559 V,0,88315,88615,0.2,300 P,0,88315,88615,A
Sprite,Foreground,Centre,"sb\p\square.png",199,240 F,0,88648,88948,0.7,0 R,0,88648,88948,-0.04901785 V,0,88648,88948,0.2,300 P,0,88648,88948,A
Sprite,Foreground,Centre,"sb\p\square.png",430,240 F,0,88981,89281,0.7,0 R,0,88981,89281,0.05022329 V,0,88981,89281,0.2,300 P,0,88981,89281,A
Sprite,Foreground,Centre,"sb\p\square.png",224,240 F,0,89148,89448,0.7,0 R,0,89148,89448,0.06398327 V,0,89148,89448,0.2,300 P,0,89148,89448,A
Sprite,Foreground,Centre,"sb\p\square.png",64,240 F,0,89481,89781,0.7,0 R,0,89481,89781,-0.09618302 V,0,89481,89781,0.2,300 P,0,89481,89781,A
Sprite,Foreground,Centre,"sb\p\square.png",160,240 F,0,89648,89948,0.7,0 R,0,89648,89948,0.08324462 V,0,89648,89948,0.2,300 P,0,89648,89948,A
Sprite,Foreground,Centre,"sb\p\square.png",224,240 F,0,89815,90115,0.7,0 R,0,89815,90115,0.09393852 V,0,89815,90115,0.2,300 P,0,89815,90115,A
Sprite,Foreground,Centre,"sb\p\square.png",64,240 F,0,89981,90281,0.7,0 R,0,89981,90281,0.1294443 V,0,89981,90281,0.2,300 P,0,89981,90281,A
Sprite,Foreground,Centre,"sb\p\square.png",136,240 F,0,90148,90448,0.7,0 R,0,90148,90448,-0.03738683 V,0,90148,90448,0.2,300 P,0,90148,90448,A
Sprite,Foreground,Centre,"sb\p\square.png",296,240 F,0,90315,90615,0.7,0 R,0,90315,90615,-0.05791351 V,0,90315,90615,0.2,300 P,0,90315,90615,A
Sprite,Foreground,Centre,"sb\p\square.png",550,240 F,0,90648,90948,0.7,0 R,0,90648,90948,-0.03911832 V,0,90648,90948,0.2,300 P,0,90648,90948,A
Sprite,Foreground,Centre,"sb\p\square.png",564,240 F,0,90981,91281,0.7,0 R,0,90981,91281,-0.1282912 V,0,90981,91281,0.2,300 P,0,90981,91281,A
Sprite,Foreground,Centre,"sb\p\square.png",360,240 F,0,91315,91615,0.7,0 R,0,91315,91615,0.08359738 V,0,91315,91615,0.2,300 P,0,91315,91615,A
Sprite,Foreground,Centre,"sb\p\square.png",456,240 F,0,91481,91781,0.7,0 R,0,91481,91781,-0.1286123 V,0,91481,91781,0.2,300 P,0,91481,91781,A
Sprite,Foreground,Centre,"sb\p\square.png",480,240 F,0,91648,91948,0.7,0 R,0,91648,91948,0.1300435 V,0,91648,91948,0.2,300 P,0,91648,91948,A
Sprite,Foreground,Centre,"sb\p\square.png",344,240 F,0,91815,92115,0.7,0 R,0,91815,92115,-0.1200313 V,0,91815,92115,0.2,300 P,0,91815,92115,A
Sprite,Foreground,Centre,"sb\p\square.png",88,240 F,0,92148,92448,0.7,0 R,0,92148,92448,-0.05355164 V,0,92148,92448,0.2,300 P,0,92148,92448,A
Sprite,Foreground,Centre,"sb\p\square.png",244,240 F,0,92315,92615,0.7,0 R,0,92315,92615,0.1218066 V,0,92315,92615,0.2,300 P,0,92315,92615,A
Sprite,Foreground,Centre,"sb\p\square.png",72,240 F,0,92481,92781,0.7,0 R,0,92481,92781,0.1052708 V,0,92481,92781,0.2,300 P,0,92481,92781,A
Sprite,Foreground,Centre,"sb\p\square.png",360,240 F,0,92648,92948,0.7,0 R,0,92648,92948,0.1179083 V,0,92648,92948,0.2,300 P,0,92648,92948,A
Sprite,Foreground,Centre,"sb\p\square.png",152,240 F,0,92815,93115,0.7,0 R,0,92815,93115,-0.03296107 V,0,92815,93115,0.2,300 P,0,92815,93115,A
Sprite,Foreground,Centre,"sb\p\square.png",408,240 F,0,92981,93281,0.7,0 R,0,92981,93281,-0.1359129 V,0,92981,93281,0.2,300 P,0,92981,93281,A
Sprite,Foreground,Centre,"sb\p\square.png",240,240 F,0,93148,93448,0.7,0 R,0,93148,93448,0.002812438 V,0,93148,93448,0.2,300 P,0,93148,93448,A
Sprite,Foreground,Centre,"sb\p\square.png",552,240 F,0,93315,93615,0.7,0 R,0,93315,93615,0.1055831 V,0,93315,93615,0.2,300 P,0,93315,93615,A
Sprite,Foreground,Centre,"sb\p\square.png",541,240 F,0,93648,93948,0.7,0 R,0,93648,93948,-0.05328346 V,0,93648,93948,0.2,300 P,0,93648,93948,A
Sprite,Foreground,Centre,"sb\p\square.png",328,240 F,0,93981,94281,0.7,0 R,0,93981,94281,-0.02095852 V,0,93981,94281,0.2,300 P,0,93981,94281,A
Sprite,Foreground,Centre,"sb\p\square.png",328,240 F,0,94315,94615,0.7,0 R,0,94315,94615,0.08237906 V,0,94315,94615,0.2,300 P,0,94315,94615,A
Sprite,Foreground,Centre,"sb\p\square.png",160,240 F,0,94481,94781,0.7,0 R,0,94481,94781,-0.03545464 V,0,94481,94781,0.2,300 P,0,94481,94781,A
Sprite,Foreground,Centre,"sb\p\square.png",283,240 F,0,94815,95115,0.7,0 R,0,94815,95115,0.1484753 V,0,94815,95115,0.2,300 P,0,94815,95115,A
Sprite,Foreground,Centre,"sb\p\square.png",225,240 F,0,94981,95281,0.7,0 R,0,94981,95281,0.04171829 V,0,94981,95281,0.2,300 P,0,94981,95281,A
Sprite,Foreground,Centre,"sb\p\square.png",192,240 F,0,95148,95448,0.7,0 R,0,95148,95448,-0.1051455 V,0,95148,95448,0.2,300 P,0,95148,95448,A
Sprite,Foreground,Centre,"sb\p\square.png",400,240 F,0,95315,95615,0.7,0 R,0,95315,95615,0.1313075 V,0,95315,95615,0.2,300 P,0,95315,95615,A
Sprite,Foreground,Centre,"sb\p\square.png",104,240 F,0,95481,95781,0.7,0 R,0,95481,95781,0.06550582 V,0,95481,95781,0.2,300 P,0,95481,95781,A
Sprite,Foreground,Centre,"sb\p\square.png",368,240 F,0,95648,95948,0.7,0 R,0,95648,95948,-0.06149277 V,0,95648,95948,0.2,300 P,0,95648,95948,A
Sprite,Foreground,Centre,"sb\p\square.png",64,240 F,0,95981,96281,0.7,0 R,0,95981,96281,-0.1375741 V,0,95981,96281,0.2,300 P,0,95981,96281,A
Sprite,Foreground,Centre,"sb\p\square.png",222,240 F,0,96315,96615,0.7,0 R,0,96315,96615,-0.1466437 V,0,96315,96615,0.2,300 P,0,96315,96615,A
Sprite,Foreground,Centre,"sb\p\square.png",496,240 F,0,96648,96948,0.7,0 R,0,96648,96948,0.03385891 V,0,96648,96948,0.2,300 P,0,96648,96948,A
Sprite,Foreground,Centre,"sb\p\square.png",306,240 F,0,96815,97115,0.7,0 R,0,96815,97115,-0.006822045 V,0,96815,97115,0.2,300 P,0,96815,97115,A
Sprite,Foreground,Centre,"sb\p\square.png",432,240 F,0,96981,97281,0.7,0 R,0,96981,97281,0.0659024 V,0,96981,97281,0.2,300 P,0,96981,97281,A
Sprite,Foreground,Centre,"sb\p\square.png",485,240 F,0,97315,97615,0.7,0 R,0,97315,97615,-0.001972839 V,0,97315,97615,0.2,300 P,0,97315,97615,A
Sprite,Foreground,Centre,"sb\p\square.png",406,240 F,0,97648,97948,0.7,0 R,0,97648,97948,-0.009473728 V,0,97648,97948,0.2,300 P,0,97648,97948,A
Sprite,Foreground,Centre,"sb\p\square.png",345,240 F,0,97815,98115,0.7,0 R,0,97815,98115,0.1328975 V,0,97815,98115,0.2,300 P,0,97815,98115,A
Sprite,Foreground,Centre,"sb\p\square.png",215,240 F,0,98148,98448,0.7,0 R,0,98148,98448,0.06583391 V,0,98148,98448,0.2,300 P,0,98148,98448,A
Sprite,Foreground,Centre,"sb\p\square.png",295,240 F,0,98648,98948,0.7,0 R,0,98648,98948,0.001176373 V,0,98648,98948,0.2,300 P,0,98648,98948,A
Sprite,Foreground,Centre,"sb\p\square.png",315,240 F,0,98981,99281,0.7,0 R,0,98981,99281,-0.1039246 V,0,98981,99281,0.2,300 P,0,98981,99281,A
Sprite,Foreground,Centre,"sb\p\square.png",576,240 F,0,99315,99615,0.7,0 R,0,99315,99615,-0.03394736 V,0,99315,99615,0.2,300 P,0,99315,99615,A
Sprite,Foreground,Centre,"sb\p\square.png",406,240 F,0,99648,99948,0.7,0 R,0,99648,99948,0.1187524 V,0,99648,99948,0.2,300 P,0,99648,99948,A
Sprite,Foreground,Centre,"sb\p\square.png",472,240 F,0,99815,100115,0.7,0 R,0,99815,100115,-0.07269871 V,0,99815,100115,0.2,300 P,0,99815,100115,A
Sprite,Foreground,Centre,"sb\p\square.png",499,240 F,0,100148,100448,0.7,0 R,0,100148,100448,0.02943716 V,0,100148,100448,0.2,300 P,0,100148,100448,A
Sprite,Foreground,Centre,"sb\p\square.png",376,240 F,0,100315,100615,0.7,0 R,0,100315,100615,-0.1300178 V,0,100315,100615,0.2,300 P,0,100315,100615,A
Sprite,Foreground,Centre,"sb\p\square.png",394,240 F,0,100481,100781,0.7,0 R,0,100481,100781,0.1107905 V,0,100481,100781,0.2,300 P,0,100481,100781,A
Sprite,Foreground,Centre,"sb\p\square.png",536,240 F,0,100648,100948,0.7,0 R,0,100648,100948,-0.05989569 V,0,100648,100948,0.2,300 P,0,100648,100948,A
Sprite,Foreground,Centre,"sb\p\square.png",328,240 F,0,100815,101115,0.7,0 R,0,100815,101115,-0.03462256 V,0,100815,101115,0.2,300 P,0,100815,101115,A
Sprite,Foreground,Centre,"sb\p\square.png",202,240 F,0,100981,101281,0.7,0 R,0,100981,101281,-0.09917037 V,0,100981,101281,0.2,300 P,0,100981,101281,A
Sprite,Foreground,Centre,"sb\p\square.png",136,240 F,0,101315,101615,0.7,0 R,0,101315,101615,-0.05553797 V,0,101315,101615,0.2,300 P,0,101315,101615,A
Sprite,Foreground,Centre,"sb\p\square.png",158,240 F,0,101648,101948,0.7,0 R,0,101648,101948,-0.02092274 V,0,101648,101948,0.2,300 P,0,101648,101948,A
Sprite,Foreground,Centre,"sb\p\square.png",298,240 F,0,101981,102281,0.7,0 R,0,101981,102281,0.09816971 V,0,101981,102281,0.2,300 P,0,101981,102281,A
Sprite,Foreground,Centre,"sb\p\square.png",254,240 F,0,102148,102448,0.7,0 R,0,102148,102448,0.09464017 V,0,102148,102448,0.2,300 P,0,102148,102448,A
Sprite,Foreground,Centre,"sb\p\square.png",105,240 F,0,102315,102615,0.7,0 R,0,102315,102615,-0.03273327 V,0,102315,102615,0.2,300 P,0,102315,102615,A
Sprite,Foreground,Centre,"sb\p\square.png",310,240 F,0,102481,102781,0.7,0 R,0,102481,102781,0.0747755 V,0,102481,102781,0.2,300 P,0,102481,102781,A
Sprite,Foreground,Centre,"sb\p\square.png",224,240 F,0,102815,103115,0.7,0 R,0,102815,103115,-0.1491344 V,0,102815,103115,0.2,300 P,0,102815,103115,A
Sprite,Foreground,Centre,"sb\p\square.png",400,240 F,0,102981,103281,0.7,0 R,0,102981,103281,-0.02060684 V,0,102981,103281,0.2,300 P,0,102981,103281,A
Sprite,Foreground,Centre,"sb\p\square.png",160,240 F,0,103148,103448,0.7,0 R,0,103148,103448,0.130969 V,0,103148,103448,0.2,300 P,0,103148,103448,A
Sprite,Foreground,Centre,"sb\p\square.png",416,240 F,0,103315,103615,0.7,0 R,0,103315,103615,0.07089488 V,0,103315,103615,0.2,300 P,0,103315,103615,A
Sprite,Foreground,Centre,"sb\p\square.png",232,240 F,0,103481,103781,0.7,0 R,0,103481,103781,-0.102768 V,0,103481,103781,0.2,300 P,0,103481,103781,A
Sprite,Foreground,Centre,"sb\p\square.png",319,240 F,0,103648,103948,0.7,0 R,0,103648,103948,-0.02042579 V,0,103648,103948,0.2,300 P,0,103648,103948,A
Sprite,Foreground,Centre,"sb\p\square.png",400,240 F,0,103815,104115,0.7,0 R,0,103815,104115,-0.04379703 V,0,103815,104115,0.2,300 P,0,103815,104115,A
Sprite,Foreground,Centre,"sb\p\square.png",514,240 F,0,103981,104281,0.7,0 R,0,103981,104281,-0.004909844 V,0,103981,104281,0.2,300 P,0,103981,104281,A
Sprite,Foreground,Centre,"sb\p\square.png",484,240 F,0,104315,104615,0.7,0 R,0,104315,104615,-0.1410382 V,0,104315,104615,0.2,300 P,0,104315,104615,A
Sprite,Foreground,Centre,"sb\p\square.png",300,240 F,0,104648,104948,0.7,0 R,0,104648,104948,0.1266872 V,0,104648,104948,0.2,300 P,0,104648,104948,A
Sprite,Foreground,Centre,"sb\p\square.png",480,240 F,0,104815,105115,0.7,0 R,0,104815,105115,-0.003890204 V,0,104815,105115,0.2,300 P,0,104815,105115,A
Sprite,Foreground,Centre,"sb\p\square.png",345,240 F,0,104981,105281,0.7,0 R,0,104981,105281,0.1032704 V,0,104981,105281,0.2,300 P,0,104981,105281,A
Sprite,Foreground,Centre,"sb\p\square.png",224,240 F,0,105148,105448,0.7,0 R,0,105148,105448,-0.09409582 V,0,105148,105448,0.2,300 P,0,105148,105448,A
Sprite,Foreground,Centre,"sb\p\square.png",249,240 F,0,105481,105781,0.7,0 R,0,105481,105781,-0.04275639 V,0,105481,105781,0.2,300 P,0,105481,105781,A
Sprite,Foreground,Centre,"sb\p\square.png",72,240 F,0,105648,105948,0.7,0 R,0,105648,105948,-0.02261802 V,0,105648,105948,0.2,300 P,0,105648,105948,A
Sprite,Foreground,Centre,"sb\p\square.png",300,240 F,0,105815,106115,0.7,0 R,0,105815,106115,-0.01585855 V,0,105815,106115,0.2,300 P,0,105815,106115,A
Sprite,Foreground,Centre,"sb\p\square.png",176,240 F,0,105981,106281,0.7,0 R,0,105981,106281,-0.05174676 V,0,105981,106281,0.2,300 P,0,105981,106281,A
Sprite,Foreground,Centre,"sb\p\square.png",123,240 F,0,106148,106448,0.7,0 R,0,106148,106448,-0.1483639 V,0,106148,106448,0.2,300 P,0,106148,106448,A
Sprite,Foreground,Centre,"sb\p\square.png",112,240 F,0,106315,106615,0.7,0 R,0,106315,106615,0.05950777 V,0,106315,106615,0.2,300 P,0,106315,106615,A
Sprite,Foreground,Centre,"sb\p\square.png",488,240 F,0,106648,106948,0.7,0 R,0,106648,106948,0.1306639 V,0,106648,106948,0.2,300 P,0,106648,106948,A
Sprite,Foreground,Centre,"sb\p\square.png",355,240 F,0,106981,107281,0.7,0 R,0,106981,107281,0.01028907 V,0,106981,107281,0.2,300 P,0,106981,107281,A
Sprite,Foreground,Centre,"sb\p\square.png",568,240 F,0,107315,107615,0.7,0 R,0,107315,107615,0.005077771 V,0,107315,107615,0.2,300 P,0,107315,107615,A
Sprite,Foreground,Centre,"sb\p\square.png",408,240 F,0,107481,107781,0.7,0 R,0,107481,107781,0.0851082 V,0,107481,107781,0.2,300 P,0,107481,107781,A
Sprite,Foreground,Centre,"sb\p\square.png",576,240 F,0,107648,107948,0.7,0 R,0,107648,107948,0.1284931 V,0,107648,107948,0.2,300 P,0,107648,107948,A
Sprite,Foreground,Centre,"sb\p\square.png",320,240 F,0,107981,108281,0.7,0 R,0,107981,108281,0.0809278 V,0,107981,108281,0.2,300 P,0,107981,108281,A
Sprite,Foreground,Centre,"sb\p\square.png",408,240 F,0,108148,108448,0.7,0 R,0,108148,108448,0.1047502 V,0,108148,108448,0.2,300 P,0,108148,108448,A
Sprite,Foreground,Centre,"sb\p\square.png",247,240 F,0,108315,108615,0.7,0 R,0,108315,108615,0.01593004 V,0,108315,108615,0.2,300 P,0,108315,108615,A
Sprite,Foreground,Centre,"sb\p\square.png",480,240 F,0,108481,108781,0.7,0 R,0,108481,108781,0.0146762 V,0,108481,108781,0.2,300 P,0,108481,108781,A
Sprite,Foreground,Centre,"sb\p\square.png",272,240 F,0,108648,108948,0.7,0 R,0,108648,108948,0.1440452 V,0,108648,108948,0.2,300 P,0,108648,108948,A
Sprite,Foreground,Centre,"sb\p\square.png",331,240 F,0,108815,109115,0.7,0 R,0,108815,109115,0.03334864 V,0,108815,109115,0.2,300 P,0,108815,109115,A
Sprite,Foreground,Centre,"sb\p\square.png",173,240 F,0,108981,109281,0.7,0 R,0,108981,109281,-0.09481344 V,0,108981,109281,0.2,300 P,0,108981,109281,A
Sprite,Foreground,Centre,"sb\p\square.png",320,240 F,0,109148,109448,0.7,0 R,0,109148,109448,0.08921874 V,0,109148,109448,0.2,300 P,0,109148,109448,A
Sprite,Foreground,Centre,"sb\p\square.png",504,240 F,0,173315,173615,0.7,0 R,0,173315,173615,-0.06787298 V,0,173315,173615,0.2,300 P,0,173315,173615,A
Sprite,Foreground,Centre,"sb\p\square.png",473,240 F,0,173815,174115,0.7,0 R,0,173815,174115,-0.09519761 V,0,173815,174115,0.2,300 P,0,173815,174115,A
Sprite,Foreground,Centre,"sb\p\square.png",412,240 F,0,173981,174281,0.7,0 R,0,173981,174281,-0.08040681 V,0,173981,174281,0.2,300 P,0,173981,174281,A
Sprite,Foreground,Centre,"sb\p\square.png",241,240 F,0,174315,174615,0.7,0 R,0,174315,174615,-0.01744836 V,0,174315,174615,0.2,300 P,0,174315,174615,A
Sprite,Foreground,Centre,"sb\p\square.png",77,240 F,0,174648,174948,0.7,0 R,0,174648,174948,0.08819006 V,0,174648,174948,0.2,300 P,0,174648,174948,A
Sprite,Foreground,Centre,"sb\p\square.png",184,240 F,0,174981,175281,0.7,0 R,0,174981,175281,-0.01766544 V,0,174981,175281,0.2,300 P,0,174981,175281,A
Sprite,Foreground,Centre,"sb\p\square.png",72,240 F,0,175148,175448,0.7,0 R,0,175148,175448,-0.1218081 V,0,175148,175448,0.2,300 P,0,175148,175448,A
Sprite,Foreground,Centre,"sb\p\square.png",312,240 F,0,175315,175615,0.7,0 R,0,175315,175615,0.01734664 V,0,175315,175615,0.2,300 P,0,175315,175615,A
Sprite,Foreground,Centre,"sb\p\square.png",80,240 F,0,175481,175781,0.7,0 R,0,175481,175781,-0.1432649 V,0,175481,175781,0.2,300 P,0,175481,175781,A
Sprite,Foreground,Centre,"sb\p\square.png",320,240 F,0,175648,175948,0.7,0 R,0,175648,175948,0.06788866 V,0,175648,175948,0.2,300 P,0,175648,175948,A
Sprite,Foreground,Centre,"sb\p\square.png",329,240 F,0,175981,176281,0.7,0 R,0,175981,176281,0.06242811 V,0,175981,176281,0.2,300 P,0,175981,176281,A
Sprite,Foreground,Centre,"sb\p\square.png",492,240 F,0,176148,176448,0.7,0 R,0,176148,176448,0.00980559 V,0,176148,176448,0.2,300 P,0,176148,176448,A
Sprite,Foreground,Centre,"sb\p\square.png",397,240 F,0,176481,176781,0.7,0 R,0,176481,176781,-0.03979772 V,0,176481,176781,0.2,300 P,0,176481,176781,A
Sprite,Foreground,Centre,"sb\p\square.png",504,240 F,0,176648,176948,0.7,0 R,0,176648,176948,0.009146436 V,0,176648,176948,0.2,300 P,0,176648,176948,A
Sprite,Foreground,Centre,"sb\p\square.png",228,240 F,0,176981,177281,0.7,0 R,0,176981,177281,-0.1446454 V,0,176981,177281,0.2,300 P,0,176981,177281,A
Sprite,Foreground,Centre,"sb\p\square.png",267,240 F,0,177315,177615,0.7,0 R,0,177315,177615,0.1408899 V,0,177315,177615,0.2,300 P,0,177315,177615,A
Sprite,Foreground,Centre,"sb\p\square.png",113,240 F,0,177648,177948,0.7,0 R,0,177648,177948,-0.108711 V,0,177648,177948,0.2,300 P,0,177648,177948,A
Sprite,Foreground,Centre,"sb\p\square.png",200,240 F,0,177815,178115,0.7,0 R,0,177815,178115,-0.1486041 V,0,177815,178115,0.2,300 P,0,177815,178115,A
Sprite,Foreground,Centre,"sb\p\square.png",228,240 F,0,177981,178281,0.7,0 R,0,177981,178281,-0.05315435 V,0,177981,178281,0.2,300 P,0,177981,178281,A
Sprite,Foreground,Centre,"sb\p\square.png",114,240 F,0,178148,178448,0.7,0 R,0,178148,178448,0.05562246 V,0,178148,178448,0.2,300 P,0,178148,178448,A
Sprite,Foreground,Centre,"sb\p\square.png",296,240 F,0,178315,178615,0.7,0 R,0,178315,178615,-0.09507237 V,0,178315,178615,0.2,300 P,0,178315,178615,A
Sprite,Foreground,Centre,"sb\p\square.png",88,240 F,0,178481,178781,0.7,0 R,0,178481,178781,-0.1044155 V,0,178481,178781,0.2,300 P,0,178481,178781,A
Sprite,Foreground,Centre,"sb\p\square.png",405,240 F,0,178648,178948,0.7,0 R,0,178648,178948,-0.1475707 V,0,178648,178948,0.2,300 P,0,178648,178948,A
Sprite,Foreground,Centre,"sb\p\square.png",321,240 F,0,179148,179448,0.7,0 R,0,179148,179448,0.1402124 V,0,179148,179448,0.2,300 P,0,179148,179448,A
Sprite,Foreground,Centre,"sb\p\square.png",531,240 F,0,179315,179615,0.7,0 R,0,179315,179615,-0.05998259 V,0,179315,179615,0.2,300 P,0,179315,179615,A
Sprite,Foreground,Centre,"sb\p\square.png",367,240 F,0,179648,179948,0.7,0 R,0,179648,179948,-0.007885243 V,0,179648,179948,0.2,300 P,0,179648,179948,A
Sprite,Foreground,Centre,"sb\p\square.png",472,240 F,0,179815,180115,0.7,0 R,0,179815,180115,-0.1302056 V,0,179815,180115,0.2,300 P,0,179815,180115,A
Sprite,Foreground,Centre,"sb\p\square.png",296,240 F,0,179981,180281,0.7,0 R,0,179981,180281,-0.05628609 V,0,179981,180281,0.2,300 P,0,179981,180281,A
Sprite,Foreground,Centre,"sb\p\square.png",110,240 F,0,180315,180615,0.7,0 R,0,180315,180615,-0.01404463 V,0,180315,180615,0.2,300 P,0,180315,180615,A
Sprite,Foreground,Centre,"sb\p\square.png",280,240 F,0,180481,180781,0.7,0 R,0,180481,180781,0.125667 V,0,180481,180781,0.2,300 P,0,180481,180781,A
Sprite,Foreground,Centre,"sb\p\square.png",109,240 F,0,180648,180948,0.7,0 R,0,180648,180948,0.09386263 V,0,180648,180948,0.2,300 P,0,180648,180948,A
Sprite,Foreground,Centre,"sb\p\square.png",78,240 F,0,180815,181115,0.7,0 R,0,180815,181115,0.01400184 V,0,180815,181115,0.2,300 P,0,180815,181115,A
Sprite,Foreground,Centre,"sb\p\square.png",357,240 F,0,180981,181281,0.7,0 R,0,180981,181281,0.06084844 V,0,180981,181281,0.2,300 P,0,180981,181281,A
Sprite,Foreground,Centre,"sb\p\square.png",64,240 F,0,181315,181615,0.7,0 R,0,181315,181615,-0.1465631 V,0,181315,181615,0.2,300 P,0,181315,181615,A
Sprite,Foreground,Centre,"sb\p\square.png",344,240 F,0,181481,181781,0.7,0 R,0,181481,181781,-0.04280924 V,0,181481,181781,0.2,300 P,0,181481,181781,A
Sprite,Foreground,Centre,"sb\p\square.png",175,240 F,0,181815,182115,0.7,0 R,0,181815,182115,-0.07888908 V,0,181815,182115,0.2,300 P,0,181815,182115,A
Sprite,Foreground,Centre,"sb\p\square.png",512,240 F,0,181981,182281,0.7,0 R,0,181981,182281,0.1408817 V,0,181981,182281,0.2,300 P,0,181981,182281,A
Sprite,Foreground,Centre,"sb\p\square.png",357,240 F,0,182315,182615,0.7,0 R,0,182315,182615,0.03569865 V,0,182315,182615,0.2,300 P,0,182315,182615,A
Sprite,Foreground,Centre,"sb\p\square.png",257,240 F,0,182648,182948,0.7,0 R,0,182648,182948,0.04705745 V,0,182648,182948,0.2,300 P,0,182648,182948,A
Sprite,Foreground,Centre,"sb\p\square.png",370,240 F,0,182981,183281,0.7,0 R,0,182981,183281,-0.1372366 V,0,182981,183281,0.2,300 P,0,182981,183281,A
Sprite,Foreground,Centre,"sb\p\square.png",176,240 F,0,183148,183448,0.7,0 R,0,183148,183448,-0.001538764 V,0,183148,183448,0.2,300 P,0,183148,183448,A
Sprite,Foreground,Centre,"sb\p\square.png",296,240 F,0,183315,183615,0.7,0 R,0,183315,183615,-0.06479175 V,0,183315,183615,0.2,300 P,0,183315,183615,A
Sprite,Foreground,Centre,"sb\p\square.png",175,240 F,0,183481,183781,0.7,0 R,0,183481,183781,0.1143127 V,0,183481,183781,0.2,300 P,0,183481,183781,A
Sprite,Foreground,Centre,"sb\p\square.png",211,240 F,0,183648,183948,0.7,0 R,0,183648,183948,0.06796455 V,0,183648,183948,0.2,300 P,0,183648,183948,A
Sprite,Foreground,Centre,"sb\p\square.png",556,240 F,0,183815,184115,0.7,0 R,0,183815,184115,-0.1221294 V,0,183815,184115,0.2,300 P,0,183815,184115,A
Sprite,Foreground,Centre,"sb\p\square.png",558,240 F,0,183898,184198,0.7,0 R,0,183898,184198,-0.08842967 V,0,183898,184198,0.2,300 P,0,183898,184198,A
Sprite,Foreground,Centre,"sb\p\square.png",561,240 F,0,183981,184281,0.7,0 R,0,183981,184281,0.0488519 V,0,183981,184281,0.2,300 P,0,183981,184281,A
Sprite,Foreground,Centre,"sb\p\square.png",299,240 F,0,184481,184781,0.7,0 R,0,184481,184781,0.01283736 V,0,184481,184781,0.2,300 P,0,184481,184781,A
Sprite,Foreground,Centre,"sb\p\square.png",248,240 F,0,184648,184948,0.7,0 R,0,184648,184948,0.1059525 V,0,184648,184948,0.2,300 P,0,184648,184948,A
Sprite,Foreground,Centre,"sb\p\square.png",260,240 F,0,184981,185281,0.7,0 R,0,184981,185281,0.08360558 V,0,184981,185281,0.2,300 P,0,184981,185281,A
Sprite,Foreground,Centre,"sb\p\square.png",313,240 F,0,185315,185615,0.7,0 R,0,185315,185615,0.02697802 V,0,185315,185615,0.2,300 P,0,185315,185615,A
Sprite,Foreground,Centre,"sb\p\square.png",161,240 F,0,185648,185948,0.7,0 R,0,185648,185948,-0.06561805 V,0,185648,185948,0.2,300 P,0,185648,185948,A
Sprite,Foreground,Centre,"sb\p\square.png",397,240 F,0,185815,186115,0.7,0 R,0,185815,186115,-0.03594908 V,0,185815,186115,0.2,300 P,0,185815,186115,A
Sprite,Foreground,Centre,"sb\p\square.png",178,240 F,0,185981,186281,0.7,0 R,0,185981,186281,0.003609584 V,0,185981,186281,0.2,300 P,0,185981,186281,A
Sprite,Foreground,Centre,"sb\p\square.png",370,240 F,0,186148,186448,0.7,0 R,0,186148,186448,0.09152597 V,0,186148,186448,0.2,300 P,0,186148,186448,A
Sprite,Foreground,Centre,"sb\p\square.png",99,240 F,0,186315,186615,0.7,0 R,0,186315,186615,-0.1134574 V,0,186315,186615,0.2,300 P,0,186315,186615,A
Sprite,Foreground,Centre,"sb\p\square.png",304,240 F,0,186648,186948,0.7,0 R,0,186648,186948,-0.09762695 V,0,186648,186948,0.2,300 P,0,186648,186948,A
Sprite,Foreground,Centre,"sb\p\square.png",123,240 F,0,186815,187115,0.7,0 R,0,186815,187115,-0.07061925 V,0,186815,187115,0.2,300 P,0,186815,187115,A
Sprite,Foreground,Centre,"sb\p\square.png",313,240 F,0,187148,187448,0.7,0 R,0,187148,187448,-0.1074658 V,0,187148,187448,0.2,300 P,0,187148,187448,A
Sprite,Foreground,Centre,"sb\p\square.png",560,240 F,0,187315,187615,0.7,0 R,0,187315,187615,-0.0539247 V,0,187315,187615,0.2,300 P,0,187315,187615,A
Sprite,Foreground,Centre,"sb\p\square.png",304,240 F,0,187648,187948,0.7,0 R,0,187648,187948,-0.03745984 V,0,187648,187948,0.2,300 P,0,187648,187948,A
Sprite,Foreground,Centre,"sb\p\square.png",210,240 F,0,187981,188281,0.7,0 R,0,187981,188281,0.08447797 V,0,187981,188281,0.2,300 P,0,187981,188281,A
Sprite,Foreground,Centre,"sb\p\square.png",257,240 F,0,188315,188615,0.7,0 R,0,188315,188615,-0.1186087 V,0,188315,188615,0.2,300 P,0,188315,188615,A
Sprite,Foreground,Centre,"sb\p\square.png",88,240 F,0,188481,188781,0.7,0 R,0,188481,188781,-0.1189319 V,0,188481,188781,0.2,300 P,0,188481,188781,A
Sprite,Foreground,Centre,"sb\p\square.png",344,240 F,0,188648,188948,0.7,0 R,0,188648,188948,0.124026 V,0,188648,188948,0.2,300 P,0,188648,188948,A
Sprite,Foreground,Centre,"sb\p\square.png",144,240 F,0,188815,189115,0.7,0 R,0,188815,189115,-0.1015737 V,0,188815,189115,0.2,300 P,0,188815,189115,A
Sprite,Foreground,Centre,"sb\p\square.png",408,240 F,0,188981,189281,0.7,0 R,0,188981,189281,0.09895715 V,0,188981,189281,0.2,300 P,0,188981,189281,A
Sprite,Foreground,Centre,"sb\p\square.png",114,240 F,0,189148,189448,0.7,0 R,0,189148,189448,-0.04323459 V,0,189148,189448,0.2,300 P,0,189148,189448,A
Sprite,Foreground,Centre,"sb\p\square.png",488,240 F,0,189315,189615,0.7,0 R,0,189315,189615,-0.09804432 V,0,189315,189615,0.2,300 P,0,189315,189615,A
Sprite,Foreground,Centre,"sb\p\square.png",248,240 F,0,189815,190115,0.7,0 R,0,189815,190115,0.0842437 V,0,189815,190115,0.2,300 P,0,189815,190115,A
Sprite,Foreground,Centre,"sb\p\square.png",518,240 F,0,189981,190281,0.7,0 R,0,189981,190281,-0.1499918 V,0,189981,190281,0.2,300 P,0,189981,190281,A
Sprite,Foreground,Centre,"sb\p\square.png",408,240 F,0,190315,190615,0.7,0 R,0,190315,190615,0.005590306 V,0,190315,190615,0.2,300 P,0,190315,190615,A
Sprite,Foreground,Centre,"sb\p\square.png",435,240 F,0,190481,190781,0.7,0 R,0,190481,190781,-0.04566157 V,0,190481,190781,0.2,300 P,0,190481,190781,A
Sprite,Foreground,Centre,"sb\p\square.png",537,240 F,0,190648,190948,0.7,0 R,0,190648,190948,-0.0659178 V,0,190648,190948,0.2,300 P,0,190648,190948,A
Sprite,Foreground,Centre,"sb\p\square.png",488,240 F,0,190982,191282,0.7,0 R,0,190982,191282,-0.09283877 V,0,190982,191282,0.2,300 P,0,190982,191282,A
Sprite,Foreground,Centre,"sb\p\square.png",376,240 F,0,191148,191448,0.7,0 R,0,191148,191448,0.1197194 V,0,191148,191448,0.2,300 P,0,191148,191448,A
Sprite,Foreground,Centre,"sb\p\square.png",352,240 F,0,191315,191615,0.7,0 R,0,191315,191615,-0.06872822 V,0,191315,191615,0.2,300 P,0,191315,191615,A
Sprite,Foreground,Centre,"sb\p\square.png",460,240 F,0,191481,191781,0.7,0 R,0,191481,191781,-0.06553521 V,0,191481,191781,0.2,300 P,0,191481,191781,A
Sprite,Foreground,Centre,"sb\p\square.png",241,240 F,0,191648,191948,0.7,0 R,0,191648,191948,0.1123418 V,0,191648,191948,0.2,300 P,0,191648,191948,A
Sprite,Foreground,Centre,"sb\p\square.png",256,240 F,0,191981,192281,0.7,0 R,0,191981,192281,-0.1215529 V,0,191981,192281,0.2,300 P,0,191981,192281,A
Sprite,Foreground,Centre,"sb\p\square.png",96,240 F,0,192148,192448,0.7,0 R,0,192148,192448,0.09326286 V,0,192148,192448,0.2,300 P,0,192148,192448,A
Sprite,Foreground,Centre,"sb\p\square.png",163,240 F,0,192481,192781,0.7,0 R,0,192481,192781,0.006957039 V,0,192481,192781,0.2,300 P,0,192481,192781,A
Sprite,Foreground,Centre,"sb\p\square.png",73,240 F,0,192648,192948,0.7,0 R,0,192648,192948,-0.01223857 V,0,192648,192948,0.2,300 P,0,192648,192948,A
Sprite,Foreground,Centre,"sb\p\square.png",344,240 F,0,192981,193281,0.7,0 R,0,192981,193281,0.05234979 V,0,192981,193281,0.2,300 P,0,192981,193281,A
Sprite,Foreground,Centre,"sb\p\square.png",372,240 F,0,193315,193615,0.7,0 R,0,193315,193615,-0.051311 V,0,193315,193615,0.2,300 P,0,193315,193615,A
Sprite,Foreground,Centre,"sb\p\square.png",414,240 F,0,193648,193948,0.7,0 R,0,193648,193948,0.009480678 V,0,193648,193948,0.2,300 P,0,193648,193948,A
Sprite,Foreground,Centre,"sb\p\square.png",528,240 F,0,193815,194115,0.7,0 R,0,193815,194115,-0.1000491 V,0,193815,194115,0.2,300 P,0,193815,194115,A
Sprite,Foreground,Centre,"sb\p\square.png",529,240 F,0,193898,194198,0.7,0 R,0,193898,194198,-0.09276114 V,0,193898,194198,0.2,300 P,0,193898,194198,A
Sprite,Foreground,Centre,"sb\p\square.png",530,240 F,0,193981,194281,0.7,0 R,0,193981,194281,-0.0880891 V,0,193981,194281,0.2,300 P,0,193981,194281,A
Sprite,Foreground,Centre,"sb\p\square.png",380,240 F,0,194148,194448,0.7,0 R,0,194148,194448,-0.0793518 V,0,194148,194448,0.2,300 P,0,194148,194448,A
Sprite,Foreground,Centre,"sb\p\square.png",576,240 F,0,194315,194615,0.7,0 R,0,194315,194615,-0.1312621 V,0,194315,194615,0.2,300 P,0,194315,194615,A
Sprite,Foreground,Centre,"sb\p\square.png",368,240 F,0,194648,194948,0.7,0 R,0,194648,194948,0.06150096 V,0,194648,194948,0.2,300 P,0,194648,194948,A
Sprite,Foreground,Centre,"sb\p\square.png",260,240 F,0,194981,195281,0.7,0 R,0,194981,195281,-0.00683559 V,0,194981,195281,0.2,300 P,0,194981,195281,A
Sprite,Foreground,Centre,"sb\p\square.png",82,240 F,0,195315,195615,0.7,0 R,0,195315,195615,-0.04901785 V,0,195315,195615,0.2,300 P,0,195315,195615,A
Sprite,Foreground,Centre,"sb\p\square.png",368,240 F,0,195648,195948,0.7,0 R,0,195648,195948,0.05022329 V,0,195648,195948,0.2,300 P,0,195648,195948,A
Sprite,Foreground,Centre,"sb\p\square.png",160,240 F,0,195815,196115,0.7,0 R,0,195815,196115,0.06398327 V,0,195815,196115,0.2,300 P,0,195815,196115,A
Sprite,Foreground,Centre,"sb\p\square.png",240,240 F,0,196148,196448,0.7,0 R,0,196148,196448,-0.09618302 V,0,196148,196448,0.2,300 P,0,196148,196448,A
Sprite,Foreground,Centre,"sb\p\square.png",204,240 F,0,196315,196615,0.7,0 R,0,196315,196615,0.08324462 V,0,196315,196615,0.2,300 P,0,196315,196615,A
Sprite,Foreground,Centre,"sb\p\square.png",128,240 F,0,196481,196781,0.7,0 R,0,196481,196781,0.09393852 V,0,196481,196781,0.2,300 P,0,196481,196781,A
Sprite,Foreground,Centre,"sb\p\square.png",380,240 F,0,196648,196948,0.7,0 R,0,196648,196948,0.1294443 V,0,196648,196948,0.2,300 P,0,196648,196948,A
Sprite,Foreground,Centre,"sb\p\square.png",432,240 F,0,196815,197115,0.7,0 R,0,196815,197115,-0.03738683 V,0,196815,197115,0.2,300 P,0,196815,197115,A
Sprite,Foreground,Centre,"sb\p\square.png",189,240 F,0,196981,197281,0.7,0 R,0,196981,197281,-0.05791351 V,0,196981,197281,0.2,300 P,0,196981,197281,A
Sprite,Foreground,Centre,"sb\p\square.png",551,240 F,0,197315,197615,0.7,0 R,0,197315,197615,-0.03911832 V,0,197315,197615,0.2,300 P,0,197315,197615,A
Sprite,Foreground,Centre,"sb\p\square.png",452,240 F,0,197648,197948,0.7,0 R,0,197648,197948,-0.1282912 V,0,197648,197948,0.2,300 P,0,197648,197948,A
Sprite,Foreground,Centre,"sb\p\square.png",258,240 F,0,197981,198281,0.7,0 R,0,197981,198281,0.08359738 V,0,197981,198281,0.2,300 P,0,197981,198281,A
Sprite,Foreground,Centre,"sb\p\square.png",496,240 F,0,198148,198448,0.7,0 R,0,198148,198448,-0.1286123 V,0,198148,198448,0.2,300 P,0,198148,198448,A
Sprite,Foreground,Centre,"sb\p\square.png",369,240 F,0,198315,198615,0.7,0 R,0,198315,198615,0.1300435 V,0,198315,198615,0.2,300 P,0,198315,198615,A
Sprite,Foreground,Centre,"sb\p\square.png",232,240 F,0,198481,198781,0.7,0 R,0,198481,198781,-0.1200313 V,0,198481,198781,0.2,300 P,0,198481,198781,A
Sprite,Foreground,Centre,"sb\p\square.png",283,240 F,0,198815,199115,0.7,0 R,0,198815,199115,-0.05355164 V,0,198815,199115,0.2,300 P,0,198815,199115,A
Sprite,Foreground,Centre,"sb\p\square.png",312,240 F,0,198981,199281,0.7,0 R,0,198981,199281,0.1218066 V,0,198981,199281,0.2,300 P,0,198981,199281,A
Sprite,Foreground,Centre,"sb\p\square.png",160,240 F,0,199148,199448,0.7,0 R,0,199148,199448,0.1052708 V,0,199148,199448,0.2,300 P,0,199148,199448,A
Sprite,Foreground,Centre,"sb\p\square.png",350,240 F,0,199315,199615,0.7,0 R,0,199315,199615,0.1179083 V,0,199315,199615,0.2,300 P,0,199315,199615,A
Sprite,Foreground,Centre,"sb\p\square.png",264,240 F,0,199481,199781,0.7,0 R,0,199481,199781,-0.03296107 V,0,199481,199781,0.2,300 P,0,199481,199781,A
Sprite,Foreground,Centre,"sb\p\square.png",120,240 F,0,199648,199948,0.7,0 R,0,199648,199948,-0.1359129 V,0,199648,199948,0.2,300 P,0,199648,199948,A
Sprite,Foreground,Centre,"sb\p\square.png",343,240 F,0,199815,200115,0.7,0 R,0,199815,200115,0.002812438 V,0,199815,200115,0.2,300 P,0,199815,200115,A
Sprite,Foreground,Centre,"sb\p\square.png",520,240 F,0,199981,200281,0.7,0 R,0,199981,200281,0.1055831 V,0,199981,200281,0.2,300 P,0,199981,200281,A
Sprite,Foreground,Centre,"sb\p\square.png",507,240 F,0,200315,200615,0.7,0 R,0,200315,200615,-0.05328346 V,0,200315,200615,0.2,300 P,0,200315,200615,A
Sprite,Foreground,Centre,"sb\p\square.png",488,240 F,0,200648,200948,0.7,0 R,0,200648,200948,-0.02095852 V,0,200648,200948,0.2,300 P,0,200648,200948,A
Sprite,Foreground,Centre,"sb\p\square.png",456,240 F,0,200981,201281,0.7,0 R,0,200981,201281,0.08237906 V,0,200981,201281,0.2,300 P,0,200981,201281,A
Sprite,Foreground,Centre,"sb\p\square.png",325,240 F,0,201148,201448,0.7,0 R,0,201148,201448,-0.03545464 V,0,201148,201448,0.2,300 P,0,201148,201448,A
Sprite,Foreground,Centre,"sb\p\square.png",507,240 F,0,201481,201781,0.7,0 R,0,201481,201781,0.1484753 V,0,201481,201781,0.2,300 P,0,201481,201781,A
Sprite,Foreground,Centre,"sb\p\square.png",248,240 F,0,201648,201948,0.7,0 R,0,201648,201948,0.04171829 V,0,201648,201948,0.2,300 P,0,201648,201948,A
Sprite,Foreground,Centre,"sb\p\square.png",422,240 F,0,201815,202115,0.7,0 R,0,201815,202115,-0.1051455 V,0,201815,202115,0.2,300 P,0,201815,202115,A
Sprite,Foreground,Centre,"sb\p\square.png",216,240 F,0,201981,202281,0.7,0 R,0,201981,202281,0.1313075 V,0,201981,202281,0.2,300 P,0,201981,202281,A
Sprite,Foreground,Centre,"sb\p\square.png",421,240 F,0,202148,202448,0.7,0 R,0,202148,202448,0.06550582 V,0,202148,202448,0.2,300 P,0,202148,202448,A
Sprite,Foreground,Centre,"sb\p\square.png",160,240 F,0,202315,202615,0.7,0 R,0,202315,202615,-0.06149277 V,0,202315,202615,0.2,300 P,0,202315,202615,A
Sprite,Foreground,Centre,"sb\p\square.png",270,240 F,0,202648,202948,0.7,0 R,0,202648,202948,-0.1375741 V,0,202648,202948,0.2,300 P,0,202648,202948,A
Sprite,Foreground,Centre,"sb\p\square.png",156,240 F,0,202981,203281,0.7,0 R,0,202981,203281,-0.1466437 V,0,202981,203281,0.2,300 P,0,202981,203281,A
Sprite,Foreground,Centre,"sb\p\square.png",136,240 F,0,203315,203615,0.7,0 R,0,203315,203615,0.03385891 V,0,203315,203615,0.2,300 P,0,203315,203615,A
Sprite,Foreground,Centre,"sb\p\square.png",320,240 F,0,203481,203781,0.7,0 R,0,203481,203781,-0.006822045 V,0,203481,203781,0.2,300 P,0,203481,203781,A
Sprite,Foreground,Centre,"sb\p\square.png",440,240 F,0,203648,203948,0.7,0 R,0,203648,203948,0.0659024 V,0,203648,203948,0.2,300 P,0,203648,203948,A
Sprite,Foreground,Centre,"sb\p\square.png",552,240 F,0,203981,204281,0.7,0 R,0,203981,204281,-0.001972839 V,0,203981,204281,0.2,300 P,0,203981,204281,A
Sprite,Foreground,Centre,"sb\p\square.png",389,240 F,0,204315,204615,0.7,0 R,0,204315,204615,-0.009473728 V,0,204315,204615,0.2,300 P,0,204315,204615,A
Sprite,Foreground,Centre,"sb\p\square.png",546,240 F,0,204481,204781,0.7,0 R,0,204481,204781,0.1328975 V,0,204481,204781,0.2,300 P,0,204481,204781,A
Sprite,Foreground,Centre,"sb\p\square.png",280,240 F,0,204815,205115,0.7,0 R,0,204815,205115,0.06583391 V,0,204815,205115,0.2,300 P,0,204815,205115,A
Sprite,Foreground,Centre,"sb\p\square.png",521,240 F,0,205315,205615,0.7,0 R,0,205315,205615,0.001176373 V,0,205315,205615,0.2,300 P,0,205315,205615,A
Sprite,Foreground,Centre,"sb\p\square.png",462,240 F,0,205648,205948,0.7,0 R,0,205648,205948,-0.1039246 V,0,205648,205948,0.2,300 P,0,205648,205948,A
Sprite,Foreground,Centre,"sb\p\square.png",200,240 F,0,205981,206281,0.7,0 R,0,205981,206281,-0.03394736 V,0,205981,206281,0.2,300 P,0,205981,206281,A
Sprite,Foreground,Centre,"sb\p\square.png",440,240 F,0,206315,206615,0.7,0 R,0,206315,206615,0.1187524 V,0,206315,206615,0.2,300 P,0,206315,206615,A
Sprite,Foreground,Centre,"sb\p\square.png",232,240 F,0,206481,206781,0.7,0 R,0,206481,206781,-0.07269871 V,0,206481,206781,0.2,300 P,0,206481,206781,A
Sprite,Foreground,Centre,"sb\p\square.png",368,240 F,0,206815,207115,0.7,0 R,0,206815,207115,0.02943716 V,0,206815,207115,0.2,300 P,0,206815,207115,A
Sprite,Foreground,Centre,"sb\p\square.png",152,240 F,0,206981,207281,0.7,0 R,0,206981,207281,-0.1300178 V,0,206981,207281,0.2,300 P,0,206981,207281,A
Sprite,Foreground,Centre,"sb\p\square.png",296,240 F,0,207148,207448,0.7,0 R,0,207148,207448,0.1107905 V,0,207148,207448,0.2,300 P,0,207148,207448,A
Sprite,Foreground,Centre,"sb\p\square.png",366,240 F,0,207315,207615,0.7,0 R,0,207315,207615,-0.05989569 V,0,207315,207615,0.2,300 P,0,207315,207615,A
Sprite,Foreground,Centre,"sb\p\square.png",432,240 F,0,207481,207781,0.7,0 R,0,207481,207781,-0.03462256 V,0,207481,207781,0.2,300 P,0,207481,207781,A
Sprite,Foreground,Centre,"sb\p\square.png",168,240 F,0,207648,207948,0.7,0 R,0,207648,207948,-0.09917037 V,0,207648,207948,0.2,300 P,0,207648,207948,A
Sprite,Foreground,Centre,"sb\p\square.png",232,240 F,0,207981,208281,0.7,0 R,0,207981,208281,-0.05553797 V,0,207981,208281,0.2,300 P,0,207981,208281,A
Sprite,Foreground,Centre,"sb\p\square.png",397,240 F,0,208315,208615,0.7,0 R,0,208315,208615,-0.02092274 V,0,208315,208615,0.2,300 P,0,208315,208615,A
Sprite,Foreground,Centre,"sb\p\square.png",496,240 F,0,208648,208948,0.7,0 R,0,208648,208948,0.09816971 V,0,208648,208948,0.2,300 P,0,208648,208948,A
Sprite,Foreground,Centre,"sb\p\square.png",322,240 F,0,208981,209281,0.7,0 R,0,208981,209281,0.09464017 V,0,208981,209281,0.2,300 P,0,208981,209281,A
Sprite,Foreground,Centre,"sb\p\square.png",448,240 F,0,209148,209448,0.7,0 R,0,209148,209448,-0.03273327 V,0,209148,209448,0.2,300 P,0,209148,209448,A
Sprite,Foreground,Centre,"sb\p\square.png",301,240 F,0,209481,209781,0.7,0 R,0,209481,209781,0.0747755 V,0,209481,209781,0.2,300 P,0,209481,209781,A
Sprite,Foreground,Centre,"sb\p\square.png",390,240 F,0,209648,209948,0.7,0 R,0,209648,209948,-0.1491344 V,0,209648,209948,0.2,300 P,0,209648,209948,A
Sprite,Foreground,Centre,"sb\p\square.png",389,240 F,0,209815,210115,0.7,0 R,0,209815,210115,-0.02060684 V,0,209815,210115,0.2,300 P,0,209815,210115,A
Sprite,Foreground,Centre,"sb\p\square.png",248,240 F,0,209981,210281,0.7,0 R,0,209981,210281,0.130969 V,0,209981,210281,0.2,300 P,0,209981,210281,A
Sprite,Foreground,Centre,"sb\p\square.png",136,240 F,0,210148,210448,0.7,0 R,0,210148,210448,0.07089488 V,0,210148,210448,0.2,300 P,0,210148,210448,A
Sprite,Foreground,Centre,"sb\p\square.png",312,240 F,0,210315,210615,0.7,0 R,0,210315,210615,-0.102768 V,0,210315,210615,0.2,300 P,0,210315,210615,A
Sprite,Foreground,Centre,"sb\p\square.png",64,240 F,0,210481,210781,0.7,0 R,0,210481,210781,-0.02042579 V,0,210481,210781,0.2,300 P,0,210481,210781,A
Sprite,Foreground,Centre,"sb\p\square.png",390,240 F,0,210648,210948,0.7,0 R,0,210648,210948,-0.04379703 V,0,210648,210948,0.2,300 P,0,210648,210948,A
Sprite,Foreground,Centre,"sb\p\square.png",480,240 F,0,210981,211281,0.7,0 R,0,210981,211281,-0.004909844 V,0,210981,211281,0.2,300 P,0,210981,211281,A
Sprite,Foreground,Centre,"sb\p\square.png",576,240 F,0,211315,211615,0.7,0 R,0,211315,211615,-0.1410382 V,0,211315,211615,0.2,300 P,0,211315,211615,A
Sprite,Foreground,Centre,"sb\p\square.png",390,240 F,0,211481,211781,0.7,0 R,0,211481,211781,0.1266872 V,0,211481,211781,0.2,300 P,0,211481,211781,A
Sprite,Foreground,Centre,"sb\p\square.png",568,240 F,0,211648,211948,0.7,0 R,0,211648,211948,-0.003890204 V,0,211648,211948,0.2,300 P,0,211648,211948,A
Sprite,Foreground,Centre,"sb\p\square.png",268,240 F,0,211815,212115,0.7,0 R,0,211815,212115,0.1032704 V,0,211815,212115,0.2,300 P,0,211815,212115,A
Sprite,Foreground,Centre,"sb\p\square.png",440,240 F,0,212148,212448,0.7,0 R,0,212148,212448,-0.09409582 V,0,212148,212448,0.2,300 P,0,212148,212448,A
Sprite,Foreground,Centre,"sb\p\square.png",296,240 F,0,212315,212615,0.7,0 R,0,212315,212615,-0.04275639 V,0,212315,212615,0.2,300 P,0,212315,212615,A
Sprite,Foreground,Centre,"sb\p\square.png",200,240 F,0,212481,212781,0.7,0 R,0,212481,212781,-0.02261802 V,0,212481,212781,0.2,300 P,0,212481,212781,A
Sprite,Foreground,Centre,"sb\p\square.png",464,240 F,0,212648,212948,0.7,0 R,0,212648,212948,-0.01585855 V,0,212648,212948,0.2,300 P,0,212648,212948,A
Sprite,Foreground,Centre,"sb\p\square.png",272,240 F,0,212815,213115,0.7,0 R,0,212815,213115,-0.05174676 V,0,212815,213115,0.2,300 P,0,212815,213115,A
Sprite,Foreground,Centre,"sb\p\square.png",152,240 F,0,212981,213281,0.7,0 R,0,212981,213281,-0.1483639 V,0,212981,213281,0.2,300 P,0,212981,213281,A
Sprite,Foreground,Centre,"sb\p\square.png",360,240 F,0,213315,213615,0.7,0 R,0,213315,213615,0.05950777 V,0,213315,213615,0.2,300 P,0,213315,213615,A
Sprite,Foreground,Centre,"sb\p\square.png",330,240 F,0,213648,213948,0.7,0 R,0,213648,213948,0.1306639 V,0,213648,213948,0.2,300 P,0,213648,213948,A
Sprite,Foreground,Centre,"sb\p\square.png",112,240 F,0,213981,214281,0.7,0 R,0,213981,214281,0.01028907 V,0,213981,214281,0.2,300 P,0,213981,214281,A
Sprite,Foreground,Centre,"sb\p\square.png",208,240 F,0,214148,214448,0.7,0 R,0,214148,214448,0.005077771 V,0,214148,214448,0.2,300 P,0,214148,214448,A
Sprite,Foreground,Centre,"sb\p\square.png",260,240 F,0,214315,214615,0.7,0 R,0,214315,214615,0.0851082 V,0,214315,214615,0.2,300 P,0,214315,214615,A
Sprite,Foreground,Centre,"sb\p\square.png",544,240 F,0,214648,214948,0.7,0 R,0,214648,214948,0.1284931 V,0,214648,214948,0.2,300 P,0,214648,214948,A
Sprite,Foreground,Centre,"sb\p\square.png",384,240 F,0,214815,215115,0.7,0 R,0,214815,215115,0.0809278 V,0,214815,215115,0.2,300 P,0,214815,215115,A
Sprite,Foreground,Centre,"sb\p\square.png",496,240 F,0,214981,215281,0.7,0 R,0,214981,215281,0.1047502 V,0,214981,215281,0.2,300 P,0,214981,215281,A
Sprite,Foreground,Centre,"sb\p\square.png",448,240 F,0,215148,215448,0.7,0 R,0,215148,215448,0.01593004 V,0,215148,215448,0.2,300 P,0,215148,215448,A
Sprite,Foreground,Centre,"sb\p\square.png",552,240 F,0,215315,215615,0.7,0 R,0,215315,215615,0.0146762 V,0,215315,215615,0.2,300 P,0,215315,215615,A
Sprite,Foreground,Centre,"sb\p\square.png",296,240 F,0,215481,215781,0.7,0 R,0,215481,215781,0.1440452 V,0,215481,215781,0.2,300 P,0,215481,215781,A
Sprite,Foreground,Centre,"sb\p\square.png",207,240 F,0,215648,215948,0.7,0 R,0,215648,215948,0.03334864 V,0,215648,215948,0.2,300 P,0,215648,215948,A
Sprite,Foreground,Centre,"sb\p\square.png",112,240 F,0,215815,216115,0.7,0 R,0,215815,216115,-0.09481344 V,0,215815,216115,0.2,300 P,0,215815,216115,A
Sprite,Foreground,Centre,"sb\v.png",320,240 F,0,-581,-81,0,1 S,0,-81,,0.46 F,0,239981,240481,1,0
Sprite,Foreground,Centre,"sb\l\_000.png",0,0 M,19,3709,3809,280,400,310,400 F,0,3709,3809,0,1 S,0,3809,,0.5 M,0,3809,5979,310,400,330,400 M,18,5979,6079,330,400,370,400 F,0,5979,6079,1,0
Sprite,Foreground,Centre,"sb\l\_001.png",0,0 M,19,6379,6479,280,400,310,400 F,0,6379,6479,0,1 S,0,6479,,0.5 M,0,6479,8479,310,400,330,400 M,18,8479,8579,330,400,370,400 F,0,8479,8579,1,0
Sprite,Foreground,Centre,"sb\l\_002.png",0,0 M,19,8879,8979,280,400,310,400 F,0,8879,8979,0,1 S,0,8979,,0.5 M,0,8979,10809,310,400,330,400 M,18,10809,10909,330,400,370,400 F,0,10809,10909,1,0
Sprite,Foreground,Centre,"sb\l\_003.png",0,0 M,19,11039,11139,280,400,310,400 F,0,11039,11139,0,1 S,0,11139,,0.5 M,0,11139,13309,310,400,330,400 M,18,13309,13409,330,400,370,400 F,0,13309,13409,1,0
Sprite,Foreground,Centre,"sb\l\_004.png",0,0 M,19,14379,14479,280,400,310,400 F,0,14379,14479,0,1 S,0,14479,,0.5 M,0,14479,16979,310,400,330,400 M,18,16979,17079,330,400,370,400 F,0,16979,17079,1,0
Sprite,Foreground,Centre,"sb\l\_005.png",0,0 M,19,17209,17309,280,400,310,400 F,0,17209,17309,0,1 S,0,17309,,0.5 M,0,17309,19309,310,400,330,400 M,18,19309,19409,330,400,370,400 F,0,19309,19409,1,0
Sprite,Foreground,Centre,"sb\l\_006.png",0,0 M,19,19539,19639,280,400,310,400 F,0,19539,19639,0,1 S,0,19639,,0.5 M,0,19639,21649,310,400,330,400 M,18,21649,21749,330,400,370,400 F,0,21649,21749,1,0
Sprite,Foreground,Centre,"sb\l\_007.png",0,0 M,19,21709,21809,280,400,310,400 F,0,21709,21809,0,1 S,0,21809,,0.5 M,0,21809,23979,310,400,330,400 M,18,23979,24079,330,400,370,400 F,0,23979,24079,1,0
Sprite,Foreground,Centre,"sb\l\_008.png",0,0 M,19,25049,25149,280,400,310,400 F,0,25049,25149,0,1 S,0,25149,,0.5 M,0,25149,27309,310,400,330,400 M,18,27309,27409,330,400,370,400 F,0,27309,27409,1,0
Sprite,Foreground,Centre,"sb\l\_009.png",0,0 M,19,27709,27809,280,400,310,400 F,0,27709,27809,0,1 S,0,27809,,0.5 M,0,27809,29979,310,400,330,400 M,18,29979,30079,330,400,370,400 F,0,29979,30079,1,0
Sprite,Foreground,Centre,"sb\l\_00a.png",0,0 M,19,30209,30309,280,400,310,400 F,0,30209,30309,0,1 S,0,30309,,0.5 M,0,30309,32309,310,400,330,400 M,18,32309,32409,330,400,370,400 F,0,32309,32409,1,0
Sprite,Foreground,Centre,"sb\l\_00b.png",0,0 M,19,35379,35479,280,400,310,400 F,0,35379,35479,0,1 S,0,35479,,0.5 M,0,35479,37649,310,400,330,400 M,18,37649,37749,330,400,370,400 F,0,37649,37749,1,0
Sprite,Foreground,Centre,"sb\l\_00c.png",0,0 M,19,38209,38309,280,400,310,400 F,0,38209,38309,0,1 S,0,38309,,0.5 M,0,38309,40649,310,400,330,400 M,18,40649,40749,330,400,370,400 F,0,40649,40749,1,0
Sprite,Foreground,Centre,"sb\l\_00d.png",0,0 M,19,41049,41149,280,400,310,400 F,0,41049,41149,0,1 S,0,41149,,0.5 M,0,41149,42979,310,400,330,400 M,18,42979,43079,330,400,370,400 F,0,42979,43079,1,0
Sprite,Foreground,Centre,"sb\l\_00e.png",0,0 M,19,110379,110479,280,400,310,400 F,0,110379,110479,0,1 S,0,110479,,0.5 M,0,110479,112809,310,400,330,400 M,18,112809,112909,330,400,370,400 F,0,112809,112909,1,0
Sprite,Foreground,Centre,"sb\l\_00f.png",0,0 M,19,113049,113149,280,400,310,400 F,0,113049,113149,0,1 S,0,113149,,0.5 M,0,113149,115149,310,400,330,400 M,18,115149,115249,330,400,370,400 F,0,115149,115249,1,0
Sprite,Foreground,Centre,"sb\l\_010.png",0,0 M,19,115709,115809,280,400,310,400 F,0,115709,115809,0,1 S,0,115809,,0.5 M,0,115809,117479,310,400,330,400 M,18,117479,117579,330,400,370,400 F,0,117479,117579,1,0
Sprite,Foreground,Centre,"sb\l\_011.png",0,0 M,19,117549,117649,280,400,310,400 F,0,117549,117649,0,1 S,0,117649,,0.5 M,0,117649,119979,310,400,330,400 M,18,119979,120079,330,400,370,400 F,0,119979,120079,1,0
Sprite,Foreground,Centre,"sb\l\_004.png",0,0 M,19,121049,121149,280,400,310,400 F,0,121049,121149,0,1 S,0,121149,,0.5 M,0,121149,123639,310,400,330,400 M,18,123639,123739,330,400,370,400 F,0,123639,123739,1,0
Sprite,Foreground,Centre,"sb\l\_005.png",0,0 M,19,123879,123979,280,400,310,400 F,0,123879,123979,0,1 S,0,123979,,0.5 M,0,123979,125809,310,400,330,400 M,18,125809,125909,330,400,370,400 F,0,125809,125909,1,0
Sprite,Foreground,Centre,"sb\l\_006.png",0,0 M,19,126379,126479,280,400,310,400 F,0,126379,126479,0,1 S,0,126479,,0.5 M,0,126479,128309,310,400,330,400 M,18,128309,128409,330,400,370,400 F,0,128309,128409,1,0
Sprite,Foreground,Centre,"sb\l\_007.png",0,0 M,19,128379,128479,280,400,310,400 F,0,128379,128479,0,1 S,0,128479,,0.5 M,0,128479,130649,310,400,330,400 M,18,130649,130749,330,400,370,400 F,0,130649,130749,1,0
Sprite,Foreground,Centre,"sb\l\_008.png",0,0 M,19,131709,131809,280,400,310,400 F,0,131709,131809,0,1 S,0,131809,,0.5 M,0,131809,133809,310,400,330,400 M,18,133809,133909,330,400,370,400 F,0,133809,133909,1,0
Sprite,Foreground,Centre,"sb\l\_009.png",0,0 M,19,134379,134479,280,400,310,400 F,0,134379,134479,0,1 S,0,134479,,0.5 M,0,134479,136649,310,400,330,400 M,18,136649,136749,330,400,370,400 F,0,136649,136749,1,0
Sprite,Foreground,Centre,"sb\l\_00a.png",0,0 M,19,136879,136979,280,400,310,400 F,0,136879,136979,0,1 S,0,136979,,0.5 M,0,136979,138979,310,400,330,400 M,18,138979,139079,330,400,370,400 F,0,138979,139079,1,0
Sprite,Foreground,Centre,"sb\l\_00b.png",0,0 M,19,142049,142149,280,400,310,400 F,0,142049,142149,0,1 S,0,142149,,0.5 M,0,142149,144319,310,400,330,400 M,18,144319,144419,330,400,370,400 F,0,144319,144419,1,0
Sprite,Foreground,Centre,"sb\l\_00c.png",0,0 M,19,144709,144809,280,400,310,400 F,0,144709,144809,0,1 S,0,144809,,0.5 M,0,144809,147149,310,400,330,400 M,18,147149,147249,330,400,370,400 F,0,147149,147249,1,0
Sprite,Foreground,Centre,"sb\l\_00d.png",0,0 M,19,147709,147809,280,400,310,400 F,0,147709,147809,0,1 S,0,147809,,0.5 M,0,147809,149649,310,400,330,400 M,18,149649,149749,330,400,370,400 F,0,149649,149749,1,0
Sprite,Foreground,Centre,"sb\l\_012.png",0,0 M,19,215879,215979,280,400,310,400 F,0,215879,215979,0,1 S,0,215979,,0.5 M,0,215979,218479,310,400,330,400 M,18,218479,218579,330,400,370,400 F,0,218479,218579,1,0
Sprite,Foreground,Centre,"sb\l\_013.png",0,0 M,19,219379,219479,280,400,310,400 F,0,219379,219479,0,1 S,0,219479,,0.5 M,0,219479,221809,310,400,330,400 M,18,221809,221909,330,400,370,400 F,0,221809,221909,1,0
Sprite,Foreground,Centre,"sb\l\_013.png",0,0 M,19,222049,222149,280,400,310,400 F,0,222049,222149,0,1 S,0,222149,,0.5 M,0,222149,224979,310,400,330,400 M,18,224979,225079,330,400,370,400 F,0,224979,225079,1,0
Sprite,Foreground,Centre,"sb\l\_012.png",0,0 M,19,226549,226649,280,400,310,400 F,0,226549,226649,0,1 S,0,226649,,0.5 M,0,226649,229149,310,400,330,400 M,18,229149,229249,330,400,370,400 F,0,229149,229249,1,0
Sprite,Foreground,Centre,"sb\l\_013.png",0,0 M,19,230049,230149,280,400,310,400 F,0,230049,230149,0,1 S,0,230149,,0.5 M,0,230149,232479,310,400,330,400 M,18,232479,232579,330,400,370,400 F,0,232479,232579,1,0
Sprite,Foreground,Centre,"sb\l\_013.png",0,0 M,19,232709,232809,280,400,310,400 F,0,232709,232809,0,1 S,0,232809,,0.5 M,0,232809,235639,310,400,330,400 M,18,235639,235739,330,400,370,400 F,0,235639,235739,1,0
Sprite,Foreground,Centre,"sb\l2\_000.png",0,0 M,19,45309,45409,810,240,330,240 F,0,45309,45409,0,1 S,0,45409,,0.5 M,0,45409,47909,330,240,310,240 M,18,47909,48009,310,240,-140,240 F,0,47909,48009,1,0
Sprite,Foreground,Centre,"sb\l2\_001.png",0,0 M,19,48709,48809,810,240,330,240 F,0,48709,48809,0,1 S,0,48809,,0.5 M,0,48809,51149,330,240,310,240 M,18,51149,51249,310,240,-140,240 F,0,51149,51249,1,0
Sprite,Foreground,Centre,"sb\l2\_001.png",0,0 M,19,51379,51479,810,240,330,240 F,0,51379,51479,0,1 S,0,51479,,0.5 M,0,51479,54309,330,240,310,240 M,18,54309,54409,310,240,-140,240 F,0,54309,54409,1,0
Sprite,Foreground,Centre,"sb\l2\_000.png",0,0 M,19,55879,55979,810,240,330,240 F,0,55879,55979,0,1 S,0,55979,,0.5 M,0,55979,58479,330,240,310,240 M,18,58479,58579,310,240,-140,240 F,0,58479,58579,1,0
Sprite,Foreground,Centre,"sb\l2\_001.png",0,0 M,19,59379,59479,810,240,330,240 F,0,59379,59479,0,1 S,0,59479,,0.5 M,0,59479,61809,330,240,310,240 M,18,61809,61909,310,240,-140,240 F,0,61809,61909,1,0
Sprite,Foreground,Centre,"sb\l2\_001.png",0,0 M,19,62049,62149,810,240,330,240 F,0,62049,62149,0,1 S,0,62149,,0.5 M,0,62149,65309,330,240,310,240 M,18,65309,65409,310,240,-140,240 F,0,65309,65409,1,0
Sprite,Foreground,Centre,"sb\l2\_002.png",0,0 M,19,89049,89149,810,240,330,240 F,0,89049,89149,0,1 S,0,89149,,0.5 M,0,89149,91149,330,240,310,240 M,18,91149,91249,310,240,-140,240 F,0,91149,91249,1,0
Sprite,Foreground,Centre,"sb\l2\_003.png",0,0 M,19,91709,91809,810,240,330,240 F,0,91709,91809,0,1 S,0,91809,,0.5 M,0,91809,93979,330,240,310,240 M,18,93979,94079,310,240,-140,240 F,0,93979,94079,1,0
Sprite,Foreground,Centre,"sb\l2\_004.png",0,0 M,19,94379,94479,810,240,330,240 F,0,94379,94479,0,1 S,0,94479,,0.5 M,0,94479,96479,330,240,310,240 M,18,96479,96579,310,240,-140,240 F,0,96479,96579,1,0
Sprite,Foreground,Centre,"sb\l2\_005.png",0,0 M,19,99549,99649,810,240,330,240 F,0,99549,99649,0,1 S,0,99649,,0.5 M,0,99649,101649,330,240,310,240 M,18,101649,101749,310,240,-140,240 F,0,101649,101749,1,0
Sprite,Foreground,Centre,"sb\l2\_006.png",0,0 M,19,102209,102309,810,240,330,240 F,0,102209,102309,0,1 S,0,102309,,0.5 M,0,102309,104649,330,240,310,240 M,18,104649,104749,310,240,-140,240 F,0,104649,104749,1,0
Sprite,Foreground,Centre,"sb\l2\_007.png",0,0 M,19,105039,105139,810,240,330,240 F,0,105039,105139,0,1 S,0,105139,,0.5 M,0,105139,107139,330,240,310,240 M,18,107139,107239,310,240,-140,240 F,0,107139,107239,1,0
Sprite,Foreground,Centre,"sb\l2\_000.png",0,0 M,19,151879,151979,810,240,330,240 F,0,151879,151979,0,1 S,0,151979,,0.5 M,0,151979,154479,330,240,310,240 M,18,154479,154579,310,240,-140,240 F,0,154479,154579,1,0
Sprite,Foreground,Centre,"sb\l2\_001.png",0,0 M,19,155379,155479,810,240,330,240 F,0,155379,155479,0,1 S,0,155479,,0.5 M,0,155479,157819,330,240,310,240 M,18,157819,157919,310,240,-140,240 F,0,157819,157919,1,0
Sprite,Foreground,Centre,"sb\l2\_001.png",0,0 M,19,158049,158149,810,240,330,240 F,0,158049,158149,0,1 S,0,158149,,0.5 M,0,158149,160979,330,240,310,240 M,18,160979,161079,310,240,-140,240 F,0,160979,161079,1,0
Sprite,Foreground,Centre,"sb\l2\_000.png",0,0 M,19,162549,162649,810,240,330,240 F,0,162549,162649,0,1 S,0,162649,,0.5 M,0,162649,165149,330,240,310,240 M,18,165149,165249,310,240,-140,240 F,0,165149,165249,1,0
Sprite,Foreground,Centre,"sb\l2\_001.png",0,0 M,19,166049,166149,810,240,330,240 F,0,166049,166149,0,1 S,0,166149,,0.5 M,0,166149,168479,330,240,310,240 M,18,168479,168579,310,240,-140,240 F,0,168479,168579,1,0
Sprite,Foreground,Centre,"sb\l2\_001.png",0,0 M,19,168709,168809,810,240,330,240 F,0,168709,168809,0,1 S,0,168809,,0.5 M,0,168809,171969,330,240,310,240 M,18,171969,172069,310,240,-140,240 F,0,171969,172069,1,0
Sprite,Foreground,Centre,"sb\l2\_002.png",0,0 M,19,195709,195809,810,240,330,240 F,0,195709,195809,0,1 S,0,195809,,0.5 M,0,195809,197809,330,240,310,240 M,18,197809,197909,310,240,-140,240 F,0,197809,197909,1,0
Sprite,Foreground,Centre,"sb\l2\_003.png",0,0 M,19,198379,198479,810,240,330,240 F,0,198379,198479,0,1 S,0,198479,,0.5 M,0,198479,200649,330,240,310,240 M,18,200649,200749,310,240,-140,240 F,0,200649,200749,1,0
Sprite,Foreground,Centre,"sb\l2\_004.png",0,0 M,19,201049,201149,810,240,330,240 F,0,201049,201149,0,1 S,0,201149,,0.5 M,0,201149,203149,330,240,310,240 M,18,203149,203249,310,240,-140,240 F,0,203149,203249,1,0
Sprite,Foreground,Centre,"sb\l2\_005.png",0,0 M,19,206209,206309,810,240,330,240 F,0,206209,206309,0,1 S,0,206309,,0.5 M,0,206309,208309,330,240,310,240 M,18,208309,208409,310,240,-140,240 F,0,208309,208409,1,0
Sprite,Foreground,Centre,"sb\l2\_006.png",0,0 M,19,208879,208979,810,240,330,240 F,0,208879,208979,0,1 S,0,208979,,0.5 M,0,208979,211319,330,240,310,240 M,18,211319,211419,310,240,-140,240 F,0,211319,211419,1,0
Sprite,Foreground,Centre,"sb\l2\_007.png",0,0 M,19,211709,211809,810,240,330,240 F,0,211709,211809,0,1 S,0,211809,,0.5 M,0,211809,213809,330,240,310,240 M,18,213809,213909,310,240,-140,240 F,0,213809,213909,1,0
Sprite,Foreground,Centre,"sb\black.jpg",0,0 M,0,-699,,320,240 F,0,-699,-449,0,1 F,0,-449,-18,1
Sprite,Foreground,Centre,"sb\black.jpg",0,0 M,0,-19,,320,-70 F,0,-19,3315,1 V,7,2648,3315,1,0.98,1,0.1
Sprite,Foreground,Centre,"sb\black.jpg",0,0 M,0,-19,,320,550 F,0,-19,3315,1 V,7,2648,3315,1,0.98,1,0.1
Sprite,Foreground,Centre,"sb\black.jpg",0,0 V,1,61315,63981,1,0.1,1,0.75 M,0,63981,,320,-70 V,18,63981,65315,1,0.75,1,0.98 F,0,63981,67315,1 V,7,66648,67315,1,0.98,1,0.1
Sprite,Foreground,Centre,"sb\black.jpg",0,0 V,1,61315,63981,1,0.1,1,0.75 M,0,63981,,320,550 V,18,63981,65315,1,0.75,1,0.98 F,0,63981,67315,1 V,7,66648,67315,1,0.98,1,0.1
Sprite,Foreground,Centre,"sb\p\c.png",320,240 S,1,65315,65481,0,0.35 F,0,65315,66648,1 S,9,66315,66648,0.35,0
Sprite,Foreground,Centre,"sb\p\c.png",0,0 S,0,65648,,0.05 F,1,65648,65815,0,1 M,19,65648,65982,430,140,430,240 F,0,65815,66648,1 S,13,66148,66295,0.05,0.07 S,13,66315,66482,0.07,0.05 M,18,66315,66648,430,240,950,240
Sprite,Foreground,Centre,"sb\p\c.png",0,0 S,0,65648,,0.05 F,1,65648,65815,0,1 M,19,65648,65982,210,340,210,240 F,0,65815,66648,1 S,13,66148,66295,0.05,0.07 S,13,66315,66482,0.07,0.05 M,18,66315,66648,210,240,-310,240
Sprite,Foreground,Centre,"sb\s.png",320,240 S,19,65315,65648,0,0.2 R,13,65315,65815,0.2,0 F,0,65315,66565,1 S,12,66148,66565,0.2,0 R,6,66148,66648,0,-0.4
Sprite,Foreground,Centre,"sb\black.jpg",0,0 M,0,44648,,-210,240 R,0,44648,,0.1 V,9,44648,45315,0.1,1.456411,1.69632,1.49152
Sprite,Foreground,Centre,"sb\black.jpg",0,0 M,0,45315,,850,240 R,0,45315,,0.1 V,10,45315,45648,1.69632,1.49152,0.1,1.456411
Sprite,Foreground,Centre,"sb\black.jpg",0,0 M,0,87315,,850,240 R,0,87315,,0.1 V,9,87315,87981,0.1,1.456411,1.69632,1.49152
Sprite,Foreground,Centre,"sb\black.jpg",0,0 M,0,87981,,-210,240 R,0,87981,,0.1 V,10,87981,88315,1.69632,1.49152,0.1,1.456411
Sprite,Foreground,Centre,"sb\black.jpg",0,0 M,0,107981,,320,-47.30515 R,9,107981,109315,0,-0.05 V,18,107981,109315,1.239908,0.1,1.152137,2.370354
Sprite,Foreground,Centre,"sb\black.jpg",0,0 M,0,109315,,320,557 R,10,109315,109981,-0.05,-0.1 V,19,109315,109981,1.152137,2.370354,1.239908,0.1
Sprite,Foreground,Centre,"sb\black.jpg",0,0 M,0,151315,,-210,240 R,0,151315,,0.1 V,9,151315,151981,0.1,1.456411,1.69632,1.49152
Sprite,Foreground,Centre,"sb\black.jpg",0,0 M,0,151981,,850,240 R,0,151981,,0.1 V,10,151981,152315,1.69632,1.49152,0.1,1.456411
Sprite,Foreground,Centre,"sb\black.jpg",0,0 V,1,167982,170648,1,0.1,1,0.75 M,0,170648,,320,-70 V,18,170648,171981,1,0.75,1,0.98 F,0,170648,173981,1 V,7,173315,173981,1,0.98,1,0.1
Sprite,Foreground,Centre,"sb\black.jpg",0,0 V,1,167982,170648,1,0.1,1,0.75 M,0,170648,,320,550 V,18,170648,171981,1,0.75,1,0.98 F,0,170648,173981,1 V,7,173315,173981,1,0.98,1,0.1
Sprite,Foreground,Centre,"sb\black.jpg",0,0 M,0,193981,,850,240 R,0,193981,,0.1 V,9,193981,194648,0.1,1.456411,1.69632,1.49152
Sprite,Foreground,Centre,"sb\black.jpg",0,0 M,0,194648,,-210,240 R,0,194648,,0.1 V,10,194648,194981,1.69632,1.49152,0.1,1.456411
Sprite,Foreground,Centre,"sb\black.jpg",0,0 M,0,214648,,320,-47.30515 R,9,214648,215981,0,0.05 V,18,214648,215981,1.239908,0.1,1.152137,2.370354
Sprite,Foreground,Centre,"sb\black.jpg",0,0 M,0,215981,,320,557 R,10,215981,216648,0.05,0.1 V,19,215981,216648,1.152137,2.370354,1.239908,0.1
Sprite,Foreground,Centre,"sb\black.jpg",0,0 M,0,130648,,-210,200 V,10,130648,131148,0,0.2462856,1.8,0.2462856 F,0,130648,140815,0.5
Sprite,Foreground,Centre,"sb\black.jpg",0,0 M,0,140815,,850,200 F,0,140815,141315,0.5 V,9,140815,141315,1.8,0.2462856,0,0.2462856
Sprite,Foreground,Centre,"sb\p\c.png",320,240 S,1,171982,172148,0,0.35 F,0,171982,173315,1 S,9,172982,173315,0.35,0
Sprite,Foreground,Centre,"sb\p\c.png",0,0 S,0,172315,,0.05 F,1,172315,172482,0,1 M,19,172315,172648,430,140,430,240 F,0,172482,173315,1 S,13,172815,172962,0.05,0.07 S,13,172982,173148,0.07,0.05 M,18,172982,173315,430,240,950,240
Sprite,Foreground,Centre,"sb\p\c.png",0,0 S,0,172315,,0.05 F,1,172315,172482,0,1 M,19,172315,172648,210,340,210,240 F,0,172482,173315,1 S,13,172815,172962,0.05,0.07 S,13,172982,173148,0.07,0.05 M,18,172982,173315,210,240,-310,240
Sprite,Foreground,Centre,"sb\s.png",320,240 S,19,171982,172315,0,0.2 R,13,171982,172482,0.2,0 F,0,171982,173315,1 S,12,172815,173232,0.2,0 R,6,172815,173315,0,-0.4
Sprite,Foreground,Centre,"sb\mazare.png",0,0 M,0,130648,,320,180 S,0,130648,,0.3 F,0,130648,130981,0,1 F,0,130981,140981,1 F,0,140981,141207,1,0
Sprite,Foreground,Centre,"sb\p\square.png",0,0 M,0,130648,,320,242 F,0,130648,130698,0,1 V,19,130648,131648,0,0.3,70,0.3 V,18,140315,141148,70,0.3,0,0.3
Sprite,Foreground,Centre,"sb\p\square.png",0,0 F,0,130815,131048,0,1 M,13,130815,131548,120,242,140,242 S,0,131148,140648,0.7 R,0,131148,140648,2,0.2 M,12,139948,140648,140,242,120,242 F,0,140348,140648,1,0
Sprite,Foreground,Centre,"sb\p\square.png",0,0 F,0,130815,131048,0,1 M,13,130815,131548,520,242,500,242 S,0,131148,140648,0.7 R,0,131148,140648,2,0.2 M,12,139948,140648,500,242,520,242 F,0,140348,140648,1,0
Sprite,Foreground,Centre,"sb\black.jpg",320,240 F,0,237815,238648,0,1 F,0,237815,240981,1 F,0,240981,241481,1,0
Sprite,Foreground,Centre,"sb\l3\_000.png",319.75,262.75 S,0,130649,,0.5 F,0,130649,130799,0,1 F,0,132999,133149,1,0
Sprite,Foreground,Centre,"sb\l3\_001.png",319.75,262.75 S,0,133309,,0.5 F,0,133309,133459,0,1 F,0,135659,135809,1,0
Sprite,Foreground,Centre,"sb\l3\_002.png",319.75,262.75 S,0,135979,,0.5 F,0,135979,136129,0,1 F,0,138329,138479,1,0
Sprite,Foreground,Centre,"sb\l3\_003.png",320,260.5 S,0,138649,,0.5 F,0,138649,138799,0,1 F,0,140829,140979,1,0
//Storyboard Layer 4 (Overlay)
//Storyboard Sound Samples

[TimingPoints]
-18,333.333333333333,4,2,1,80,1,0
2648,-142.857142857143,4,2,1,50,0,0
4565,-142.857142857143,4,2,1,5,0,0
4648,-142.857142857143,4,2,1,50,0,0
9898,-142.857142857143,4,2,1,5,0,0
9981,-142.857142857143,4,2,1,50,0,0
15231,-142.857142857143,4,2,1,5,0,0
15315,-142.857142857143,4,2,1,50,0,0
17898,-142.857142857143,4,2,1,5,0,0
17981,-142.857142857143,4,2,1,50,0,0
20898,-142.857142857143,4,2,1,5,0,0
20981,-142.857142857143,4,2,1,50,0,0
23981,-200,4,2,1,50,0,0
45315,-111.111111111111,4,2,4,80,0,0
54315,-111.111111111111,4,2,1,80,0,0
55981,-111.111111111111,4,2,4,80,0,0
62648,-111.111111111111,4,2,4,70,0,0
63981,-111.111111111111,4,2,4,50,0,0
64981,-111.111111111111,4,2,1,50,0,0
66148,-200,4,2,3,60,0,0
66231,-200,4,2,3,5,0,0
66315,-100,4,2,1,70,0,0
66398,-100,4,2,1,5,0,0
66481,-66.6666666666667,4,2,1,80,0,0
66565,-66.6666666666667,4,2,1,5,0,0
66648,-66.6666666666667,4,2,1,80,0,1
66898,-66.6666666666667,4,2,1,5,0,1
66981,-66.6666666666667,4,2,1,80,0,1
67398,-66.6666666666667,4,2,1,5,0,1
67481,-66.6666666666667,4,2,1,80,0,1
70065,-66.6666666666667,4,2,1,5,0,1
70148,-66.6666666666667,4,2,1,80,0,1
72231,-66.6666666666667,4,2,1,5,0,1
72315,-66.6666666666667,4,2,1,80,0,1
72731,-66.6666666666667,4,2,1,5,0,1
72815,-66.6666666666667,4,2,1,80,0,1
75398,-66.6666666666667,4,2,1,5,0,1
75481,-66.6666666666667,4,2,1,80,0,1
76231,-66.6666666666667,4,2,1,5,0,1
76315,-66.6666666666667,4,2,1,80,0,1
76731,-66.6666666666667,4,2,1,5,0,1
76815,-66.6666666666667,4,2,1,80,0,1
76981,-100,4,2,1,80,0,0
77231,-100,4,2,1,5,0,0
77315,-66.6666666666667,4,2,1,80,0,1
77565,-66.6666666666667,4,2,1,5,0,1
77648,-66.6666666666667,4,2,1,80,0,1
78065,-66.6666666666667,4,2,1,5,0,1
78148,-66.6666666666667,4,2,1,80,0,1
80731,-66.6666666666667,4,2,1,5,0,1
80815,-66.6666666666667,4,2,1,80,0,1
82898,-66.6666666666667,4,2,1,5,0,1
82981,-66.6666666666667,4,2,1,80,0,1
83398,-66.6666666666667,4,2,1,5,0,1
83481,-66.6666666666667,4,2,1,80,0,1
85648,-100,4,2,1,80,0,1
86898,-100,4,2,1,5,0,1
86981,-100,4,2,1,80,0,1
87481,-100,4,2,3,80,0,1
87648,-100,4,2,1,80,0,0
87981,-83.3333333333333,4,2,4,80,0,1
88231,-83.3333333333333,4,2,4,5,0,1
88315,-83.3333333333333,4,2,4,80,0,1
90898,-83.3333333333333,4,2,4,5,0,1
90981,-83.3333333333333,4,2,4,80,0,1
93565,-83.3333333333333,4,2,4,5,0,1
93648,-83.3333333333333,4,2,4,80,0,1
95981,-83.3333333333333,4,2,1,80,0,1
96231,-83.3333333333333,4,2,1,5,0,1
96315,-83.3333333333333,4,2,1,80,0,1
97565,-83.3333333333333,4,2,1,5,0,1
97648,-83.3333333333333,4,2,1,80,0,1
98565,-83.3333333333333,4,2,1,5,0,1
98648,-83.3333333333333,4,2,4,80,0,1
101565,-83.3333333333333,4,2,4,5,0,1
101648,-83.3333333333333,4,2,4,80,0,1
104231,-83.3333333333333,4,2,4,5,0,1
104315,-83.3333333333333,4,2,4,80,0,1
106648,-83.3333333333333,4,2,1,80,0,1
106898,-83.3333333333333,4,2,1,5,0,1
106981,-83.3333333333333,4,2,1,80,0,1
108815,-66.6666666666667,4,2,1,80,0,1
108898,-66.6666666666667,4,2,1,5,0,1
108981,-66.6666666666667,4,2,1,80,0,1
109065,-66.6666666666667,4,2,1,5,0,1
109148,-66.6666666666667,4,2,1,80,0,1
109231,-66.6666666666667,4,2,1,5,0,1
109315,-142.857142857143,4,2,1,50,0,0
111231,-142.857142857143,4,2,1,5,0,0
111315,-142.857142857143,4,2,1,50,0,0
113898,-142.857142857143,4,2,1,5,0,0
113981,-142.857142857143,4,2,1,50,0,0
119398,-142.857142857143,4,2,1,5,0,0
119481,-142.857142857143,4,2,1,50,0,0
121898,-142.857142857143,4,2,1,5,0,0
121981,-142.857142857143,4,2,1,50,0,0
124565,-142.857142857143,4,2,1,5,0,0
124648,-142.857142857143,4,2,1,50,0,0
127315,-166.666666666667,4,2,1,50,0,0
127815,-200,4,2,1,50,0,0
129315,-200,4,2,1,40,0,0
130148,-200,4,2,1,30,0,0
130648,-200,4,2,1,80,0,0
149315,-200,4,2,1,5,0,0
151981,-111.111111111111,4,2,4,80,0,0
160981,-111.111111111111,4,2,1,80,0,0
162648,-111.111111111111,4,2,4,80,0,0
169315,-142.857142857143,4,2,4,70,0,0
170648,-200,4,2,4,60,0,0
171648,-200,4,2,1,60,0,0
171981,-111.111111111111,4,2,1,50,0,0
172815,-200,4,2,3,60,0,0
172898,-200,4,2,3,5,0,0
172981,-100,4,2,1,70,0,0
173065,-100,4,2,1,5,0,0
173148,-66.6666666666667,4,2,1,80,0,0
173232,-66.6666666666667,4,2,1,5,0,0
173315,-66.6666666666667,4,2,1,80,0,1
173731,-66.6666666666667,4,2,1,5,0,1
173815,-66.6666666666667,4,2,1,80,0,1
174898,-66.6666666666667,4,2,1,5,0,1
174981,-66.6666666666667,4,2,1,80,0,1
176398,-66.6666666666667,4,2,1,5,0,1
176481,-66.6666666666667,4,2,1,80,0,1
177565,-66.6666666666667,4,2,1,5,0,1
177648,-66.6666666666667,4,2,1,80,0,1
179065,-66.6666666666667,4,2,1,5,0,1
179148,-66.6666666666667,4,2,1,80,0,1
180231,-66.6666666666667,4,2,1,5,0,1
180315,-66.6666666666667,4,2,1,80,0,1
181731,-66.6666666666667,4,2,1,5,0,1
181815,-66.6666666666667,4,2,1,80,0,1
182898,-66.6666666666667,4,2,1,5,0,1
182981,-66.6666666666667,4,2,1,80,0,1
184398,-66.6666666666667,4,2,1,5,0,1
184481,-66.6666666666667,4,2,1,80,0,1
185565,-66.6666666666667,4,2,1,5,0,1
185648,-66.6666666666667,4,2,1,80,0,1
187065,-66.6666666666667,4,2,1,5,0,1
187148,-66.6666666666667,4,2,1,80,0,1
188231,-66.6666666666667,4,2,1,5,0,1
188315,-66.6666666666667,4,2,1,80,0,1
189731,-66.6666666666667,4,2,1,5,0,1
189815,-66.6666666666667,4,2,1,80,0,1
190898,-66.6666666666667,4,2,1,5,0,1
190981,-66.6666666666667,4,2,1,80,0,1
192398,-66.6666666666667,4,2,1,5,0,1
192481,-66.6666666666667,4,2,1,80,0,1
193315,-83.3333333333333,4,2,1,80,0,0
193565,-83.3333333333333,4,2,1,5,0,0
193648,-83.3333333333333,4,2,1,80,0,0
194148,-83.3333333333333,4,2,3,80,0,0
194315,-83.3333333333333,4,2,1,80,0,0
194648,-83.3333333333333,4,2,4,80,0,1
194898,-83.3333333333333,4,2,4,5,0,1
194981,-83.3333333333333,4,2,4,80,0,1
197565,-83.3333333333333,4,2,4,5,0,1
197648,-83.3333333333333,4,2,4,80,0,1
200231,-83.3333333333333,4,2,4,5,0,1
200315,-83.3333333333333,4,2,4,80,0,1
202648,-83.3333333333333,4,2,1,80,0,1
202898,-83.3333333333333,4,2,1,5,0,1
202981,-83.3333333333333,4,2,1,80,0,1
204231,-83.3333333333333,4,2,1,5,0,1
204315,-83.3333333333333,4,2,1,80,0,1
205231,-83.3333333333333,4,2,1,5,0,1
205315,-83.3333333333333,4,2,4,80,0,1
208231,-83.3333333333333,4,2,4,5,0,1
208315,-83.3333333333333,4,2,4,80,0,1
210898,-83.3333333333333,4,2,4,5,0,1
210981,-83.3333333333333,4,2,4,80,0,1
213315,-83.3333333333333,4,2,1,80,0,1
213565,-83.3333333333333,4,2,1,5,0,1
213648,-83.3333333333333,4,2,1,80,0,1
215481,-66.6666666666667,4,2,1,80,0,1
215564,-66.6666666666667,4,2,1,5,0,1
215647,-66.6666666666667,4,2,1,80,0,1
215731,-66.6666666666667,4,2,1,5,0,1
215814,-66.6666666666667,4,2,1,80,0,1
215897,-66.6666666666667,4,2,1,5,0,1
215981,-200,4,2,1,80,0,0

[Colours]
Combo1 : 242,223,172
Combo2 : 192,192,192
Combo3 : 128,128,128
Combo4 : 23,68,128
SliderBorder : 61,127,235
SliderTrackOverride : 70,70,70

[HitObjects]
512,240,2648,6,0,P|391:169|398:328,1,356.999989105225,2|0,0:0|0:0,0:0:0:0:
426,248,3815,5,2,0:0:0:0:
267,202,3981,1,2,0:0:0:0:
302,358,4148,1,2,0:0:0:0:
195,247,4315,2,0,P|181:199|208:142,1,89.2499972763062,2|0,0:0|0:0,0:0:0:0:
198,151,4648,38,0,P|207:114|197:72,1,59.4999981842042,2|0,0:0|0:0,0:0:0:0:
170,16,4981,1,2,0:0:0:0:
40,84,5148,6,0,P|20:140|32:198,1,118.999996368408,2|0,0:0|0:0,0:0:0:0:
144,272,5648,2,0,P|80:224|-17:322,1,237.999992736817,2|0,0:0|0:0,0:0:0:0:
67,309,6481,1,2,0:0:0:0:
208,208,6648,37,2,0:0:0:0:
152,368,6815,1,2,0:0:0:0:
288,248,6982,2,0,P|320:243|360:248,1,59.4999981842042,2|0,0:0|0:0,0:0:0:0:
472,304,7315,2,0,P|432:299|392:304,1,59.4999981842042,2|0,0:0|0:0,0:0:0:0:
288,352,7648,1,2,0:0:0:0:
279,158,7815,6,0,B|338:125|389:171|389:171|440:219|510:178,1,237.999992736817,2|0,0:0|0:0,0:0:0:0:
432,32,8648,2,0,P|374:75|369:145,1,118.999996368408
450,115,9148,1,2,0:0:0:0:
318,12,9315,37,2,0:0:0:0:
392,208,9481,1,2,0:0:0:0:
265,75,9648,2,0,P|215:71|169:91,1,89.2499972763062,2|0,0:0|0:0,0:0:0:0:
170,94,9981,6,0,P|183:131|174:173,1,59.4999981842042,2|0,0:0|0:0,0:0:0:0:
27,178,10315,37,2,0:0:0:0:
0,96,10481,2,0,P|58:97|101:136,1,118.999996368408,2|0,0:0|0:0,0:0:0:0:
209,267,10981,1,2,0:0:0:0:
235,185,11147,2,0,P|176:186|133:225,1,118.999996368408,2|0,0:0|0:0,0:0:0:0:
26,356,11648,5,2,0:0:0:0:
109,372,11815,2,0,P|83:291|0:274,1,178.499994552612,2|0,0:0|0:0,0:0:0:0:
26,356,12481,38,0,B|92:372|129:314|129:314|166:255|244:276,1,237.999992736817,2|0,0:0|0:0,0:0:0:0:
333,356,13315,6,0,B|260:327|227:243|263:168|325:138|325:138|297:169|297:213|320:244,1,356.999989105225,2|0,0:0|0:0,0:0:0:0:
389,196,14481,1,2,0:0:0:0:
176,224,14648,37,2,0:0:0:0:
264,80,14815,1,2,0:0:0:0:
104,112,14981,2,0,L|94:215,1,89.2499972763062,2|0,0:0|0:0,0:0:0:0:
94,215,15315,2,0,L|87:294,1,59.4999981842042,2|0,0:0|0:0,0:0:0:0:
82,359,15648,1,2,0:0:0:0:
256,240,15815,6,0,P|325:248|365:307,1,118.999996368408,2|0,0:0|0:0,0:0:0:0:
424,368,16315,2,0,P|384:336|512:304,1,297.499990921021,2|0,0:0|0:0,0:0:0:0:
282,322,17315,37,2,0:0:0:0:
323,160,17481,1,2,0:0:0:0:
198,336,17648,2,0,P|149:291|141:245,1,89.2499972763062,2|0,0:0|0:0,0:0:0:0:
142,256,17981,2,0,P|156:208|175:183,1,59.4999981842042,2|0,0:0|0:0,0:0:0:0:
228,255,18315,1,2,0:0:0:0:
72,194,18481,6,0,P|45:104|171:71,1,237.999992736817,2|0,0:0|0:0,0:0:0:0:
218,140,19315,2,0,P|195:71|231:11,1,118.999996368408
280,82,19815,1,2,0:0:0:0:
72,194,19981,37,2,0:0:0:0:
255,224,20148,1,2,0:0:0:0:
114,120,20315,1,2,0:0:0:0:
192,304,20481,1,2,0:0:0:0:
328,160,20648,2,0,P|376:136|432:152,1,89.2499972763062,2|0,0:0|0:0,0:0:0:0:
424,144,20981,1,2,0:0:0:0:
505,171,21148,6,0,P|504:112|465:69,1,118.999996368408,2|0,0:0|0:0,0:0:0:0:
356,248,21648,1,2,0:0:0:0:
439,230,21815,2,0,P|409:180|353:162,1,118.999996368408,2|0,0:0|0:0,0:0:0:0:
349,372,22315,37,2,0:0:0:0:
411,314,22481,2,0,P|360:285|266:355,1,178.499994552612,2|2,0:0|0:0,0:0:0:0:
349,372,23148,6,0,B|387:316|387:316|357:143,1,237.999992736817,2|0,0:0|0:0,0:0:0:0:
55,266,23981,38,0,P|105:229|167:238,1,127.5,6|0,3:0|0:0,0:0:0:0:
230,298,24648,2,0,P|203:237|206:212,1,85,8|0,0:0|0:0,0:0:0:0:
264,160,25148,2,0,P|290:220|287:245,1,85,2|2,3:0|0:0,0:0:0:0:
160,344,25648,1,2,3:0:0:0:
314,316,25815,1,2,0:0:0:0:
144,144,25981,2,0,P|175:134|200:129,1,42.5,10|2,0:0|3:0,0:0:0:0:
256,80,26315,2,0,P|287:89|312:94,1,42.5,2|0,0:0|0:0,0:0:0:0:
403,22,26648,6,0,P|342:79|345:136,1,127.5,0|0,3:0|0:0,0:0:0:0:
399,185,27315,2,0,P|338:158|313:161,1,85,8|0,0:0|0:0,0:0:0:0:
261,219,27815,2,0,P|321:245|346:242,1,85,2|2,3:0|0:0,0:0:0:0:
474,150,28315,1,2,3:0:0:0:
387,313,28481,1,2,0:0:0:0:
490,249,28648,1,10,0:0:0:0:
304,326,28815,1,2,3:0:0:0:
471,343,28981,2,0,P|506:349|520:354,1,42.5,10|8,0:0|0:0,0:0:0:0:
217,354,29315,38,0,P|166:317|155:255,1,127.5,2|0,3:0|0:0,0:0:0:0:
237,228,29981,2,0,P|241:249|240:271,1,42.5,8|0,0:0|0:0,0:0:0:0:
88,352,30315,1,2,0:0:0:0:
173,175,30481,2,0,P|165:127|149:87,1,85,2|2,3:0|0:0,0:0:0:0:
80,48,30981,1,2,3:0:0:0:
256,144,31148,1,2,0:0:0:0:
40,184,31315,2,0,P|19:188|0:195,1,42.5,10|2,0:0|3:0,0:0:0:0:
104,240,31648,2,0,P|124:244|144:251,1,42.5,2|0,0:0|0:0,0:0:0:0:
96,352,31981,6,0,P|120:288|224:273,1,170,0|8,3:0|0:0,0:0:0:0:
181,348,32815,1,2,0:0:0:0:
296,192,32981,1,2,0:0:0:0:
384,304,33148,1,2,3:0:0:0:
368,147,33315,38,0,P|322:109|280:108,1,85,2|0,0:0|3:0,0:0:0:0:
225,146,33815,1,2,0:0:0:0:
288,24,33981,1,10,0:0:0:0:
221,229,34148,1,2,3:0:0:0:
96,72,34315,2,0,P|98:50|113:19,1,42.5,10|8,0:0|0:0,0:0:0:0:
140,153,34648,6,0,P|91:113|28:118,1,127.5,0|0,3:0|0:0,0:0:0:0:
23,204,35314,2,0,P|44:202|65:195,1,42.5,8|0,0:0|0:0,0:0:0:0:
181,68,35648,1,2,0:0:0:0:
96,271,35815,2,0,P|148:277|184:304,1,85,2|2,3:0|0:0,0:0:0:0:
216,368,36315,1,2,3:0:0:0:
144,192,36481,1,2,0:0:0:0:
264,296,36648,2,0,P|303:288|324:288,1,42.5,10|2,0:0|3:0,0:0:0:0:
376,240,36981,2,0,P|415:245|435:253,1,42.5,2|0,0:0|0:0,0:0:0:0:
499,321,37315,38,0,P|461:246|475:188,1,127.5,0|0,3:0|0:0,0:0:0:0:
508,93,37981,2,0,P|511:113|512:135,1,42.5,8|0,0:0|0:0,0:0:0:0:
376,240,38315,1,2,0:0:0:0:
425,86,38481,2,0,P|385:46|345:30,1,85,2|2,3:0|0:0,0:0:0:0:
248,136,38981,1,2,3:0:0:0:
372,159,39148,1,2,0:0:0:0:
280,54,39315,1,10,0:0:0:0:
160,224,39481,1,2,3:0:0:0:
197,66,39648,2,0,P|186:31|174:10,1,42.5,10|8,0:0|0:0,0:0:0:0:
57,277,39981,6,0,P|98:229|161:223,1,127.5,2|0,3:0|0:0,0:0:0:0:
232,184,40648,2,0,P|194:239|193:264,1,85,8|0,0:0|0:0,0:0:0:0:
241,325,41148,2,0,P|277:270|278:245,1,85,2|2,3:0|0:0,0:0:0:0:
128,176,41648,1,2,3:0:0:0:
158,329,41815,1,2,0:0:0:0:
360,264,41981,2,0,P|361:238|365:217,1,42.5,10|2,0:0|3:0,0:0:0:0:
328,147,42315,2,0,P|327:121|323:100,1,42.5,2|0,0:0|0:0,0:0:0:0:
432,80,42648,38,0,P|350:83|303:16,1,170,0|8,3:0|0:0,0:0:0:0:
387,5,43482,1,2,0:0:0:0:
272,128,43648,1,2,0:0:0:0:
200,32,43815,1,2,3:0:0:0:
120,160,43981,6,0,P|98:212|96:248,1,85,2|0,0:0|3:0,0:0:0:0:
144,312,44481,1,2,0:0:0:0:
24,184,44648,1,10,0:0:0:0:
64,352,44815,1,2,3:0:0:0:
212,261,44981,2,0,P|238:266|255:272,1,42.5,10|8,0:0|0:0,0:0:0:0:
368,352,45315,6,0,P|370:312|402:272,1,76.4999976654053,2|0,0:0|0:0,0:0:0:0:
495,186,45648,2,0,P|492:225|461:266,1,76.4999976654053,2|0,0:0|0:0,0:0:0:0:
253,242,45981,6,0,P|305:120|414:197,2,305.999990661621,2|0|0,0:0|0:0|0:0,0:0:0:0:
329,203,47481,1,0,0:0:0:0:
256,48,47648,1,0,0:0:0:0:
400,112,47815,1,0,0:0:0:0:
216,208,47981,37,0,0:0:0:0:
64,136,48148,2,0,P|136:152|168:304,1,229.499992996216
37,367,48815,6,0,P|91:330|131:322,1,76.4999976654053,2|0,0:0|0:0,0:0:0:0:
177,287,49148,2,0,P|236:336|305:322,1,152.999995330811,2|2,0:0|0:0,0:0:0:0:
256,252,49648,1,2,0:0:0:0:
408,352,49815,1,2,0:0:0:0:
328,200,49981,2,0,P|336:160|368:120,1,76.4999976654053,2|2,0:0|0:0,0:0:0:0:
456,96,50315,1,2,0:0:0:0:
456,96,50481,2,0,P|394:107|318:22,1,152.999995330811,2|0,0:0|0:0,0:0:0:0:
137,161,50981,2,0,P|199:172|275:87,1,152.999995330811,2|0,0:0|0:0,0:0:0:0:
83,17,51481,38,0,P|91:81|83:129,1,76.4999976654053,2|0,0:0|0:0,0:0:0:0:
49,168,51815,2,0,P|10:234|36:300,1,152.999995330811,2|2,0:0|0:0,0:0:0:0:
97,239,52315,1,2,0:0:0:0:
4,97,52481,1,2,0:0:0:0:
178,210,52648,2,0,P|175:274|146:309,1,76.4999976654053,2|0,0:0|0:0,0:0:0:0:
4,349,52981,1,2,0:0:0:0:
4,349,53148,2,0,B|60:309|116:349|116:349|172:389|228:349,1,229.499992996216,2|0,0:0|0:0,0:0:0:0:
320,248,53815,2,0,P|260:296|262:367,1,152.999995330811,2|0,0:0|0:0,0:0:0:0:
339,330,54315,5,2,0:0:0:0:
288,168,54481,1,2,0:0:0:0:
429,359,54648,2,0,P|421:287|429:199,1,152.999995330811,2|0,0:0|0:0,0:0:0:0:
472,136,55148,1,2,0:0:0:0:
320,248,55315,1,2,0:0:0:0:
376,120,55481,1,2,0:0:0:0:
512,240,55648,1,2,0:0:0:0:
432,48,55815,1,2,0:0:0:0:
224,216,55981,38,0,P|200:168|208:120,1,76.4999976654053,2|0,3:0|0:0,0:0:0:0:
248,7,56315,2,0,P|217:30|199:63,1,76.4999976654053,2|0,3:0|0:0,0:0:0:0:
128,248,56648,6,0,P|124:194|93:156,1,76.4999976654053,2|0,3:0|0:0,0:0:0:0:
2,79,56982,2,0,P|40:82|72:103,1,76.4999976654053,0|0,3:0|0:0,0:0:0:0:
112,344,57315,38,0,P|184:328|208:328,1,76.4999976654053,0|0,3:0|0:0,0:0:0:0:
298,232,57648,2,0,P|260:227|223:215,1,76.4999976654053,0|0,3:0|0:0,0:0:0:0:
280,360,57981,6,0,P|352:344|376:344,1,76.4999976654053,0|0,3:0|0:0,0:0:0:0:
466,248,58314,2,0,P|428:243|391:231,1,76.4999976654053,0|0,3:0|0:0,0:0:0:0:
230,180,58648,38,0,P|213:234|228:279,1,76.4999976654053,0|0,3:0|0:0,0:0:0:0:
309,146,58981,2,0,P|286:115|252:97,1,76.4999976654053,0|0,3:0|0:0,0:0:0:0:
298,232,59315,1,0,3:0:0:0:
298,232,59481,2,0,P|335:227|367:207,1,76.4999976654053,2|0,0:0|3:0,0:0:0:0:
384,48,59815,1,2,0:0:0:0:
508,257,59981,6,0,P|485:226|451:208,1,76.4999976654053,0|2,3:0|0:0,0:0:0:0:
298,232,60315,1,2,3:0:0:0:
456,320,60481,1,2,0:0:0:0:
410,135,60648,2,0,P|408:97|424:63,1,76.4999976654053,2|2,3:0|0:0,0:0:0:0:
493,114,60981,1,2,3:0:0:0:
240,80,61148,1,2,0:0:0:0:
384,48,61315,37,0,3:0:0:0:
336,224,61481,1,0,3:0:0:0:
272,40,61648,5,2,3:0:0:0:
318,216,61814,1,0,3:0:0:0:
171,89,61982,37,0,3:0:0:0:
298,218,62148,1,2,3:0:0:0:
108,181,62315,5,0,3:0:0:0:
282,230,62481,1,2,3:0:0:0:
108,181,62648,37,0,3:0:0:0:
14,304,62815,1,0,3:0:0:0:
115,187,62981,5,2,3:0:0:0:
84,339,63148,1,2,3:0:0:0:
126,191,63315,37,2,3:0:0:0:
162,342,63482,1,2,3:0:0:0:
138,190,63648,5,2,3:0:0:0:
234,311,63815,1,2,3:0:0:0:
336,224,63981,37,0,3:0:0:0:
320,312,64148,1,0,3:0:0:0:
365,237,64315,5,0,3:0:0:0:
326,317,64482,1,2,3:0:0:0:
389,257,64648,37,0,3:0:0:0:
331,324,64815,1,0,3:0:0:0:
407,282,64981,5,2,3:0:0:0:
333,332,65148,1,2,3:0:0:0:
506,360,65315,6,0,B|512:288|512:288|505:271|505:271|511:207,1,152.999995330811,2|8,0:3|3:0,0:0:0:0:
464,104,65815,5,2,3:0:0:0:
465,119,65898,1,0,3:0:0:0:
466,135,65981,1,2,3:0:0:0:
423,327,66148,38,0,L|424:305,1,21.25,2|0,0:3|0:0,0:0:0:0:
336,289,66315,6,0,L|332:331,1,42.5,2|0,0:3|0:0,0:0:0:0:
244,336,66481,38,0,L|249:272,1,63.7500024318696,2|0,0:3|0:0,0:0:0:0:
208,48,66648,22,0,P|128:40|64:128,1,191.250007295609,6|0,3:0|0:0,0:0:0:0:
8,192,66981,6,0,P|89:161|97:329,1,318.750012159348,8|0,0:0|0:0,0:0:0:0:
89,332,67481,1,2,3:0:0:0:
240,200,67648,1,10,0:0:0:0:
75,246,67815,1,2,0:0:0:0:
311,248,67981,38,0,P|319:168|287:128,1,127.500004863739,2|0,3:0|0:0,0:0:0:0:
137,8,68315,2,0,P|129:88|161:128,1,127.500004863739,8|0,0:0|0:0,0:0:0:0:
376,96,68648,1,2,0:0:0:0:
208,56,68815,1,2,3:0:0:0:
408,216,68981,1,10,0:0:0:0:
307,12,69148,1,2,0:0:0:0:
392,304,69315,5,2,3:0:0:0:
464,136,69481,1,2,0:0:0:0:
311,360,69648,2,0,B|261:327|200:340|200:340|155:275|155:275|88:291|29:253,1,318.750012159348,8|0,0:0|0:0,0:0:0:0:
22,250,70148,1,2,3:0:0:0:
276,253,70315,1,10,0:0:0:0:
110,367,70481,1,2,0:0:0:0:
26,40,70648,38,0,P|89:35|150:18,1,127.500004863739,2|0,3:0|0:0,0:0:0:0:
204,202,70981,2,0,P|143:186|80:181,1,127.500004863739,8|0,0:0|0:0,0:0:0:0:
288,160,71315,1,2,0:0:0:0:
26,40,71481,1,2,3:0:0:0:
80,181,71648,5,10,0:0:0:0:
265,10,71815,1,2,3:0:0:0:
408,288,71981,38,0,B|435:313|468:297|468:297|436:232|349:244,1,191.250007295609,2|0,3:0|0:0,0:0:0:0:
272,272,72315,6,0,B|230:290|235:332|235:332|302:319|356:256|346:166|283:119,1,318.750012159348,8|0,0:0|0:0,0:0:0:0:
300,130,72815,1,2,3:0:0:0:
456,176,72981,1,10,0:0:0:0:
240,192,73148,1,2,0:0:0:0:
504,105,73315,38,0,P|424:97|384:129,1,127.500004863739,2|0,3:0|0:0,0:0:0:0:
240,192,73648,2,0,P|320:184|360:216,1,127.500004863739,10|2,0:0|0:0,0:0:0:0:
368,360,73981,1,2,0:0:0:0:
339,54,74148,1,2,3:0:0:0:
264,360,74315,1,10,0:0:0:0:
456,176,74481,1,2,0:0:0:0:
192,288,74648,5,2,3:0:0:0:
464,320,74815,1,2,0:0:0:0:
137,207,74981,2,0,P|57:271|193:271,1,318.750012159348,8|0,0:0|0:0,0:0:0:0:
194,272,75481,1,2,3:0:0:0:
24,160,75648,1,10,0:0:0:0:
0,368,75815,1,2,0:0:0:0:
215,22,75981,38,0,P|279:38|367:142,1,191.250007295609,2|0,3:0|0:0,0:0:0:0:
367,142,76315,1,10,0:0:0:0:
111,166,76481,6,0,P|174:147|302:193,1,191.250007295609,2|0,3:0|0:0,0:0:0:0:
302,193,76815,1,10,0:0:0:0:
93,342,76981,38,0,P|134:296|214:269,1,127.5,2|0,3:0|0:0,0:0:0:0:
208,268,77315,6,0,P|271:336|367:304,1,191.250007295609,6|0,3:0|0:0,0:0:0:0:
424,368,77648,38,0,B|376:288|440:216|440:216|504:144|456:64,1,318.750012159348,8|0,0:0|0:0,0:0:0:0:
455,62,78148,1,2,3:0:0:0:
506,302,78315,1,10,0:0:0:0:
224,96,78481,1,2,0:0:0:0:
417,175,78648,6,0,P|337:167|297:199,1,127.500004863739,2|0,3:0|0:0,0:0:0:0:
160,340,78981,2,0,P|240:348|280:316,1,127.500004863739,8|0,0:0|0:0,0:0:0:0:
312,80,79315,1,2,0:0:0:0:
357,314,79481,1,2,3:0:0:0:
379,18,79648,1,10,0:0:0:0:
208,268,79815,1,2,0:0:0:0:
455,62,79981,37,2,3:0:0:0:
512,352,80148,1,2,0:0:0:0:
270,187,80315,2,0,P|143:188|144:348,1,318.750012159348,8|0,0:0|0:0,0:0:0:0:
153,355,80815,1,2,3:0:0:0:
24,136,80981,1,10,0:0:0:0:
208,268,81148,1,2,0:0:0:0:
152,48,81315,6,0,P|232:40|272:72,1,127.500004863739,2|0,3:0|0:0,0:0:0:0:
416,135,81648,2,0,P|336:127|296:159,1,127.500004863739,8|0,0:0|0:0,0:0:0:0:
328,288,81981,1,2,0:0:0:0:
352,18,82148,1,2,3:0:0:0:
441,220,82315,37,10,0:0:0:0:
200,120,82481,1,2,3:0:0:0:
497,350,82648,6,0,B|471:312|471:312|313:285,1,191.250007295609,2|0,3:0|0:0,0:0:0:0:
321,205,82981,38,0,B|256:297|256:297|43:335,1,318.750012159348,8|0,0:0|0:0,0:0:0:0:
35,336,83481,1,2,3:0:0:0:
120,168,83648,1,10,0:0:0:0:
304,368,83815,1,2,0:0:0:0:
168,97,83981,6,0,P|88:89|48:121,1,127.500004863739,2|0,3:0|0:0,0:0:0:0:
205,222,84315,2,0,P|285:230|325:198,1,127.500004863739,10|2,0:0|0:0,0:0:0:0:
240,32,84648,1,2,0:0:0:0:
415,87,84815,1,2,3:0:0:0:
253,150,84981,1,10,0:0:0:0:
512,192,85148,1,2,0:0:0:0:
368,16,85315,37,2,3:0:0:0:
360,312,85481,1,2,0:0:0:0:
430,171,85648,2,0,L|415:87,1,85,8|0,0:0|0:0,0:0:0:0:
284,362,85981,5,0,0:0:0:0:
354,221,86148,2,0,L|339:137,2,85,8|2|2,0:0|0:0|0:0,0:0:0:0:
96,288,86648,38,0,P|108:197|142:170,1,127.5,2|0,3:0|0:0,0:0:0:0:
146,166,86981,1,10,0:0:0:0:
192,352,87148,1,2,3:0:0:0:
177,351,87231,1,8,0:0:0:0:
161,350,87314,1,10,0:0:0:0:
0,248,87481,5,2,3:0:0:0:
176,88,87648,2,0,L|286:107,1,85,10|2,0:0|0:0,0:0:0:0:
440,344,87981,38,0,L|282:316,1,152.999995330811,6|0,3:0|0:0,0:0:0:0:
275,314,88315,6,0,P|267:242|235:210,1,101.999996887207,8|0,0:0|0:0,0:0:0:0:
135,256,88648,2,0,P|133:306|160:349,1,101.999996887207,0|0,0:0|3:0,0:0:0:0:
366,285,88981,1,8,0:0:0:0:
160,160,89148,38,0,L|49:179,1,101.999996887207,2|0,0:0|3:0,0:0:0:0:
0,320,89481,1,2,0:0:0:0:
96,88,89648,1,10,0:0:0:0:
160,349,89815,1,2,0:0:0:0:
0,112,89981,1,2,0:0:0:0:
72,368,90148,1,2,3:0:0:0:
232,112,90315,2,0,P|282:110|325:137,1,101.999996887207,10|0,0:0|0:0,0:0:0:0:
486,225,90648,6,0,P|459:181|494:89,1,152.999995330811,0|0,3:0|0:0,0:0:0:0:
500,82,90981,2,0,P|475:126|431:150,1,101.999996887207,8|0,0:0|0:0,0:0:0:0:
296,32,91315,1,0,0:0:0:0:
392,232,91481,1,0,3:0:0:0:
416,65,91648,1,8,0:0:0:0:
280,296,91815,38,0,L|169:276,1,101.999996887207,2|0,0:0|3:0,0:0:0:0:
24,168,92148,1,2,0:0:0:0:
180,365,92315,1,10,0:0:0:0:
8,272,92481,1,2,0:0:0:0:
296,192,92648,1,2,0:0:0:0:
88,232,92815,1,2,3:0:0:0:
344,360,92981,5,10,0:0:0:0:
176,144,93148,1,0,3:0:0:0:
488,352,93315,38,0,P|520:280|456:200,1,152.999995330811,2|0,3:0|0:0,0:0:0:0:
477,209,93648,6,0,L|366:228,1,101.999996887207,8|2,0:0|0:0,0:0:0:0:
264,104,93981,2,0,L|374:123,1,101.999996887207,0|0,0:0|3:0,0:0:0:0:
264,272,94315,37,10,0:0:0:0:
96,80,94481,2,0,P|139:53|189:55,1,101.999996887207,2|0,0:0|3:0,0:0:0:0:
219,344,94815,1,2,0:0:0:0:
161,137,94981,1,10,0:0:0:0:
128,368,95148,1,2,0:0:0:0:
336,200,95315,1,2,0:0:0:0:
40,344,95481,1,2,3:0:0:0:
304,358,95648,2,0,P|297:308|263:271,1,101.999996887207,10|0,0:0|0:0,0:0:0:0:
0,216,95981,6,0,B|37:241|37:241|186:215,1,152.999995330811,2|0,3:0|0:0,0:0:0:0:
158,218,96315,38,0,P|165:168|199:131,1,101.999996887207,10|2,0:0|0:0,0:0:0:0:
432,192,96648,1,2,0:0:0:0:
242,206,96815,1,2,3:0:0:0:
368,40,96981,2,0,L|478:59,1,101.999996887207,10|0,0:0|0:0,0:0:0:0:
421,322,97315,6,0,P|418:248|359:203,1,152.999995330811,2|0,3:0|0:0,0:0:0:0:
342,199,97648,1,10,0:0:0:0:
281,366,97815,2,0,P|319:333|340:286,1,101.999996887207,2|2,3:0|0:0,0:0:0:0:
151,223,98148,38,0,P|166:292|225:195,1,254.999992218018,10|0,0:0|0:0,0:0:0:0:
231,192,98648,6,0,P|208:125|251:44,1,152.999995330811,0|0,3:0|0:0,0:0:0:0:
251,43,98981,38,0,P|283:83|347:91,1,101.999996887207,8|0,0:0|0:0,0:0:0:0:
512,104,99315,2,0,P|480:64|416:56,1,101.999996887207,0|0,0:0|3:0,0:0:0:0:
342,199,99648,1,10,0:0:0:0:
408,360,99815,6,0,L|508:342,1,101.999996887207,2|0,0:0|3:0,0:0:0:0:
435,138,100148,1,2,0:0:0:0:
312,303,100315,1,10,0:0:0:0:
330,94,100481,1,2,0:0:0:0:
472,256,100648,1,2,0:0:0:0:
264,176,100815,1,2,3:0:0:0:
138,340,100981,2,0,P|74:349|33:327,1,101.999996887207,10|0,0:0|0:0,0:0:0:0:
72,112,101315,38,0,P|112:200|88:272,1,152.999995330811,0|0,3:0|0:0,0:0:0:0:
94,265,101648,2,0,P|140:218|208:210,1,101.999996887207,8|0,0:0|0:0,0:0:0:0:
234,368,101981,1,0,0:0:0:0:
190,121,102148,1,0,3:0:0:0:
41,334,102315,1,10,0:0:0:0:
246,276,102481,6,0,L|265:166,1,101.999996887207,2|0,0:0|3:0,0:0:0:0:
160,8,102815,1,2,0:0:0:0:
336,128,102981,1,10,0:0:0:0:
96,80,103148,1,2,0:0:0:0:
352,40,103315,1,2,0:0:0:0:
168,208,103481,1,2,3:0:0:0:
255,40,103648,37,10,0:0:0:0:
336,264,103815,1,0,3:0:0:0:
450,95,103981,6,0,L|420:260,1,152.999995330811,2|0,3:0|0:0,0:0:0:0:
420,260,104315,38,0,P|384:193|329:178,1,101.999996887207,8|2,0:0|0:0,0:0:0:0:
236,312,104648,1,0,0:0:0:0:
416,360,104815,1,0,3:0:0:0:
281,198,104981,1,8,0:0:0:0:
160,360,105148,6,0,L|57:341,1,101.999996887207,2|0,0:0|3:0,0:0:0:0:
185,240,105481,1,2,0:0:0:0:
8,274,105648,1,10,0:0:0:0:
236,312,105815,1,2,0:0:0:0:
112,136,105981,1,2,0:0:0:0:
59,342,106148,1,2,3:0:0:0:
48,78,106315,2,0,P|91:52|141:54,1,101.999996887207,10|0,0:0|0:0,0:0:0:0:
424,112,106648,38,0,P|355:54|284:82,1,152.999995330811,2|0,3:0|0:0,0:0:0:0:
291,77,106981,6,0,L|310:187,1,101.999996887207,10|2,0:0|0:0,0:0:0:0:
504,80,107315,1,2,0:0:0:0:
344,256,107481,1,2,3:0:0:0:
512,168,107648,2,0,L|492:278,1,101.999996887207,10|0,0:0|0:0,0:0:0:0:
256,248,107981,37,2,3:0:0:0:
344,367,108148,1,0,3:0:0:0:
183,337,108315,1,10,0:0:0:0:
416,305,108481,1,2,3:0:0:0:
208,176,108648,1,2,3:0:0:0:
267,310,108815,6,0,P|263:274|251:235,1,63.7500024318696,2|0,3:0|0:0,0:0:0:0:
109,232,108981,2,0,P|142:247|181:255,1,63.7500024318696,2|0,3:0|0:0,0:0:0:0:
256,135,109148,2,0,P|226:156|199:186,1,63.7500024318696,0|0,0:0|0:0,0:0:0:0:
408,216,109315,6,0,L|401:136,1,59.4999981842042,0|0,3:0|0:0,0:0:0:0:
336,104,109648,2,0,L|463:115,1,118.999996368408,8|0,0:0|0:0,0:0:0:0:
492,191,110148,1,0,3:0:0:0:
328,206,110315,1,8,0:0:0:0:
285,37,110481,5,2,0:0:0:0:
256,135,110648,1,2,3:0:0:0:
256,135,110815,1,2,0:0:0:0:
200,56,110981,2,0,P|136:64|96:80,1,89.2499972763062,10|0,0:0|0:0,0:0:0:0:
97,79,111315,37,2,0:0:0:0:
160,208,111481,1,0,3:0:0:0:
16,160,111648,1,10,0:0:0:0:
74,222,111815,2,0,P|82:251|81:281,2,59.4999981842042,2|0|0,0:0|3:0|0:0,0:0:0:0:
0,304,112315,6,0,P|32:352|88:366,1,118.999996368408,10|0,0:0|0:0,0:0:0:0:
168,328,112815,1,0,3:0:0:0:
160,208,112981,1,8,0:0:0:0:
81,280,113148,1,2,0:0:0:0:
304,360,113315,37,2,3:0:0:0:
304,360,113481,1,2,0:0:0:0:
392,360,113648,2,0,P|408:304|408:256,1,89.2499972763062,10|0,0:0|0:0,0:0:0:0:
409,258,113981,5,2,0:0:0:0:
304,360,114148,1,0,3:0:0:0:
496,288,114315,1,10,0:0:0:0:
365,183,114481,1,2,3:0:0:0:
512,88,114648,38,0,L|432:81,1,59.4999981842042,0|0,3:0|0:0,0:0:0:0:
376,24,114981,2,0,P|417:64|422:122,1,118.999996368408,8|0,0:0|0:0,0:0:0:0:
340,101,115481,1,0,3:0:0:0:
480,192,115648,1,8,0:0:0:0:
280,208,115815,1,2,0:0:0:0:
288,32,115981,5,2,3:0:0:0:
222,140,116148,1,2,0:0:0:0:
200,24,116315,1,10,0:0:0:0:
280,208,116481,1,2,0:0:0:0:
144,96,116648,2,0,L|72:102,1,59.4999981842042,2|0,0:0|3:0,0:0:0:0:
0,108,116981,1,10,0:0:0:0:
65,234,117148,38,0,P|50:179|36:158,2,59.4999981842042,2|0|0,0:0|3:0|0:0,0:0:0:0:
25,308,117648,1,10,0:0:0:0:
181,275,117815,6,0,P|195:220|193:195,2,59.4999981842042,2|0|0,0:0|0:0|3:0,0:0:0:0:
108,322,118315,1,10,0:0:0:0:
260,371,118481,38,0,P|299:331|310:308,2,59.4999981842042,2|0|0,0:0|3:0|0:0,0:0:0:0:
174,375,118981,1,10,0:0:0:0:
280,244,119148,6,0,P|326:246|373:285,1,89.2499972763062,2|0,0:0|0:0,0:0:0:0:
373,280,119481,1,0,3:0:0:0:
312,160,119648,1,8,0:0:0:0:
450,318,119815,2,0,L|452:341,2,14.874999546051,0|0|0,3:0|0:0|0:0,0:0:0:0:
456,304,119981,38,0,P|458:271|445:237,1,59.4999981842042,0|0,3:0|0:0,0:0:0:0:
397,178,120315,2,0,P|443:211|501:206,1,118.999996368408,8|0,0:0|0:0,0:0:0:0:
466,129,120815,1,0,3:0:0:0:
373,280,120981,1,8,0:0:0:0:
502,205,121148,1,2,0:0:0:0:
309,151,121315,5,2,3:0:0:0:
309,151,121481,1,2,0:0:0:0:
256,224,121648,2,0,P|275:264|284:307,1,89.2499972763062,10|0,0:0|0:0,0:0:0:0:
287,323,121981,1,2,0:0:0:0:
104,240,122148,1,0,3:0:0:0:
166,173,122315,1,10,0:0:0:0:
82,322,122481,2,0,P|50:322|23:329,2,59.4999981842042,2|0|0,0:0|3:0|0:0,0:0:0:0:
165,328,122981,38,0,P|152:272|104:240,1,118.999996368408,10|0,0:0|0:0,0:0:0:0:
19,244,123481,1,0,3:0:0:0:
166,173,123648,2,0,P|173:144|168:110,1,59.4999981842042,8|0,0:0|0:0,0:0:0:0:
227,232,123981,5,2,3:0:0:0:
89,139,124148,1,2,0:0:0:0:
290,175,124315,2,0,P|354:189|384:225,1,89.2499972763062,10|0,0:0|0:0,0:0:0:0:
378,215,124648,37,2,0:0:0:0:
402,103,124815,1,0,3:0:0:0:
304,260,124982,1,10,0:0:0:0:
464,232,125148,1,2,3:0:0:0:
310,350,125315,6,0,P|281:342|251:343,1,59.4999981842042,0|0,3:0|0:0,0:0:0:0:
151,370,125648,2,0,P|201:341|221:286,1,118.999996368408,8|0,0:0|0:0,0:0:0:0:
136,285,126148,1,0,3:0:0:0:
304,260,126315,1,8,0:0:0:0:
152,200,126481,1,2,0:0:0:0:
260,187,126648,37,2,3:0:0:0:
310,350,126815,1,2,0:0:0:0:
384,224,126981,1,10,0:0:0:0:
221,285,127148,1,2,0:0:0:0:
396,360,127315,2,0,L|390:296,1,50.9999984436036,2|0,0:0|3:0,0:0:0:0:
384,224,127648,1,10,0:0:0:0:
221,285,127815,6,0,P|196:272|173:253,2,42.5,2|0|0,0:0|3:0|0:0,0:0:0:0:
304,260,128315,1,10,0:0:0:0:
176,168,128481,38,0,P|161:144|150:116,2,42.5,2|0|0,0:0|0:0|3:0,0:0:0:0:
260,187,128981,1,10,0:0:0:0:
195,43,129148,6,0,P|194:15|199:-14,2,42.5,2|0|0,0:0|3:0|0:0,0:0:0:0:
259,102,129648,1,10,0:0:0:0:
88,184,129815,38,0,P|48:197|7:188,1,85,2|0,0:0|3:0,0:0:0:0:
27,72,130315,2,0,P|37:91|43:112,1,42.5,8|0,0:0|3:0,0:0:0:0:
8,360,130648,5,6,3:0:0:0:
256,192,149315,12,0,151815,0:0:0:0:
296,192,151981,22,0,P|256:183|223:144,1,76.4999976654053,2|0,0:0|0:0,0:0:0:0:
148,38,152315,2,0,P|185:47|220:85,1,76.4999976654053,2|0,0:0|0:0,0:0:0:0:
79,350,152648,38,0,B|20:325|9:247|61:195|61:195|132:191|154:126|144:89,2,305.999990661621,2|0|0,0:0|0:0|0:0,0:0:0:0:
61,111,154148,1,0,0:0:0:0:
208,200,154315,1,0,0:0:0:0:
148,38,154481,1,0,0:0:0:0:
112,224,154648,5,0,0:0:0:0:
232,104,154815,2,0,B|297:84|337:140|337:140|377:196|443:176,1,229.499992996216
450,33,155481,38,0,P|424:60|411:96,1,76.4999976654053,2|0,0:0|0:0,0:0:0:0:
431,179,155815,2,0,P|423:255|365:294,1,152.999995330811,2|0,0:0|0:0,0:0:0:0:
350,209,156315,1,2,0:0:0:0:
440,360,156481,1,2,0:0:0:0:
274,304,156648,2,0,P|226:288|170:304,1,76.4999976654053,2|2,0:0|0:0,0:0:0:0:
122,368,156981,1,2,0:0:0:0:
122,368,157148,2,0,P|154:301|123:234,1,152.999995330811,2|0,0:0|0:0,0:0:0:0:
2,107,157648,2,0,P|58:155|130:142,1,152.999995330811,2|0,0:0|0:0,0:0:0:0:
197,21,158148,6,0,P|208:57|205:95,1,76.4999976654053,2|0,0:0|0:0,0:0:0:0:
209,180,158481,2,0,P|258:235|331:233,1,152.999995330811,2|0,0:0|0:0,0:0:0:0:
291,156,158981,1,2,0:0:0:0:
240,320,159148,1,2,0:0:0:0:
284,70,159315,2,0,P|321:76|353:97,1,76.4999976654053,2|0,0:0|0:0,0:0:0:0:
487,196,159648,1,2,0:0:0:0:
487,196,159815,2,0,B|434:159|439:95|439:95|434:159|375:183,1,229.499992996216,2|0,0:0|0:0,0:0:0:0:
316,285,160481,2,0,P|335:214|291:156,1,152.999995330811,2|0,0:0|0:0,0:0:0:0:
251,230,160981,37,2,0:0:0:0:
408,304,161148,1,2,0:0:0:0:
174,192,161315,6,0,P|116:219|54:289,1,152.999995330811,2|0,0:0|0:0,0:0:0:0:
86,369,161815,1,2,0:0:0:0:
76,144,161981,1,2,0:0:0:0:
0,352,162148,1,2,0:0:0:0:
160,320,162315,1,2,0:0:0:0:
8,199,162481,1,2,0:0:0:0:
233,367,162648,38,0,P|243:301|234:272,1,76.4999976654053,2|0,3:0|0:0,0:0:0:0:
288,152,162981,2,0,P|285:190|296:226,1,76.4999976654053,2|0,0:0|0:0,0:0:0:0:
417,372,163315,6,0,P|392:283|334:356,1,229.499992996216,2|0,3:0|0:0,0:0:0:0:
506,175,163981,2,0,P|436:113|428:205,1,229.499992996216,0|0,3:0|0:0,0:0:0:0:
497,259,164648,37,0,3:0:0:0:
296,226,164815,1,0,0:0:0:0:
384,48,164981,1,0,0:0:0:0:
369,181,165148,1,0,0:0:0:0:
248,48,165315,5,0,3:0:0:0:
176,200,165481,1,0,0:0:0:0:
176,200,165648,2,0,P|200:144|200:96,1,76.4999976654053
159,54,165981,1,0,3:0:0:0:
96,256,166148,2,0,P|88:195|64:153,1,76.4999976654053,2|0,0:0|0:0,0:0:0:0:
8,138,166481,1,2,0:0:0:0:
144,328,166648,38,0,P|180:316|218:314,1,76.4999976654053,0|2,3:0|0:0,0:0:0:0:
288,368,166981,1,2,0:0:0:0:
176,200,167148,1,2,0:0:0:0:
289,280,167315,2,0,P|326:292|364:293,1,76.4999976654053,2|2,3:0|0:0,0:0:0:0:
430,238,167648,1,2,0:0:0:0:
264,200,167815,1,2,0:0:0:0:
405,155,167981,6,0,P|403:117|387:82,1,76.4999976654053,0|0,3:0|0:0,0:0:0:0:
264,200,168315,2,0,P|227:225|202:281,1,76.4999976654053,2|0,3:0|0:0,0:0:0:0:
321,135,168648,38,0,P|287:117|249:114,1,76.4999976654053,0|2,3:0|0:0,0:0:0:0:
289,280,168981,2,0,P|291:317|307:352,1,76.4999976654053,0|2,3:0|0:0,0:0:0:0:
97,135,169315,6,0,L|25:128,1,59.4999981842042,0|2,3:0|0:0,0:0:0:0:
0,212,169648,2,0,L|59:217,1,59.4999981842042,2|2,3:0|0:0,0:0:0:0:
213,361,169981,38,0,L|154:366,1,59.4999981842042,2|2,3:0|0:0,0:0:0:0:
116,284,170314,2,0,L|175:278,1,59.4999981842042,2|2,3:0|0:0,0:0:0:0:
352,352,170648,6,0,P|344:312|336:292,1,42.5,0|0,3:0|0:0,0:0:0:0:
272,264,170981,2,0,P|280:224|288:204,1,42.5,0|2,3:0|0:0,0:0:0:0:
352,176,171315,38,0,P|344:136|336:116,1,42.5,0|0,3:0|0:0,0:0:0:0:
272,88,171648,2,0,P|280:48|288:28,1,42.5,2|2,3:0|0:0,0:0:0:0:
200,192,171981,22,0,P|128:216|64:160,1,152.999995330811,2|8,0:3|3:0,0:0:0:0:
132,297,172481,5,2,3:0:0:0:
133,312,172564,1,0,3:0:0:0:
134,328,172647,1,2,3:0:0:0:
142,132,172815,38,0,P|153:109|161:98,1,21.25,2|0,0:3|0:0,0:0:0:0:
225,67,172981,6,0,P|265:41|296:30,1,42.5,2|0,0:3|0:0,0:0:0:0:
346,57,173148,38,0,P|399:53|432:62,1,63.7500024318696,2|0,0:3|0:0,0:0:0:0:
440,312,173315,22,0,B|416:248|456:200|456:200|432:136|432:136|498:114|500:51|489:21,1,318.750012159348,6|0,3:0|0:0,0:0:0:0:
409,55,173815,5,0,3:0:0:0:
348,296,173981,2,0,P|324:216|268:168,1,127.500004863739,8|2,0:0|0:0,0:0:0:0:
177,308,174315,2,0,P|210:231|197:158,1,127.500004863739,2|2,3:0|0:0,0:0:0:0:
13,224,174648,38,0,P|81:273|123:198,1,191.250007295609,2|0,3:0|0:0,0:0:0:0:
120,182,174981,1,2,0:0:0:0:
8,344,175148,1,2,3:0:0:0:
248,112,175315,5,10,0:0:0:0:
16,55,175481,1,2,3:0:0:0:
256,28,175648,2,0,P|322:73|329:128,1,127.500004863739,10|2,0:0|0:0,0:0:0:0:
265,341,175981,37,2,3:0:0:0:
428,183,176148,2,0,B|452:183|470:197|470:197|442:152|398:166|398:166|370:200|323:197,1,191.250007295609,2|0,0:0|0:0,0:0:0:0:
333,199,176481,1,0,3:0:0:0:
440,344,176648,6,0,P|379:286|304:304,1,127.500004863739,8|2,0:0|0:0,0:0:0:0:
164,283,176981,2,0,P|224:340|300:323,1,127.500004863739,2|2,3:0|0:0,0:0:0:0:
203,173,177315,38,0,P|110:180|52:252,1,191.250007295609,2|0,3:0|0:0,0:0:0:0:
49,272,177648,1,2,0:0:0:0:
136,87,177815,1,2,3:0:0:0:
164,283,177981,5,10,0:0:0:0:
50,50,178148,1,2,3:0:0:0:
232,66,178315,37,10,0:0:0:0:
24,136,178481,1,2,0:0:0:0:
341,132,178648,6,0,B|358:91|400:82|400:82|342:72|300:101|286:157|286:157|232:141|193:180,1,318.750012159348,2|0,3:0|0:0,0:0:0:0:
257,237,179148,37,0,3:0:0:0:
467,134,179315,2,0,P|479:52|433:3,1,127.500004863739,8|2,0:0|0:0,0:0:0:0:
303,12,179648,1,2,3:0:0:0:
408,208,179815,1,2,0:0:0:0:
232,66,179981,6,0,B|179:42|138:90|138:90|98:138|45:115,1,191.250007295609,2|0,3:0|0:0,0:0:0:0:
46,115,180315,1,2,0:0:0:0:
216,224,180481,1,2,3:0:0:0:
45,29,180648,37,10,0:0:0:0:
14,294,180815,1,2,3:0:0:0:
293,255,180981,2,0,P|294:192|252:147,1,127.500004863739,10|2,0:0|0:0,0:0:0:0:
0,193,181315,5,2,3:0:0:0:
280,339,181481,2,0,B|226:329|211:278|211:278|179:321|124:311,1,191.250007295609,2|0,0:0|0:0,0:0:0:0:
111,309,181815,1,0,3:0:0:0:
448,331,181981,38,0,P|467:249|442:180,1,127.500004863739,8|2,0:0|0:0,0:0:0:0:
293,255,182315,2,0,P|360:204|385:135,1,127.500004863739,2|2,3:0|0:0,0:0:0:0:
193,100,182648,6,0,P|227:176|301:132,1,191.250007295609,2|0,3:0|0:0,0:0:0:0:
306,118,182981,1,2,0:0:0:0:
112,184,183148,1,2,3:0:0:0:
232,24,183315,1,10,0:0:0:0:
111,309,183481,1,2,3:0:0:0:
147,23,183648,1,10,0:0:0:0:
492,338,183815,37,2,3:0:0:0:
494,321,183898,1,0,3:0:0:0:
497,305,183981,2,0,B|490:233|421:183|345:199|306:250|306:250|306:250|306:250|330:286|320:335|290:359,1,318.750012159348,6|0,3:0|0:0,0:0:0:0:
235,296,184481,5,0,3:0:0:0:
184,104,184648,2,0,P|226:149|224:211,1,127.500004863739,8|2,0:0|0:0,0:0:0:0:
196,371,184981,2,0,P|153:325|155:263,1,127.500004863739,2|2,3:0|0:0,0:0:0:0:
249,49,185315,38,0,P|193:20|100:98,1,191.250007295609,2|0,3:0|0:0,0:0:0:0:
97,106,185648,1,2,0:0:0:0:
333,35,185815,1,2,3:0:0:0:
114,195,185981,5,10,0:0:0:0:
306,118,186148,1,2,3:0:0:0:
35,169,186315,2,0,P|37:231|82:273,1,127.500004863739,10|2,0:0|0:0,0:0:0:0:
240,168,186648,37,2,3:0:0:0:
59,356,186815,2,0,B|97:368|130:344|130:344|174:370|174:370|202:341|251:341,1,191.250007295609,2|0,0:0|0:0,0:0:0:0:
249,339,187148,1,0,3:0:0:0:
496,256,187315,6,0,P|412:265|377:334,1,127.500004863739,8|2,0:0|0:0,0:0:0:0:
240,168,187648,2,0,P|323:177|358:246,1,127.500004863739,2|2,3:0|0:0,0:0:0:0:
146,236,187981,38,0,P|130:132|209:55,1,191.250007295609,2|0,3:0|0:0,0:0:0:0:
193,60,188315,1,2,0:0:0:0:
24,128,188481,1,2,3:0:0:0:
280,72,188648,5,10,0:0:0:0:
80,24,188815,1,2,3:0:0:0:
344,136,188981,37,10,0:0:0:0:
50,219,189148,1,2,0:0:0:0:
424,256,189315,6,0,B|387:214|330:231|330:231|305:276|249:278|249:278|290:220|246:160,1,318.750012159348,2|0,3:0|0:0,0:0:0:0:
184,220,189815,1,0,3:0:0:0:
454,337,189981,38,0,P|499:294|506:232,1,127.500004863739,8|2,0:0|0:0,0:0:0:0:
344,136,190315,1,2,3:0:0:0:
371,329,190481,1,2,0:0:0:0:
473,70,190648,6,0,B|497:123|449:164|449:164|401:204|424:257,1,191.250007295609,2|0,3:0|0:0,0:0:0:0:
424,256,190982,1,2,0:0:0:0:
312,48,191148,1,2,3:0:0:0:
288,320,191315,37,10,0:0:0:0:
396,23,191481,1,2,3:0:0:0:
177,134,191648,2,0,P|192:208|232:240,1,127.500004863739,10|2,0:0|0:0,0:0:0:0:
192,24,191981,5,2,3:0:0:0:
32,160,192148,2,0,P|0:216|88:184,1,191.250007295609,2|0,0:0|0:0,0:0:0:0:
99,208,192481,1,0,3:0:0:0:
9,26,192648,38,0,P|50:71|112:67,1,127.500004863739,8|2,0:0|0:0,0:0:0:0:
280,92,192981,2,0,P|238:137|176:133,1,127.500004863739,2|2,3:0|0:0,0:0:0:0:
308,7,193315,6,0,P|362:58|358:133,1,152.999995330811,2|0,3:0|0:0,0:0:0:0:
350,149,193648,1,10,0:0:0:0:
464,16,193815,1,2,3:0:0:0:
465,31,193898,1,8,0:0:0:0:
466,47,193981,1,10,0:0:0:0:
316,228,194148,37,2,3:0:0:0:
512,192,194315,2,0,P|456:184|408:216,1,101.999996887207,10|2,0:0|0:0,0:0:0:0:
304,320,194648,6,0,P|274:243|191:234,1,152.999995330811,4|0,3:0|0:0,0:0:0:0:
196,229,194981,38,0,P|175:284|104:310,1,101.999996887207,8|0,0:0|0:0,0:0:0:0:
18,216,195315,2,0,P|66:204|112:224,1,101.999996887207,0|0,0:0|3:0,0:0:0:0:
304,320,195648,1,8,0:0:0:0:
96,375,195815,6,0,P|61:338|56:288,1,101.999996887207,2|0,0:0|3:0,0:0:0:0:
176,64,196148,1,2,0:0:0:0:
140,306,196315,1,10,0:0:0:0:
64,56,196481,1,2,0:0:0:0:
316,228,196648,1,2,0:0:0:0:
368,8,196815,1,2,3:0:0:0:
125,129,196981,2,0,P|170:149|219:137,1,101.999996887207,10|0,0:0|0:0,0:0:0:0:
487,85,197315,38,0,P|396:125|391:191,1,152.999995330811,0|0,3:0|0:0,0:0:0:0:
388,185,197648,6,0,P|400:233|380:279,1,101.999996887207,8|0,0:0|0:0,0:0:0:0:
194,234,197981,1,0,0:0:0:0:
432,352,198148,1,0,3:0:0:0:
305,143,198315,1,8,0:0:0:0:
168,320,198481,38,0,L|65:338,1,101.999996887207,2|0,0:0|3:0,0:0:0:0:
219,136,198815,1,2,0:0:0:0:
248,360,198981,1,10,0:0:0:0:
96,160,199148,1,2,0:0:0:0:
286,275,199315,1,2,0:0:0:0:
200,24,199481,1,2,3:0:0:0:
56,248,199648,5,10,0:0:0:0:
279,65,199815,1,0,3:0:0:0:
456,355,199981,38,0,P|482:285|450:217,1,152.999995330811,2|0,3:0|0:0,0:0:0:0:
443,208,200315,6,0,P|379:184|355:144,1,101.999996887207,8|2,0:0|0:0,0:0:0:0:
424,56,200648,2,0,P|488:80|512:120,1,101.999996887207,0|0,0:0|3:0,0:0:0:0:
392,288,200981,1,10,0:0:0:0:
261,165,201148,38,0,L|280:54,1,101.999996887207,2|0,0:0|3:0,0:0:0:0:
443,208,201481,1,2,0:0:0:0:
184,216,201648,1,10,0:0:0:0:
358,112,201815,1,2,0:0:0:0:
152,304,201981,1,2,0:0:0:0:
357,248,202148,1,2,3:0:0:0:
96,232,202315,2,0,P|35:210|9:166,1,101.999996887207,10|0,0:0|0:0,0:0:0:0:
206,47,202648,6,0,P|142:63|94:159,1,152.999995330811,2|0,3:0|0:0,0:0:0:0:
92,146,202981,38,0,P|140:159|173:197,1,101.999996887207,10|2,0:0|0:0,0:0:0:0:
72,344,203315,1,2,0:0:0:0:
256,168,203481,1,2,3:0:0:0:
376,344,203648,2,0,P|424:330|457:292,1,101.999996887207,10|0,0:0|0:0,0:0:0:0:
488,30,203981,6,0,P|416:24|336:44,1,152.999995330811,2|0,3:0|0:0,0:0:0:0:
325,51,204315,1,10,0:0:0:0:
482,116,204481,2,0,P|432:109|381:117,1,101.999996887207,2|2,3:0|0:0,0:0:0:0:
216,173,204815,38,0,B|261:182|297:156|297:156|367:214|367:214|407:186|462:198,1,254.999992218018,10|0,0:0|0:0,0:0:0:0:
457,198,205315,6,0,P|397:250|402:340,1,152.999995330811,0|0,3:0|0:0,0:0:0:0:
398,333,205648,38,0,P|342:309|270:333,1,101.999996887207,8|0,0:0|0:0,0:0:0:0:
136,344,205981,2,0,P|192:368|264:344,1,101.999996887207,0|0,0:0|3:0,0:0:0:0:
376,229,206315,1,10,0:0:0:0:
168,187,206481,6,0,P|171:238|200:280,1,101.999996887207,2|0,0:0|3:0,0:0:0:0:
304,112,206815,1,2,0:0:0:0:
88,264,206981,1,10,0:0:0:0:
232,56,207148,1,2,0:0:0:0:
302,314,207315,1,2,0:0:0:0:
368,48,207481,1,2,3:0:0:0:
104,96,207648,2,0,L|-7:76,1,101.999996887207,10|0,0:0|0:0,0:0:0:0:
168,187,207981,38,0,L|341:156,1,152.999995330811,0|0,3:0|0:0,0:0:0:0:
333,157,208315,6,0,P|317:216|349:285,1,101.999996887207,8|0,0:0|0:0,0:0:0:0:
432,352,208648,2,0,P|447:304|438:254,1,101.999996887207,0|0,0:0|3:0,0:0:0:0:
258,316,208981,1,10,0:0:0:0:
384,88,209148,38,0,L|494:68,1,101.999996887207,2|0,0:0|3:0,0:0:0:0:
237,39,209481,1,2,0:0:0:0:
326,254,209648,1,10,0:0:0:0:
325,16,209815,1,2,0:0:0:0:
184,264,209981,1,2,0:0:0:0:
72,32,210148,1,2,3:0:0:0:
248,184,210315,5,10,0:0:0:0:
0,176,210481,1,0,3:0:0:0:
326,254,210648,38,0,P|376:266|416:355,1,152.999995330811,2|0,3:0|0:0,0:0:0:0:
416,366,210981,6,0,P|402:317|416:269,1,101.999996887207,8|2,0:0|0:0,0:0:0:0:
512,128,211315,1,0,0:0:0:0:
326,254,211481,1,0,3:0:0:0:
504,216,211648,1,8,0:0:0:0:
204,126,211815,38,0,P|239:163|287:176,1,101.999996887207,2|0,0:0|3:0,0:0:0:0:
376,24,212148,1,2,0:0:0:0:
232,256,212315,1,10,0:0:0:0:
136,72,212481,1,2,0:0:0:0:
400,136,212648,1,2,0:0:0:0:
208,24,212815,1,2,3:0:0:0:
88,208,212981,2,0,L|70:310,1,101.999996887207,10|0,0:0|0:0,0:0:0:0:
296,368,213315,6,0,L|265:195,1,152.999995330811,2|0,3:0|0:0,0:0:0:0:
266,204,213648,38,0,P|218:236|147:225,1,101.999996887207,10|2,0:0|0:0,0:0:0:0:
48,128,213981,1,2,0:0:0:0:
144,360,214148,1,2,3:0:0:0:
196,151,214315,2,0,P|244:119|315:130,1,101.999996887207,10|0,0:0|0:0,0:0:0:0:
480,248,214648,5,2,3:0:0:0:
320,280,214815,1,0,3:0:0:0:
432,168,214981,1,10,0:0:0:0:
384,344,215148,1,2,3:0:0:0:
488,96,215315,1,2,3:0:0:0:
232,256,215481,38,0,P|202:224|168:171,1,63.7500024318696,10|0,0:0|0:0,0:0:0:0:
143,94,215648,2,0,P|130:136|101:192,1,63.7500024318696,2|0,3:0|0:0,0:0:0:0:
48,253,215815,2,0,P|91:243|154:240,1,63.7500024318696,8|0,0:0|0:0,0:0:0:0:
384,344,215981,22,0,B|335:401|234:377|215:279|268:222|326:222|326:222|379:218|419:172|417:116|386:81,1,467.5,6|0,3:0|0:0,0:0:0:0:
321,135,217981,1,0,0:0:0:0:
321,135,218148,1,0,0:0:0:0:
357,27,218315,1,0,0:0:0:0:
357,27,218481,1,0,0:0:0:0:
208,21,218648,5,0,0:0:0:0:
282,60,218815,2,0,P|234:60|170:108,1,127.5
146,218,219481,38,0,P|136:178|127:160,1,42.5,2|0,0:0|0:0,0:0:0:0:
42,172,219815,2,0,P|60:210|67:252,1,85,2|2,0:0|0:0,0:0:0:0:
15,323,220315,1,2,0:0:0:0:
133,305,220481,1,2,0:0:0:0:
222,367,220648,2,0,P|262:359|270:359,1,42.5,2|2,0:0|0:0,0:0:0:0:
368,347,220981,1,2,0:0:0:0:
368,347,221148,2,0,P|391:299|384:259,1,85,2|0,0:0|0:0,0:0:0:0:
325,211,221648,2,0,P|302:259|309:299,1,85,2|0,0:0|0:0,0:0:0:0:
421,190,222148,6,0,P|460:199|478:208,1,42.5,2|0,0:0|0:0,0:0:0:0:
467,294,222482,2,0,P|428:275|386:268,1,85,2|2,0:0|0:0,0:0:0:0:
305,289,222981,1,2,0:0:0:0:
232,205,223148,1,2,0:0:0:0:
319,137,223315,2,0,P|329:101|329:75,1,42.5,2|2,0:0|0:0,0:0:0:0:
365,21,223648,1,2,0:0:0:0:
365,21,223815,2,0,P|306:63|238:57,1,127.5,2|0,0:0|0:0,0:0:0:0:
98,23,224481,2,0,P|139:32|171:59,1,85,2|0,0:0|0:0,0:0:0:0:
100,112,224981,37,2,0:0:0:0:
253,63,225148,1,2,0:0:0:0:
100,112,225315,2,0,P|92:153|105:193,1,85,2|0,0:0|0:0,0:0:0:0:
183,238,225815,1,2,0:0:0:0:
183,238,225981,2,0,P|222:244|237:249,1,42.5,2|2,0:0|0:0,0:0:0:0:
283,312,226315,2,0,P|322:318|338:319,1,42.5,2|2,0:0|0:0,0:0:0:0:
406,279,226648,5,2,0:0:0:0:
494,128,226981,1,2,0:0:0:0:
468,339,227315,38,0,B|486:319|516:257|450:204|450:204|384:150|413:88|431:69,1,297.5,2|0,0:0|0:0,0:0:0:0:
494,128,228648,5,0,0:0:0:0:
494,128,228815,1,0,0:0:0:0:
482,13,228981,1,0,0:0:0:0:
482,13,229148,1,0,0:0:0:0:
351,131,229315,37,0,0:0:0:0:
424,76,229482,2,0,P|362:87|305:60,1,127.5
224,43,230148,6,0,P|187:25|168:20,1,42.5,2|0,0:0|0:0,0:0:0:0:
121,94,230482,2,0,P|162:105|198:126,1,85,2|2,0:0|0:0,0:0:0:0:
214,208,230981,1,2,0:0:0:0:
121,271,231148,1,2,0:0:0:0:
232,332,231315,2,0,P|226:311|218:292,1,42.5,2|2,0:0|0:0,0:0:0:0:
130,187,231648,1,2,0:0:0:0:
130,187,231815,2,0,P|77:197|50:227,1,85,2|0,0:0|0:0,0:0:0:0:
46,302,232315,2,0,P|98:291|125:261,1,85,2|0,0:0|0:0,0:0:0:0:
227,168,232815,6,0,P|219:187|214:208,1,42.5,2|0,0:0|0:0,0:0:0:0:
290,247,233149,2,0,P|300:206|322:170,1,85,2|2,0:0|0:0,0:0:0:0:
405,184,233648,1,2,0:0:0:0:
355,88,233815,1,2,0:0:0:0:
468,41,233981,2,0,P|465:62|459:83,1,42.5,2|2,0:0|0:0,0:0:0:0:
405,184,234315,1,2,0:0:0:0:
405,184,234481,2,0,P|456:133|493:160,1,127.5,2|0,0:0|0:0,0:0:0:0:
373,260,235148,2,0,P|408:282|429:318,1,85,2|0,0:0|0:0,0:0:0:0:
346,346,235648,37,2,0:0:0:0:
508,281,235815,1,2,0:0:0:0:
346,346,235981,2,0,P|308:365|266:365,1,85,2|0,0:0|0:0,0:0:0:0:
204,256,236481,1,2,0:0:0:0:
204,256,236648,2,0,P|217:287|219:302,1,42.5,2|2,0:0|0:0,0:0:0:0:
183,372,236981,1,2,0:0:0:0:
