osu file format v14

[General]
AudioFilename: audio.mp3
AudioLeadIn: 0
PreviewTime: 86628
Countdown: 0
SampleSet: Normal
StackLeniency: 0.7
Mode: 1
LetterboxInBreaks: 0
WidescreenStoryboard: 1

[Editor]
Bookmarks: 24128,45461,66794,88128,93461,98794,104128,106794,109461,114794,120128,162794
DistanceSpacing: 0.9
BeatDivisor: 4
GridSize: 4
TimelineZoom: 1.399999

[Metadata]
Title:Nothing More
TitleUnicode:Nothing More
Artist:Mazare & Luma
ArtistUnicode:Mazare & Luma
Creator:SWAKE
Version:Oni
Source:
Tags:genjuro dancefloor dnb drum & and 'n' bass melodic drumstep electronic dance music edm monstercat instinct vol. volume 3 female vocals vocalist english
BeatmapID:2690857
BeatmapSetID:1293465

[Difficulty]
HPDrainRate:5.5
CircleSize:5
OverallDifficulty:5.5
ApproachRate:5
SliderMultiplier:1.4
SliderTickRate:1

[Events]
//Background and Video events
0,0,"eaeeaeaeaeaeaea.jpg",0,-32
//Break Periods
//Storyboard Layer 0 (Background)
//Storyboard Layer 1 (Fail)
//Storyboard Layer 2 (Pass)
//Storyboard Layer 3 (Foreground)
//Storyboard Layer 4 (Overlay)
//Storyboard Sound Samples

[TimingPoints]
2795,333.333333333333,4,1,0,78,1,0
2795,-111.111111111111,4,1,0,78,0,0
32086,-90.9090909090909,4,1,0,78,0,0
32419,-94.1176470588235,4,1,0,78,0,0
32752,-97.5609756097561,4,1,0,78,0,0
33252,-103.225806451613,4,1,0,78,0,0
33419,-105.263157894737,4,1,0,78,0,0
33752,-109.58904109589,4,1,0,78,0,0
34086,-114.285714285714,4,1,0,78,0,0
34252,-116.788321167883,4,1,0,78,0,0
34419,-119.402985074627,4,1,0,78,0,0
34586,-122.137404580153,4,1,0,78,0,0
34752,-125,4,1,0,78,0,0
42586,-90.9090909090909,4,1,0,78,0,0
42669,-91.6442443748763,4,1,0,78,0,0
42752,-92.3912993265598,4,1,0,78,0,0
42975,-94.4444024691545,4,1,0,78,0,0
43197,-96.59092006715,4,1,0,78,0,0
43419,-98.837180570587,4,1,0,78,0,0
43864,-103.658523944082,4,1,0,78,0,0
44086,-106.250053125027,4,1,0,78,0,0
44308,-108.974365959895,4,1,0,78,0,0
44530,-111.842061114976,4,1,0,78,0,0
44752,-114.864895909431,4,1,0,78,0,0
44919,-117.241403567187,4,1,0,78,0,0
45086,-119.718326720891,4,1,0,78,0,0
45252,-122.302167072098,4,1,0,78,0,0
45419,-125,4,1,0,78,0,0
56002,-111.111111111111,4,1,0,88,0,0
64128,-111.111111111111,4,1,0,88,0,0
64294,-108.843537414966,4,1,0,88,0,0
64461,-106.666666666667,4,1,0,88,0,0
64628,-104.575163398693,4,1,0,88,0,0
64794,-102.564102564103,4,1,0,88,0,0
64961,-100.62893081761,4,1,0,88,0,0
65128,-98.7654320987654,4,1,0,88,0,0
65294,-96.969696969697,4,1,0,88,0,0
65461,-95.2380952380952,4,1,0,88,0,0
65752,-95.2380952380952,4,1,0,88,0,0
65919,-98.0153844947503,4,1,0,88,0,0
66086,-100.959519271153,4,1,0,88,0,0
66252,-104.086000016654,4,1,0,88,0,0
66419,-107.412308591266,4,1,0,88,0,0
66586,-110.958235320225,4,1,0,88,0,0
66752,-95.2380952380952,4,1,0,95,0,0
86752,-95.2380952380952,4,1,0,95,0,0
86918,-97.2102599596772,4,1,0,95,0,0
87085,-99.2658299218976,4,1,0,95,0,0
87252,-101.410107545419,4,1,0,95,0,0
87418,-103.649176559117,4,1,0,95,0,0
87585,-105.989352309667,4,1,0,95,0,0
87752,-108.437641307801,4,1,0,95,0,0
87919,-111.001589542762,4,1,0,95,0,0
88128,-95.2380952380952,4,1,0,100,0,1
106752,-95.2380952380952,4,1,0,95,0,1
106836,-94.9161937467313,4,1,0,95,0,1
106919,-94.5964609572027,4,1,0,95,0,1
107086,-93.9635026962827,4,1,0,85,0,1
107252,-93.3388714397054,4,1,0,85,0,1
107336,-93.0296597161107,4,1,0,85,0,1
107419,-92.7224899326557,4,1,0,80,0,1
107502,-92.4174273391082,4,1,0,80,0,1
107586,-92.1142806611595,4,1,0,80,0,1
107752,-91.5139146907287,4,1,0,75,0,1
107919,-90.921323959951,4,1,0,75,0,1
108002,-90.6279793948226,4,1,0,75,0,1
108086,-90.3364400035051,4,1,0,70,0,1
108169,-90.0467702924899,4,1,0,70,0,1
108252,-89.7589523335084,4,1,0,70,0,1
108419,-89.188801097379,4,1,0,65,0,1
108586,-88.625925919361,4,1,0,65,0,1
108669,-88.3471051745783,4,1,0,65,0,1
108752,-88.0700332904726,4,1,0,60,0,1
108836,-87.7946938642922,4,1,0,60,0,1
108919,-87.5210706977705,4,1,0,60,0,1
109086,-86.9789850074324,4,1,0,60,0,1
109461,-86.9565217391304,4,1,0,50,0,0
109752,-88.4135774962689,4,1,0,50,0,0
110252,-90.6930764905407,4,1,0,50,0,0
110586,-92.2791851378836,4,1,0,50,0,0
110752,-93.0932272815288,4,1,0,50,0,0
111086,-94.7651719040218,4,1,0,50,0,0
111586,-97.3887163485464,4,1,0,50,0,0
112085,-100.16176124441,4,1,0,50,0,0
112419,-102.099888404822,4,1,0,50,0,0
112919,-105.151918233868,4,1,0,50,0,0
113418,-108.392036653851,4,1,0,50,0,0
113752,-110.665375570618,4,1,0,50,0,0
114252,-114.259989465229,4,1,0,50,0,0
114586,-116.78886675091,4,1,0,50,0,0
114752,-118.095822950742,4,1,0,50,0,0
115086,-120.799499406874,4,1,0,50,0,0
115586,-125.095385231239,4,1,0,50,0,0
115919,-128.133176498325,4,1,0,50,0,0
116085,-129.708078997408,4,1,0,50,0,0
116419,-132.976955093682,4,1,0,50,0,0
116919,-138.201337236139,4,1,0,50,0,0
117419,-143.853016741614,4,1,0,50,0,0
117752,-147.884803653346,4,1,0,50,0,0
118252,-154.374589942495,4,1,0,50,0,0
118752,-161.460376816227,4,1,0,50,0,0
119086,-166.557016630718,4,1,0,50,0,0
119420,-125,4,1,0,78,0,0
119587,-119.047619047619,4,1,0,78,0,0
119754,-116.279069767442,4,1,0,78,0,0
119920,-113.636363636364,4,1,0,78,0,0
120087,-111.111111111111,4,1,0,78,0,0
128087,-90.9090909090909,4,1,0,78,0,0
128420,-93.0232558139535,4,1,0,78,0,0
128753,-95.2380952380952,4,1,0,78,0,0
129253,-98.7654320987654,4,1,0,78,0,0
129420,-100,4,1,0,78,0,0
129753,-102.564102564103,4,1,0,78,0,0
130087,-105.263157894737,4,1,0,78,0,0
130753,-111.111111111111,4,1,0,78,0,0
138586,-90.9090909090909,4,1,0,78,0,0
138669,-91.6442443748763,4,1,0,78,0,0
138752,-92.3912993265598,4,1,0,78,0,0
138975,-94.4444024691545,4,1,0,78,0,0
139197,-96.59092006715,4,1,0,78,0,0
139419,-98.837180570587,4,1,0,78,0,0
139864,-103.658523944082,4,1,0,78,0,0
140086,-106.250053125027,4,1,0,78,0,0
140308,-108.974365959895,4,1,0,78,0,0
140530,-111.842061114976,4,1,0,78,0,0
140752,-114.864895909431,4,1,0,78,0,0
140919,-117.241403567187,4,1,0,78,0,0
141086,-119.718326720891,4,1,0,78,0,0
141252,-122.302167072098,4,1,0,78,0,0
141419,-125,4,1,0,78,0,0
152044,-111.111111111111,4,1,0,88,0,0
161752,-111.111111111111,4,1,0,88,0,0
161919,-113.192853456004,4,1,0,88,0,0
162086,-115.353957851971,4,1,0,88,0,0
162252,-117.599327331848,4,1,0,88,0,0
162419,-119.933844491379,4,1,0,88,0,0
162752,-125,4,1,0,95,0,0
181377,-125,4,1,0,95,0,0
182752,-111.111111111111,4,1,0,95,0,0
182919,-108.855030136515,4,1,0,95,0,0
183252,-104.606996743584,4,1,0,95,0,0
183419,-102.605039343902,4,1,0,95,0,0
183586,-100.678168140595,4,1,0,95,0,0
183919,-97.0336803904635,4,1,0,95,0,0
184128,-95.3086236195737,4,1,0,100,0,1
202753,-95.2380952380952,4,1,0,95,0,1
202836,-95.6651261392521,4,1,0,94,0,1
202919,-96.0960960960961,4,1,0,93,0,1
203002,-96.5308734692617,4,1,0,91,0,1
203086,-96.969696969697,4,1,0,90,0,1
203252,-97.8593272171254,4,1,0,89,0,1
203586,-99.6884735202492,4,1,0,88,0,1
203752,-100.62893081761,4,1,0,87,0,1
203919,-101.587301587302,4,1,0,86,0,1
204002,-102.073417326146,4,1,0,84,0,1
204086,-102.564102564103,4,1,0,83,0,1
204252,-103.559870550162,4,1,0,82,0,1
204586,-105.610561056106,4,1,0,81,0,1
204752,-106.666666666667,4,1,0,80,0,1
204919,-107.744107744108,4,1,0,79,0,1
205086,-108.843537414966,4,1,0,77,0,1
205252,-109.965635738832,4,1,0,76,0,1
205461,-111.111111111111,4,1,0,75,0,0

[HitObjects]
335,172,23461,5,8,0:0:0:0:
335,172,23628,1,8,0:0:0:0:
297,241,23794,1,0,0:0:0:0:
335,172,23961,1,8,0:0:0:0:
335,172,24128,1,4,0:0:0:0:
161,103,24794,1,8,0:0:0:0:
248,254,25128,1,0,0:0:0:0:
161,103,25294,1,8,0:0:0:0:
161,103,25461,1,0,0:0:0:0:
161,103,25794,1,0,0:0:0:0:
161,103,26128,1,8,0:0:0:0:
161,103,26794,1,0,0:0:0:0:
161,103,27128,1,8,0:0:0:0:
161,103,27461,1,0,0:0:0:0:
222,134,27628,1,8,0:0:0:0:
314,69,27961,1,0,0:0:0:0:
203,66,28294,1,8,0:0:0:0:
203,66,28461,1,0,0:0:0:0:
310,87,28794,1,8,0:0:0:0:
310,87,29128,1,8,0:0:0:0:
235,258,29294,1,8,0:0:0:0:
310,87,29461,1,0,0:0:0:0:
149,192,29794,1,0,0:0:0:0:
149,192,30128,1,8,0:0:0:0:
185,115,30461,1,0,0:0:0:0:
201,204,30628,1,8,0:0:0:0:
185,115,30794,1,8,0:0:0:0:
185,115,31128,1,0,0:0:0:0:
179,118,31461,1,8,0:0:0:0:
214,183,32128,1,8,0:0:0:0:
409,135,32461,1,0,0:0:0:0:
192,74,32794,1,8,0:0:0:0:
300,80,33294,1,0,0:0:0:0:
268,155,33461,1,8,0:0:0:0:
147,78,33794,1,0,0:0:0:0:
268,125,34128,1,8,0:0:0:0:
268,125,34294,1,8,0:0:0:0:
207,268,34461,1,0,0:0:0:0:
268,125,34628,1,8,0:0:0:0:
166,143,34794,1,0,0:0:0:0:
288,102,35461,1,8,0:0:0:0:
221,177,35794,1,0,0:0:0:0:
180,180,35961,1,0,0:0:0:0:
191,69,36128,1,8,0:0:0:0:
191,69,36461,1,0,0:0:0:0:
191,69,36794,1,8,0:0:0:0:
191,69,37461,1,0,0:0:0:0:
212,146,37794,1,8,0:0:0:0:
260,69,38128,1,8,0:0:0:0:
121,120,38294,1,0,0:0:0:0:
294,133,38628,5,0,0:0:0:0:
219,71,38961,1,8,0:0:0:0:
240,27,39128,1,0,0:0:0:0:
292,44,39461,1,8,0:0:0:0:
292,44,39794,1,8,0:0:0:0:
270,68,40128,1,0,0:0:0:0:
266,200,40461,1,0,0:0:0:0:
301,214,40628,1,0,0:0:0:0:
180,78,40794,1,8,0:0:0:0:
289,143,41294,1,0,0:0:0:0:
289,143,41461,1,8,0:0:0:0:
268,68,41794,1,0,0:0:0:0:
268,68,42128,1,8,0:0:0:0:
198,142,42628,1,8,0:0:0:0:
198,142,42711,1,8,0:0:0:0:
198,142,42794,1,0,0:0:0:0:
385,78,43017,1,0,0:0:0:0:
379,78,43239,1,0,0:0:0:0:
379,78,43461,1,8,0:0:0:0:
274,56,43906,5,8,0:0:0:0:
172,43,44128,1,8,0:0:0:0:
406,90,44350,1,0,0:0:0:0:
406,90,44572,1,0,0:0:0:0:
263,183,44794,5,8,0:0:0:0:
263,183,44961,1,8,0:0:0:0:
135,235,45128,1,0,0:0:0:0:
188,77,45294,1,8,0:0:0:0:
188,77,45461,1,4,0:0:0:0:
293,98,46461,1,0,0:0:0:0:
251,39,46794,1,8,0:0:0:0:
274,47,47461,1,0,0:0:0:0:
274,47,48128,1,8,0:0:0:0:
274,47,49128,1,8,0:0:0:0:
288,75,49461,1,0,0:0:0:0:
258,54,50128,1,0,0:0:0:0:
280,44,50794,1,8,0:0:0:0:
280,54,51794,1,0,0:0:0:0:
219,73,52128,1,8,0:0:0:0:
219,73,52794,1,8,0:0:0:0:
219,73,53461,1,0,0:0:0:0:
219,73,54461,1,0,0:0:0:0:
219,73,54794,1,8,0:0:0:0:
219,73,55294,1,8,0:0:0:0:
219,73,55461,1,0,0:0:0:0:
219,73,56128,1,4,0:0:0:0:
219,73,56461,1,8,0:0:0:0:
219,73,56961,1,0,0:0:0:0:
219,73,57128,1,8,0:0:0:0:
196,46,57461,1,0,0:0:0:0:
196,46,57794,1,8,0:0:0:0:
196,46,57961,1,0,0:0:0:0:
196,46,58294,1,0,0:0:0:0:
196,46,58461,1,8,0:0:0:0:
189,97,58794,1,0,0:0:0:0:
234,86,59128,1,8,0:0:0:0:
216,80,59628,1,0,0:0:0:0:
216,80,59794,1,8,0:0:0:0:
216,80,60128,1,8,0:0:0:0:
216,80,60461,1,8,0:0:0:0:
216,80,60628,1,0,0:0:0:0:
216,80,60961,1,0,0:0:0:0:
216,80,61128,1,8,0:0:0:0:
216,80,61378,1,8,0:0:0:0:
216,80,61461,1,0,0:0:0:0:
210,79,61794,1,0,0:0:0:0:
230,91,62128,1,0,0:0:0:0:
312,122,62294,1,8,0:0:0:0:
230,91,62461,1,0,0:0:0:0:
230,91,62794,1,0,0:0:0:0:
312,122,63128,1,0,0:0:0:0:
312,122,63461,1,0,0:0:0:0:
312,122,63628,1,8,0:0:0:0:
258,142,63794,1,0,0:0:0:0:
312,122,64128,1,0,0:0:0:0:
312,122,64294,1,8,0:0:0:0:
312,122,64461,1,8,0:0:0:0:
312,122,64628,1,0,0:0:0:0:
327,117,64794,1,8,0:0:0:0:
326,117,64961,1,0,0:0:0:0:
326,117,65128,1,0,0:0:0:0:
268,108,65294,1,0,0:0:0:0:
326,117,65461,1,8,0:0:0:0:
281,147,65794,1,8,0:0:0:0:
256,145,65961,1,0,0:0:0:0:
281,147,66128,1,8,0:0:0:0:
281,147,66294,1,8,0:0:0:0:
220,121,66461,1,0,0:0:0:0:
281,147,66628,1,8,0:0:0:0:
202,69,66794,1,4,0:0:0:0:
384,113,67128,1,8,0:0:0:0:
348,115,67294,1,0,0:0:0:0:
348,115,67378,1,0,0:0:0:0:
348,115,67461,1,8,0:0:0:0:
340,136,67628,1,0,0:0:0:0:
229,100,67794,1,8,0:0:0:0:
229,100,67961,1,8,0:0:0:0:
234,87,68294,1,0,0:0:0:0:
234,87,68461,1,8,0:0:0:0:
233,87,68628,1,8,0:0:0:0:
233,87,68711,1,8,0:0:0:0:
233,87,68794,1,0,0:0:0:0:
232,87,68961,1,0,0:0:0:0:
225,94,69128,1,8,0:0:0:0:
225,95,69294,1,8,0:0:0:0:
225,95,69461,1,0,0:0:0:0:
234,78,69794,1,8,0:0:0:0:
234,78,69961,1,0,0:0:0:0:
253,126,70044,1,0,0:0:0:0:
235,78,70128,1,8,0:0:0:0:
227,73,70294,1,0,0:0:0:0:
227,73,70461,1,8,0:0:0:0:
227,73,70628,1,0,0:0:0:0:
220,117,70961,1,0,0:0:0:0:
227,75,71128,1,8,0:0:0:0:
227,73,71294,1,8,0:0:0:0:
251,128,71378,1,0,0:0:0:0:
227,73,71461,1,8,0:0:0:0:
227,73,71628,1,0,0:0:0:0:
227,75,71794,1,8,0:0:0:0:
240,70,71961,1,8,0:0:0:0:
172,34,72128,1,0,0:0:0:0:
281,118,72461,1,8,0:0:0:0:
296,78,72628,1,8,0:0:0:0:
296,78,72711,1,8,0:0:0:0:
296,78,72794,1,0,0:0:0:0:
294,84,72961,1,0,0:0:0:0:
294,84,73128,1,8,0:0:0:0:
294,84,73294,1,0,0:0:0:0:
281,64,73628,1,0,0:0:0:0:
281,64,73794,1,8,0:0:0:0:
281,64,73961,1,0,0:0:0:0:
271,64,74044,1,8,0:0:0:0:
271,64,74128,1,0,0:0:0:0:
270,64,74294,1,0,0:0:0:0:
270,64,74461,1,8,0:0:0:0:
257,56,74628,1,8,0:0:0:0:
257,62,74794,1,0,0:0:0:0:
258,62,75128,1,8,0:0:0:0:
258,62,75294,1,0,0:0:0:0:
258,62,75378,1,0,0:0:0:0:
258,62,75461,1,8,0:0:0:0:
237,16,75628,1,0,0:0:0:0:
237,16,75794,1,8,0:0:0:0:
190,80,75961,1,0,0:0:0:0:
229,95,76128,1,8,0:0:0:0:
205,43,76461,1,8,0:0:0:0:
205,43,76628,1,0,0:0:0:0:
205,43,76711,1,0,0:0:0:0:
205,43,76794,1,8,0:0:0:0:
205,43,76961,1,0,0:0:0:0:
205,43,77128,1,8,0:0:0:0:
180,31,77294,1,0,0:0:0:0:
180,31,77378,1,0,0:0:0:0:
293,255,77461,5,0,0:0:0:0:
384,113,77795,1,8,0:0:0:0:
348,115,77961,1,0,0:0:0:0:
348,115,78045,1,0,0:0:0:0:
348,115,78128,1,8,0:0:0:0:
340,136,78295,1,0,0:0:0:0:
229,100,78461,1,8,0:0:0:0:
229,100,78628,1,8,0:0:0:0:
234,87,78961,1,0,0:0:0:0:
234,87,79128,1,8,0:0:0:0:
233,87,79295,1,8,0:0:0:0:
233,87,79378,1,8,0:0:0:0:
233,87,79461,1,0,0:0:0:0:
232,87,79628,1,0,0:0:0:0:
225,94,79795,1,8,0:0:0:0:
225,95,79961,1,8,0:0:0:0:
225,95,80128,1,0,0:0:0:0:
234,78,80461,1,8,0:0:0:0:
234,78,80628,1,0,0:0:0:0:
227,73,80711,1,0,0:0:0:0:
235,78,80795,1,8,0:0:0:0:
227,73,80961,1,0,0:0:0:0:
227,73,81128,1,8,0:0:0:0:
227,73,81295,1,0,0:0:0:0:
227,73,81628,1,0,0:0:0:0:
227,75,81795,1,8,0:0:0:0:
285,153,81961,1,8,0:0:0:0:
255,147,82044,1,0,0:0:0:0:
227,73,82128,1,8,0:0:0:0:
227,73,82295,1,0,0:0:0:0:
227,75,82461,1,8,0:0:0:0:
240,70,82628,1,8,0:0:0:0:
172,34,82794,1,0,0:0:0:0:
281,118,83127,1,8,0:0:0:0:
296,78,83294,1,8,0:0:0:0:
296,78,83377,1,8,0:0:0:0:
296,78,83460,1,0,0:0:0:0:
294,84,83627,1,0,0:0:0:0:
294,84,83794,1,8,0:0:0:0:
294,84,83960,1,0,0:0:0:0:
281,64,84294,1,0,0:0:0:0:
281,64,84460,1,8,0:0:0:0:
281,64,84627,1,0,0:0:0:0:
271,64,84710,1,8,0:0:0:0:
271,64,84794,1,0,0:0:0:0:
270,64,84960,1,0,0:0:0:0:
270,64,85127,1,8,0:0:0:0:
257,56,85294,1,8,0:0:0:0:
257,62,85460,1,0,0:0:0:0:
203,68,85628,1,0,0:0:0:0:
258,62,85794,1,8,0:0:0:0:
258,62,85960,1,0,0:0:0:0:
258,62,86044,1,0,0:0:0:0:
258,62,86127,1,8,0:0:0:0:
237,16,86294,1,0,0:0:0:0:
237,16,86460,1,8,0:0:0:0:
259,124,86794,1,0,0:0:0:0:
205,43,86960,5,0,0:0:0:0:
205,43,87127,1,8,0:0:0:0:
235,171,87294,1,8,0:0:0:0:
205,43,87460,1,0,0:0:0:0:
205,43,87627,1,8,0:0:0:0:
168,136,87794,1,8,0:0:0:0:
205,43,87961,1,8,0:0:0:0:
288,176,88128,5,4,0:0:0:0:
288,176,88461,1,8,0:0:0:0:
286,114,88628,1,0,0:0:0:0:
239,96,88711,1,0,0:0:0:0:
239,96,88794,1,8,0:0:0:0:
239,96,88961,1,0,0:0:0:0:
220,42,89128,1,8,0:0:0:0:
220,42,89294,1,8,0:0:0:0:
220,172,89378,1,8,0:0:0:0:
220,42,89461,1,0,0:0:0:0:
220,42,89628,1,0,0:0:0:0:
220,42,89794,1,8,0:0:0:0:
220,42,89961,1,8,0:0:0:0:
429,195,90044,1,8,0:0:0:0:
220,42,90128,1,0,0:0:0:0:
220,42,90211,1,8,0:0:0:0:
220,42,90294,1,0,0:0:0:0:
220,42,90461,1,8,0:0:0:0:
220,42,90628,1,8,0:0:0:0:
212,43,90794,1,0,0:0:0:0:
245,84,91128,1,8,0:0:0:0:
245,84,91294,1,0,0:0:0:0:
216,196,91378,1,0,0:0:0:0:
245,84,91461,1,8,0:0:0:0:
240,78,91628,1,0,0:0:0:0:
240,79,91794,1,8,0:0:0:0:
255,146,91961,1,0,0:0:0:0:
240,79,92128,1,8,0:0:0:0:
317,164,92211,1,8,0:0:0:0:
240,81,92294,1,0,0:0:0:0:
240,88,92461,1,8,0:0:0:0:
230,81,92628,1,8,0:0:0:0:
282,102,92794,1,0,0:0:0:0:
282,102,92878,5,8,0:0:0:0:
288,84,92961,1,0,0:0:0:0:
288,85,93128,1,8,0:0:0:0:
287,85,93294,1,8,0:0:0:0:
285,85,93461,1,0,0:0:0:0:
272,111,93794,1,8,0:0:0:0:
271,230,93961,1,0,0:0:0:0:
271,230,94044,1,8,0:0:0:0:
241,189,94128,1,0,0:0:0:0:
209,138,94294,1,0,0:0:0:0:
241,189,94461,1,8,0:0:0:0:
241,189,94628,1,8,0:0:0:0:
197,65,94711,1,8,0:0:0:0:
241,189,94794,1,0,0:0:0:0:
234,180,94961,1,0,0:0:0:0:
234,180,95128,1,8,0:0:0:0:
243,107,95294,1,0,0:0:0:0:
243,107,95461,1,8,0:0:0:0:
243,107,95544,1,8,0:0:0:0:
243,107,95628,1,0,0:0:0:0:
243,107,95794,1,8,0:0:0:0:
243,107,95961,1,8,0:0:0:0:
242,94,96128,1,0,0:0:0:0:
240,94,96461,1,8,0:0:0:0:
239,94,96628,1,8,0:0:0:0:
205,55,96711,1,8,0:0:0:0:
239,94,96794,1,0,0:0:0:0:
239,94,96961,1,0,0:0:0:0:
242,94,97128,1,8,0:0:0:0:
212,85,97294,1,0,0:0:0:0:
326,106,97461,1,8,0:0:0:0:
190,123,97544,1,0,0:0:0:0:
329,140,97628,1,8,0:0:0:0:
329,140,97794,1,8,0:0:0:0:
294,91,97961,1,0,0:0:0:0:
294,91,98128,1,0,0:0:0:0:
294,91,98211,1,0,0:0:0:0:
299,106,98294,1,8,0:0:0:0:
299,106,98461,1,8,0:0:0:0:
299,109,98628,1,0,0:0:0:0:
299,112,98711,1,0,0:0:0:0:
288,176,98794,5,0,0:0:0:0:
288,176,99127,1,8,0:0:0:0:
286,114,99294,1,0,0:0:0:0:
239,96,99377,1,0,0:0:0:0:
239,96,99460,1,8,0:0:0:0:
239,96,99627,1,0,0:0:0:0:
220,42,99794,1,8,0:0:0:0:
220,42,99960,1,8,0:0:0:0:
220,172,100044,1,8,0:0:0:0:
220,42,100127,1,0,0:0:0:0:
220,42,100294,1,0,0:0:0:0:
220,42,100460,1,8,0:0:0:0:
220,42,100627,1,8,0:0:0:0:
429,195,100710,1,8,0:0:0:0:
220,42,100794,1,0,0:0:0:0:
220,42,100877,1,8,0:0:0:0:
220,42,100961,1,0,0:0:0:0:
220,42,101127,1,8,0:0:0:0:
220,42,101294,1,8,0:0:0:0:
212,43,101460,1,0,0:0:0:0:
245,84,101794,1,8,0:0:0:0:
245,84,101960,1,0,0:0:0:0:
216,196,102044,1,0,0:0:0:0:
245,84,102127,1,8,0:0:0:0:
240,78,102294,1,0,0:0:0:0:
240,79,102460,1,8,0:0:0:0:
255,146,102627,1,0,0:0:0:0:
240,79,102794,1,8,0:0:0:0:
317,164,102877,1,8,0:0:0:0:
240,81,102960,1,0,0:0:0:0:
240,88,103127,1,8,0:0:0:0:
230,81,103294,1,8,0:0:0:0:
282,102,103460,1,0,0:0:0:0:
282,102,103544,5,0,0:0:0:0:
288,84,103627,1,8,0:0:0:0:
288,85,103794,1,8,0:0:0:0:
287,85,103960,1,8,0:0:0:0:
285,85,104128,1,0,0:0:0:0:
272,111,104460,1,8,0:0:0:0:
271,230,104627,1,0,0:0:0:0:
271,230,104710,1,8,0:0:0:0:
241,189,104794,1,0,0:0:0:0:
209,138,104960,1,0,0:0:0:0:
241,189,105127,1,8,0:0:0:0:
241,189,105294,1,8,0:0:0:0:
197,65,105377,1,8,0:0:0:0:
241,189,105460,1,0,0:0:0:0:
234,180,105627,5,0,0:0:0:0:
234,180,105794,1,8,0:0:0:0:
243,107,105960,1,0,0:0:0:0:
243,107,106128,1,8,0:0:0:0:
243,107,106210,1,8,0:0:0:0:
243,107,106294,1,0,0:0:0:0:
243,107,106460,1,8,0:0:0:0:
243,107,106627,1,8,0:0:0:0:
242,94,106794,1,0,0:0:0:0:
303,239,106878,1,0,0:0:0:0:
303,239,106961,1,8,0:0:0:0:
291,157,107128,1,8,0:0:0:0:
296,172,107294,1,0,0:0:0:0:
296,174,107378,1,0,0:0:0:0:
296,180,107461,1,8,0:0:0:0:
296,180,107544,1,8,0:0:0:0:
296,180,107628,1,0,0:0:0:0:
296,180,107794,1,8,0:0:0:0:
296,180,107961,1,8,0:0:0:0:
296,180,108044,1,0,0:0:0:0:
303,130,108128,1,8,0:0:0:0:
303,130,108211,1,8,0:0:0:0:
303,130,108294,1,0,0:0:0:0:
230,108,108461,1,8,0:0:0:0:
305,85,108628,1,8,0:0:0:0:
305,85,108711,1,8,0:0:0:0:
305,85,108794,1,0,0:0:0:0:
305,85,108878,1,8,0:0:0:0:
305,85,108961,1,0,0:0:0:0:
305,85,109128,1,8,0:0:0:0:
296,86,109461,1,8,0:0:0:0:
217,112,109794,1,8,0:0:0:0:
228,35,110294,1,0,0:0:0:0:
228,35,110628,1,0,0:0:0:0:
228,35,110794,1,8,0:0:0:0:
228,35,111128,1,8,0:0:0:0:
228,35,111628,1,0,0:0:0:0:
228,35,112127,1,8,0:0:0:0:
228,35,112461,1,8,0:0:0:0:
228,35,112961,1,0,0:0:0:0:
228,35,113460,1,8,0:0:0:0:
228,35,113794,1,8,0:0:0:0:
228,35,114294,1,0,0:0:0:0:
228,35,114628,1,0,0:0:0:0:
228,35,114794,1,0,0:0:0:0:
228,35,115128,1,0,0:0:0:0:
228,35,115628,1,8,0:0:0:0:
332,240,115961,1,0,0:0:0:0:
228,35,116128,1,0,0:0:0:0:
228,35,116461,1,0,0:0:0:0:
228,35,116961,1,8,0:0:0:0:
310,97,117461,1,0,0:0:0:0:
303,40,117794,1,0,0:0:0:0:
190,61,118294,1,8,0:0:0:0:
190,61,118794,1,0,0:0:0:0:
190,61,119128,1,0,0:0:0:0:
335,172,119461,5,8,0:0:0:0:
335,172,119628,1,8,0:0:0:0:
375,166,119794,1,0,0:0:0:0:
335,172,119961,1,8,0:0:0:0:
335,172,120128,1,4,0:0:0:0:
161,103,120794,1,8,0:0:0:0:
249,273,121128,1,0,0:0:0:0:
161,103,121294,1,0,0:0:0:0:
161,103,121461,1,8,0:0:0:0:
161,103,121794,1,0,0:0:0:0:
161,103,122128,1,8,0:0:0:0:
161,103,122794,1,0,0:0:0:0:
161,103,123128,1,0,0:0:0:0:
161,103,123461,1,8,0:0:0:0:
204,90,123628,1,0,0:0:0:0:
314,69,123961,1,0,0:0:0:0:
203,66,124294,1,0,0:0:0:0:
203,66,124461,1,8,0:0:0:0:
310,87,124794,1,8,0:0:0:0:
310,87,125128,1,8,0:0:0:0:
240,283,125294,1,8,0:0:0:0:
310,87,125461,1,0,0:0:0:0:
149,192,125794,1,0,0:0:0:0:
149,192,126128,1,8,0:0:0:0:
185,115,126461,1,0,0:0:0:0:
198,154,126628,1,8,0:0:0:0:
185,115,126794,1,8,0:0:0:0:
185,115,127128,1,0,0:0:0:0:
179,118,127461,1,8,0:0:0:0:
214,183,128128,1,8,0:0:0:0:
409,135,128461,1,0,0:0:0:0:
192,74,128794,1,8,0:0:0:0:
300,80,129294,1,0,0:0:0:0:
300,80,129461,1,8,0:0:0:0:
198,59,129794,1,0,0:0:0:0:
333,119,130128,1,8,0:0:0:0:
166,143,130794,1,0,0:0:0:0:
288,102,131461,1,8,0:0:0:0:
258,238,131794,1,0,0:0:0:0:
180,180,131961,1,0,0:0:0:0:
191,69,132128,1,8,0:0:0:0:
191,69,132461,1,0,0:0:0:0:
191,69,132794,1,8,0:0:0:0:
191,69,133461,1,0,0:0:0:0:
294,153,133794,1,8,0:0:0:0:
260,69,134128,1,0,0:0:0:0:
281,111,134294,1,8,0:0:0:0:
294,133,134628,5,0,0:0:0:0:
219,71,134961,1,8,0:0:0:0:
240,27,135128,1,0,0:0:0:0:
292,44,135461,1,8,0:0:0:0:
292,44,135794,1,8,0:0:0:0:
270,68,136128,1,0,0:0:0:0:
239,290,136461,1,0,0:0:0:0:
180,78,136794,1,8,0:0:0:0:
241,251,137294,1,0,0:0:0:0:
241,282,137461,1,8,0:0:0:0:
268,68,137794,1,0,0:0:0:0:
268,68,138128,1,8,0:0:0:0:
198,142,138628,1,8,0:0:0:0:
198,142,138711,1,8,0:0:0:0:
198,142,138794,1,0,0:0:0:0:
385,78,139017,1,0,0:0:0:0:
379,78,139239,1,0,0:0:0:0:
379,78,139461,1,8,0:0:0:0:
274,56,139906,5,8,0:0:0:0:
172,43,140128,1,8,0:0:0:0:
406,90,140350,5,0,0:0:0:0:
406,90,140572,1,0,0:0:0:0:
263,183,140794,5,8,0:0:0:0:
263,183,140961,1,8,0:0:0:0:
226,245,141128,1,0,0:0:0:0:
188,77,141294,1,8,0:0:0:0:
188,77,141461,1,4,0:0:0:0:
293,98,142461,1,0,0:0:0:0:
251,39,142794,1,8,0:0:0:0:
274,47,143461,1,0,0:0:0:0:
274,47,144128,1,8,0:0:0:0:
274,47,145128,1,8,0:0:0:0:
288,75,145461,1,0,0:0:0:0:
258,54,146128,1,0,0:0:0:0:
280,44,146794,1,8,0:0:0:0:
280,54,147794,1,0,0:0:0:0:
219,73,148128,1,8,0:0:0:0:
219,73,148794,1,8,0:0:0:0:
219,73,149461,1,0,0:0:0:0:
219,73,150461,1,0,0:0:0:0:
219,73,150794,1,8,0:0:0:0:
219,73,151294,1,8,0:0:0:0:
219,73,151461,1,0,0:0:0:0:
219,73,152128,1,4,0:0:0:0:
344,87,152794,1,8,0:0:0:0:
289,50,153461,1,8,0:0:0:0:
251,16,153794,1,0,0:0:0:0:
196,46,154128,1,8,0:0:0:0:
189,97,154794,1,0,0:0:0:0:
301,96,155461,1,8,0:0:0:0:
308,43,155961,5,0,0:0:0:0:
216,80,156128,1,8,0:0:0:0:
216,80,156461,1,8,0:0:0:0:
207,15,156794,1,0,0:0:0:0:
216,80,157461,1,8,0:0:0:0:
210,79,157794,1,0,0:0:0:0:
230,91,158128,1,8,0:0:0:0:
257,191,158294,1,8,0:0:0:0:
230,91,158461,1,0,0:0:0:0:
230,91,158794,1,8,0:0:0:0:
312,122,159128,1,0,0:0:0:0:
312,122,159461,1,8,0:0:0:0:
312,122,159794,1,0,0:0:0:0:
220,154,159961,1,8,0:0:0:0:
312,122,160128,1,0,0:0:0:0:
312,122,160461,1,8,0:0:0:0:
327,117,160794,1,0,0:0:0:0:
326,117,161128,1,0,0:0:0:0:
191,65,161294,1,0,0:0:0:0:
326,117,161461,1,8,0:0:0:0:
258,76,161794,1,0,0:0:0:0:
258,76,161961,1,8,0:0:0:0:
258,76,162128,1,0,0:0:0:0:
258,76,162294,1,0,0:0:0:0:
294,151,162461,1,8,0:0:0:0:
266,221,162794,5,4,0:0:0:0:
249,209,163461,1,8,0:0:0:0:
231,190,163794,1,0,0:0:0:0:
231,190,163961,1,0,0:0:0:0:
287,200,164128,1,8,0:0:0:0:
231,191,164294,1,8,0:0:0:0:
231,191,164461,1,0,0:0:0:0:
231,190,164794,1,8,0:0:0:0:
231,191,165128,1,0,0:0:0:0:
231,191,165294,1,8,0:0:0:0:
231,191,165461,1,0,0:0:0:0:
269,184,165794,1,0,0:0:0:0:
231,191,165961,1,0,0:0:0:0:
231,191,166128,1,8,0:0:0:0:
269,184,166294,1,0,0:0:0:0:
231,190,166628,1,0,0:0:0:0:
231,191,166961,1,0,0:0:0:0:
231,191,167128,1,0,0:0:0:0:
231,190,167461,1,8,0:0:0:0:
255,207,167628,1,0,0:0:0:0:
235,183,167961,1,8,0:0:0:0:
235,183,168128,1,0,0:0:0:0:
334,164,168794,1,8,0:0:0:0:
334,164,169128,1,0,0:0:0:0:
334,164,169294,1,8,0:0:0:0:
286,159,169461,1,0,0:0:0:0:
330,141,169628,1,8,0:0:0:0:
331,142,169794,1,0,0:0:0:0:
331,142,170128,1,8,0:0:0:0:
330,141,170461,1,0,0:0:0:0:
330,141,170628,1,8,0:0:0:0:
291,144,170794,1,0,0:0:0:0:
290,89,171128,1,0,0:0:0:0:
291,144,171294,1,0,0:0:0:0:
291,144,171461,1,8,0:0:0:0:
290,89,171628,1,0,0:0:0:0:
270,109,171961,1,0,0:0:0:0:
270,109,172294,1,8,0:0:0:0:
270,109,172461,1,0,0:0:0:0:
283,96,172628,1,0,0:0:0:0:
277,103,172794,1,8,0:0:0:0:
290,121,172961,1,0,0:0:0:0:
290,121,173294,1,8,0:0:0:0:
266,221,173461,5,4,0:0:0:0:
249,209,174128,1,8,0:0:0:0:
231,190,174461,1,0,0:0:0:0:
231,190,174628,1,8,0:0:0:0:
273,98,174794,1,8,0:0:0:0:
231,191,174961,1,8,0:0:0:0:
231,191,175128,1,0,0:0:0:0:
231,190,175461,1,8,0:0:0:0:
231,191,175795,1,0,0:0:0:0:
231,191,175961,1,8,0:0:0:0:
231,191,176128,1,0,0:0:0:0:
271,99,176461,1,0,0:0:0:0:
231,191,176628,1,0,0:0:0:0:
231,191,176795,1,8,0:0:0:0:
271,99,176961,1,8,0:0:0:0:
231,190,177295,1,0,0:0:0:0:
231,191,177628,1,0,0:0:0:0:
231,191,177795,1,0,0:0:0:0:
231,190,178128,1,8,0:0:0:0:
255,207,178295,1,0,0:0:0:0:
235,183,178628,1,8,0:0:0:0:
235,183,178794,1,0,0:0:0:0:
334,164,179461,1,8,0:0:0:0:
334,164,179795,1,0,0:0:0:0:
334,164,179961,1,8,0:0:0:0:
200,109,180128,1,0,0:0:0:0:
330,141,180295,5,8,0:0:0:0:
331,142,180461,1,0,0:0:0:0:
331,142,180795,1,8,0:0:0:0:
330,141,181128,1,8,0:0:0:0:
330,141,181295,1,8,0:0:0:0:
291,144,181461,1,4,0:0:0:0:
270,109,182794,1,8,0:0:0:0:
270,201,182961,1,0,0:0:0:0:
281,33,183294,1,0,0:0:0:0:
302,149,183461,1,8,0:0:0:0:
238,49,183628,1,0,0:0:0:0:
273,157,183961,1,8,0:0:0:0:
288,176,184128,5,4,0:0:0:0:
288,176,184461,1,8,0:0:0:0:
286,114,184628,1,0,0:0:0:0:
239,96,184711,1,0,0:0:0:0:
239,96,184794,1,8,0:0:0:0:
239,96,184961,1,0,0:0:0:0:
220,42,185128,1,8,0:0:0:0:
220,42,185294,1,8,0:0:0:0:
220,172,185378,1,8,0:0:0:0:
220,42,185461,1,0,0:0:0:0:
220,42,185628,1,0,0:0:0:0:
220,42,185794,1,8,0:0:0:0:
220,42,185961,1,8,0:0:0:0:
429,195,186044,1,8,0:0:0:0:
220,42,186128,1,0,0:0:0:0:
220,42,186211,1,0,0:0:0:0:
220,42,186294,1,8,0:0:0:0:
220,42,186461,1,8,0:0:0:0:
220,42,186628,1,8,0:0:0:0:
212,43,186794,1,0,0:0:0:0:
245,84,187128,1,8,0:0:0:0:
245,84,187294,1,0,0:0:0:0:
216,196,187378,1,0,0:0:0:0:
245,84,187461,1,8,0:0:0:0:
240,78,187628,1,0,0:0:0:0:
240,79,187794,1,8,0:0:0:0:
255,146,187961,1,0,0:0:0:0:
240,79,188128,1,8,0:0:0:0:
317,164,188211,1,8,0:0:0:0:
240,81,188294,1,0,0:0:0:0:
240,88,188461,1,8,0:0:0:0:
230,81,188628,1,8,0:0:0:0:
282,102,188794,1,0,0:0:0:0:
282,102,188878,5,8,0:0:0:0:
288,84,188961,1,0,0:0:0:0:
288,85,189128,1,8,0:0:0:0:
287,85,189294,1,8,0:0:0:0:
285,85,189461,1,0,0:0:0:0:
272,111,189794,1,8,0:0:0:0:
271,230,189961,1,0,0:0:0:0:
271,230,190044,1,8,0:0:0:0:
241,189,190128,1,0,0:0:0:0:
209,138,190294,1,0,0:0:0:0:
241,189,190461,1,8,0:0:0:0:
241,189,190628,1,8,0:0:0:0:
197,65,190711,1,8,0:0:0:0:
241,189,190794,1,0,0:0:0:0:
234,180,190961,1,0,0:0:0:0:
234,180,191128,1,8,0:0:0:0:
243,107,191294,1,0,0:0:0:0:
243,107,191461,1,8,0:0:0:0:
243,107,191544,1,8,0:0:0:0:
243,107,191628,1,0,0:0:0:0:
243,107,191794,1,8,0:0:0:0:
243,107,191961,1,8,0:0:0:0:
242,94,192128,1,0,0:0:0:0:
240,94,192461,1,8,0:0:0:0:
239,94,192628,1,0,0:0:0:0:
205,55,192711,1,0,0:0:0:0:
239,94,192794,1,8,0:0:0:0:
239,94,192961,1,0,0:0:0:0:
242,94,193128,1,8,0:0:0:0:
212,85,193294,1,0,0:0:0:0:
326,106,193461,1,8,0:0:0:0:
190,123,193544,1,8,0:0:0:0:
329,140,193628,1,0,0:0:0:0:
329,140,193794,1,8,0:0:0:0:
294,91,193961,1,0,0:0:0:0:
294,91,194128,1,0,0:0:0:0:
294,91,194211,1,0,0:0:0:0:
299,106,194294,1,8,0:0:0:0:
299,106,194461,1,8,0:0:0:0:
299,109,194628,1,0,0:0:0:0:
299,112,194711,1,0,0:0:0:0:
288,176,194794,5,0,0:0:0:0:
288,176,195127,1,8,0:0:0:0:
286,114,195294,1,0,0:0:0:0:
239,96,195377,1,0,0:0:0:0:
239,96,195460,1,8,0:0:0:0:
239,96,195627,1,0,0:0:0:0:
220,42,195794,1,8,0:0:0:0:
220,42,195960,1,8,0:0:0:0:
220,172,196044,1,8,0:0:0:0:
220,42,196127,1,0,0:0:0:0:
220,42,196294,1,0,0:0:0:0:
220,42,196460,1,8,0:0:0:0:
220,42,196627,1,8,0:0:0:0:
429,195,196710,1,8,0:0:0:0:
220,42,196794,1,0,0:0:0:0:
220,42,196877,1,0,0:0:0:0:
220,42,196960,1,8,0:0:0:0:
220,42,197127,1,8,0:0:0:0:
220,42,197294,1,8,0:0:0:0:
212,43,197460,1,0,0:0:0:0:
245,84,197794,1,8,0:0:0:0:
245,84,197960,1,0,0:0:0:0:
216,196,198044,1,0,0:0:0:0:
245,84,198127,1,8,0:0:0:0:
240,78,198294,1,0,0:0:0:0:
240,79,198460,1,8,0:0:0:0:
255,146,198627,1,0,0:0:0:0:
240,79,198794,1,8,0:0:0:0:
317,164,198877,1,8,0:0:0:0:
240,81,198960,1,0,0:0:0:0:
240,88,199127,1,8,0:0:0:0:
230,81,199294,1,8,0:0:0:0:
282,102,199460,1,0,0:0:0:0:
282,102,199544,5,0,0:0:0:0:
288,84,199627,1,8,0:0:0:0:
288,85,199794,1,8,0:0:0:0:
287,85,199960,1,8,0:0:0:0:
285,85,200127,1,0,0:0:0:0:
272,111,200460,1,8,0:0:0:0:
271,230,200627,1,0,0:0:0:0:
271,230,200710,1,8,0:0:0:0:
241,189,200794,1,0,0:0:0:0:
209,138,200960,1,0,0:0:0:0:
241,189,201127,1,8,0:0:0:0:
241,189,201294,1,8,0:0:0:0:
197,65,201377,1,8,0:0:0:0:
241,189,201460,1,0,0:0:0:0:
234,180,201627,5,0,0:0:0:0:
234,180,201794,1,8,0:0:0:0:
243,107,201960,1,0,0:0:0:0:
243,107,202128,1,8,0:0:0:0:
243,107,202210,1,8,0:0:0:0:
243,107,202294,1,0,0:0:0:0:
243,107,202460,1,8,0:0:0:0:
243,107,202627,1,0,0:0:0:0:
242,94,202795,1,0,0:0:0:0:
303,239,202878,1,0,0:0:0:0:
303,239,202961,1,8,0:0:0:0:
303,239,203044,1,8,0:0:0:0:
291,157,203128,1,0,0:0:0:0:
296,172,203294,1,12,0:0:0:0:
296,180,203628,1,0,0:0:0:0:
296,180,203794,1,12,0:0:0:0:
296,180,203961,1,8,0:0:0:0:
296,180,204044,1,0,0:0:0:0:
303,130,204128,1,8,0:0:0:0:
303,130,204294,1,0,0:0:0:0:
305,85,204628,1,0,0:0:0:0:
305,85,204794,1,12,0:0:0:0:
305,85,204961,1,0,0:0:0:0:
305,85,205128,1,0,0:0:0:0:
216,106,205294,1,8,0:0:0:0:
296,86,205461,1,0,0:0:0:0:
