osu file format v14

[General]
AudioFilename: audio.mp3
AudioLeadIn: 0
PreviewTime: 86628
Countdown: 0
SampleSet: Normal
StackLeniency: 0.2
Mode: 1
LetterboxInBreaks: 0
WidescreenStoryboard: 1

[Editor]
Bookmarks: 24128,45461,56128,61461,66794,88128,109461,120128,141461,152128,162794,184128,205461
DistanceSpacing: 0.9
BeatDivisor: 4
GridSize: 32
TimelineZoom: 1.1

[Metadata]
Title:Nothing More
TitleUnicode:Nothing More
Artist:Mazare & Luma
ArtistUnicode:Mazare & Luma
Creator:SWAKE
Version:Futsuu
Source:
Tags:genjuro dancefloor dnb drum & and 'n' bass melodic drumstep electronic dance music edm monstercat instinct vol. volume 3 female vocals vocalist english
BeatmapID:2691811
BeatmapSetID:1293465

[Difficulty]
HPDrainRate:6
CircleSize:2
OverallDifficulty:4
ApproachRate:10
SliderMultiplier:1.4
SliderTickRate:1

[Events]
//Background and Video events
0,0,"eaeeaeaeaeaeaea.jpg",0,-32
//Break Periods
2,109661,119011
//Storyboard Layer 0 (Background)
//Storyboard Layer 1 (Fail)
//Storyboard Layer 2 (Pass)
//Storyboard Layer 3 (Foreground)
//Storyboard Layer 4 (Overlay)
//Storyboard Sound Samples

[TimingPoints]
2795,333.333333333333,4,1,0,78,1,0
23378,-100,4,1,0,78,0,0
45503,-100,4,1,0,78,0,0
56086,-100,4,1,0,88,0,0
66753,-100,4,1,0,100,0,0
88128,-100,4,1,0,100,0,1
106836,-100,4,1,0,88,0,1
108419,-100,4,1,0,78,0,1
109461,-100,4,1,0,100,0,0
109544,-100,4,1,0,50,0,0
119419,-100,4,1,0,78,0,0
141503,-100,4,1,0,78,0,0
152086,-100,4,1,0,88,0,0
162753,-100,4,1,0,95,0,0
184128,-100,4,1,0,100,0,1
202836,-100,4,1,0,88,0,1
204253,-100,4,1,0,78,0,1
205461,-100,4,1,0,78,0,0

[HitObjects]
220,186,23461,5,8,0:0:0:0:
220,186,23628,1,8,0:0:0:0:
220,186,23794,1,0,0:0:0:0:
220,186,24128,1,4,0:0:0:0:
220,186,24794,1,8,0:0:0:0:
220,186,25794,1,0,0:0:0:0:
220,186,26128,1,8,0:0:0:0:
220,186,26794,1,0,0:0:0:0:
220,186,27461,1,8,0:0:0:0:
220,186,27961,1,0,0:0:0:0:
235,141,28294,1,8,0:0:0:0:
220,186,28461,1,0,0:0:0:0:
220,186,28794,1,8,0:0:0:0:
220,186,29461,1,0,0:0:0:0:
220,186,30128,1,8,0:0:0:0:
220,186,31128,1,0,0:0:0:0:
220,186,31461,1,8,0:0:0:0:
220,186,32128,1,0,0:0:0:0:
220,186,32794,1,8,0:0:0:0:
220,186,33294,1,0,0:0:0:0:
220,186,33794,1,0,0:0:0:0:
220,186,34128,1,8,0:0:0:0:
220,186,34294,1,0,0:0:0:0:
220,186,34794,1,0,0:0:0:0:
220,186,35461,1,8,0:0:0:0:
220,186,36461,1,0,0:0:0:0:
220,186,36794,1,8,0:0:0:0:
220,186,37461,1,0,0:0:0:0:
220,186,38128,1,8,0:0:0:0:
220,186,38628,1,0,0:0:0:0:
211,133,38961,1,8,0:0:0:0:
220,186,39128,1,0,0:0:0:0:
220,186,39461,1,8,0:0:0:0:
220,186,40128,1,0,0:0:0:0:
220,186,40794,1,8,0:0:0:0:
220,186,41794,1,0,0:0:0:0:
220,186,42128,1,8,0:0:0:0:
220,186,42794,1,0,0:0:0:0:
220,186,43461,1,8,0:0:0:0:
220,186,43961,1,0,0:0:0:0:
220,186,44461,1,0,0:0:0:0:
220,186,44794,1,8,0:0:0:0:
220,186,44961,1,0,0:0:0:0:
220,186,45461,1,4,0:0:0:0:
220,186,46461,1,0,0:0:0:0:
220,186,46794,1,8,0:0:0:0:
220,186,47461,1,0,0:0:0:0:
220,186,48128,1,8,0:0:0:0:
220,186,49128,1,8,0:0:0:0:
220,186,49461,1,0,0:0:0:0:
220,186,50128,1,0,0:0:0:0:
220,186,50794,1,8,0:0:0:0:
220,186,51794,1,0,0:0:0:0:
220,186,52128,1,8,0:0:0:0:
220,186,52794,1,8,0:0:0:0:
220,186,53461,1,0,0:0:0:0:
220,186,54461,1,0,0:0:0:0:
220,186,54794,1,8,0:0:0:0:
182,124,55294,1,8,0:0:0:0:
220,186,55461,1,0,0:0:0:0:
220,186,56128,1,4,0:0:0:0:
220,186,56461,1,8,0:0:0:0:
184,151,56961,1,0,0:0:0:0:
220,186,57128,1,8,0:0:0:0:
220,186,57461,1,0,0:0:0:0:
220,186,57794,1,8,0:0:0:0:
287,167,57961,1,0,0:0:0:0:
220,186,58294,1,0,0:0:0:0:
220,186,58461,1,8,0:0:0:0:
220,186,58794,1,0,0:0:0:0:
220,186,59128,1,8,0:0:0:0:
218,119,59628,1,0,0:0:0:0:
220,186,59794,1,8,0:0:0:0:
220,186,60128,1,8,0:0:0:0:
220,186,60461,1,8,0:0:0:0:
136,101,60628,1,0,0:0:0:0:
220,186,60961,1,0,0:0:0:0:
220,186,61128,1,8,0:0:0:0:
220,186,61461,1,0,0:0:0:0:
220,186,61794,1,0,0:0:0:0:
220,186,62128,1,0,0:0:0:0:
220,186,62461,1,0,0:0:0:0:
220,186,62794,1,8,0:0:0:0:
220,186,63128,1,8,0:0:0:0:
220,186,63461,1,8,0:0:0:0:
220,186,63794,1,8,0:0:0:0:
220,186,64128,1,0,0:0:0:0:
289,150,64294,1,0,0:0:0:0:
220,186,64461,1,0,0:0:0:0:
220,186,64794,1,8,0:0:0:0:
308,208,64961,1,8,0:0:0:0:
220,186,65128,1,8,0:0:0:0:
220,186,65461,1,0,0:0:0:0:
220,186,66128,1,8,0:0:0:0:
220,186,66294,1,0,0:0:0:0:
220,186,66794,1,4,0:0:0:0:
220,186,67128,1,8,0:0:0:0:
207,105,67628,1,0,0:0:0:0:
220,186,67794,1,8,0:0:0:0:
152,65,67961,1,0,0:0:0:0:
220,186,68294,1,0,0:0:0:0:
220,186,68461,1,8,0:0:0:0:
220,186,68961,1,0,0:0:0:0:
220,186,69128,1,8,0:0:0:0:
220,186,69461,1,0,0:0:0:0:
220,186,69794,1,8,0:0:0:0:
220,186,70461,1,8,0:0:0:0:
220,186,70794,1,0,0:0:0:0:
220,186,71128,1,8,0:0:0:0:
220,186,71461,1,0,0:0:0:0:
220,186,71628,1,0,0:0:0:0:
308,208,71794,1,8,0:0:0:0:
186,123,71961,1,8,0:0:0:0:
220,186,72128,1,0,0:0:0:0:
220,186,72461,1,8,0:0:0:0:
185,72,72961,1,0,0:0:0:0:
220,186,73128,1,8,0:0:0:0:
261,33,73294,1,8,0:0:0:0:
220,186,73628,1,0,0:0:0:0:
220,186,73794,1,8,0:0:0:0:
220,186,74294,1,0,0:0:0:0:
220,186,74461,1,8,0:0:0:0:
168,94,74628,1,0,0:0:0:0:
220,186,74794,1,0,0:0:0:0:
220,186,75128,1,8,0:0:0:0:
220,186,75794,1,8,0:0:0:0:
220,186,76128,1,0,0:0:0:0:
220,186,76294,1,8,0:0:0:0:
220,186,76461,1,0,0:0:0:0:
220,186,76794,1,0,0:0:0:0:
220,186,77128,1,8,0:0:0:0:
176,119,77294,1,8,0:0:0:0:
220,186,77461,1,4,0:0:0:0:
220,186,77794,1,8,0:0:0:0:
194,44,78294,1,8,0:0:0:0:
220,186,78461,1,8,0:0:0:0:
245,43,78628,1,0,0:0:0:0:
220,186,78961,1,0,0:0:0:0:
220,186,79128,1,8,0:0:0:0:
220,186,79628,1,0,0:0:0:0:
220,186,79794,1,8,0:0:0:0:
220,186,80128,1,0,0:0:0:0:
220,186,80461,1,8,0:0:0:0:
220,186,81128,1,8,0:0:0:0:
220,186,81461,1,0,0:0:0:0:
220,186,81794,1,8,0:0:0:0:
220,186,82128,1,8,0:0:0:0:
204,131,82294,1,0,0:0:0:0:
135,56,82461,1,8,0:0:0:0:
178,130,82628,1,8,0:0:0:0:
220,186,82794,1,0,0:0:0:0:
220,186,83128,1,8,0:0:0:0:
167,143,83628,1,0,0:0:0:0:
220,186,83794,1,8,0:0:0:0:
327,59,83961,1,0,0:0:0:0:
220,186,84294,1,0,0:0:0:0:
220,186,84461,1,8,0:0:0:0:
220,186,84961,1,0,0:0:0:0:
220,186,85128,1,8,0:0:0:0:
167,125,85294,1,8,0:0:0:0:
220,186,85461,1,0,0:0:0:0:
220,186,85794,1,8,0:0:0:0:
220,186,86461,1,8,0:0:0:0:
220,186,86794,1,0,0:0:0:0:
195,137,86961,1,0,0:0:0:0:
220,186,87128,1,8,0:0:0:0:
220,186,87461,1,0,0:0:0:0:
259,209,87628,1,8,0:0:0:0:
394,216,87794,1,0,0:0:0:0:
303,226,87961,1,8,0:0:0:0:
220,186,88128,1,4,0:0:0:0:
220,186,88461,1,8,0:0:0:0:
137,143,88961,1,0,0:0:0:0:
194,159,89128,1,8,0:0:0:0:
219,130,89461,1,8,0:0:0:0:
323,93,89628,1,0,0:0:0:0:
220,186,89794,1,8,0:0:0:0:
162,149,90294,1,0,0:0:0:0:
154,140,90461,1,8,0:0:0:0:
197,118,90794,1,0,0:0:0:0:
220,90,91128,1,8,0:0:0:0:
143,106,91794,1,8,0:0:0:0:
113,50,92128,1,8,0:0:0:0:
88,1,92294,1,0,0:0:0:0:
115,32,92461,1,8,0:0:0:0:
123,67,92794,1,0,0:0:0:0:
228,63,93128,1,8,0:0:0:0:
220,186,93294,1,8,0:0:0:0:
154,123,93461,1,0,0:0:0:0:
167,148,93794,1,8,0:0:0:0:
143,104,94294,1,0,0:0:0:0:
204,121,94461,1,8,0:0:0:0:
168,93,94794,1,8,0:0:0:0:
164,106,94961,1,0,0:0:0:0:
176,120,95128,1,8,0:0:0:0:
149,125,95628,1,0,0:0:0:0:
149,125,95794,1,8,0:0:0:0:
164,142,96128,1,0,0:0:0:0:
149,125,96461,1,8,0:0:0:0:
170,107,97128,1,8,0:0:0:0:
194,107,97461,1,0,0:0:0:0:
194,107,97628,1,0,0:0:0:0:
177,98,97794,1,8,0:0:0:0:
148,100,98128,1,0,0:0:0:0:
186,109,98461,1,8,0:0:0:0:
160,94,98628,1,8,0:0:0:0:
220,186,98794,1,4,0:0:0:0:
169,122,99128,1,8,0:0:0:0:
202,118,99628,1,0,0:0:0:0:
202,118,99794,1,8,0:0:0:0:
230,113,100128,1,8,0:0:0:0:
219,83,100294,1,0,0:0:0:0:
222,118,100461,1,8,0:0:0:0:
225,99,100961,1,0,0:0:0:0:
225,99,101128,1,8,0:0:0:0:
234,92,101461,1,0,0:0:0:0:
225,99,101794,1,8,0:0:0:0:
216,119,102461,1,8,0:0:0:0:
130,139,102794,1,8,0:0:0:0:
130,139,102961,1,0,0:0:0:0:
159,143,103128,1,8,0:0:0:0:
186,145,103461,1,0,0:0:0:0:
179,108,103794,1,8,0:0:0:0:
212,138,103961,1,8,0:0:0:0:
229,114,104128,1,0,0:0:0:0:
208,124,104461,1,8,0:0:0:0:
181,93,104961,1,0,0:0:0:0:
150,119,105128,1,8,0:0:0:0:
150,119,105461,1,0,0:0:0:0:
159,134,105794,1,8,0:0:0:0:
182,138,106294,1,0,0:0:0:0:
158,116,106461,1,8,0:0:0:0:
166,123,106794,1,0,0:0:0:0:
166,123,107128,1,8,0:0:0:0:
214,137,107628,1,0,0:0:0:0:
152,115,107794,1,8,0:0:0:0:
198,118,108294,1,0,0:0:0:0:
161,139,108461,1,8,0:0:0:0:
214,137,108961,1,0,0:0:0:0:
154,124,109128,1,8,0:0:0:0:
166,127,109294,1,8,0:0:0:0:
135,129,109461,1,0,0:0:0:0:
220,186,119461,5,8,0:0:0:0:
220,186,119628,1,8,0:0:0:0:
220,186,119794,1,0,0:0:0:0:
220,186,120128,1,4,0:0:0:0:
173,115,120794,1,8,0:0:0:0:
113,72,121794,1,0,0:0:0:0:
161,80,122128,1,8,0:0:0:0:
219,55,122794,1,0,0:0:0:0:
201,122,123461,1,8,0:0:0:0:
210,129,123961,1,0,0:0:0:0:
235,141,124294,1,8,0:0:0:0:
216,138,124461,1,0,0:0:0:0:
210,129,124794,1,8,0:0:0:0:
226,144,125461,1,0,0:0:0:0:
223,126,126128,1,8,0:0:0:0:
234,139,127128,1,0,0:0:0:0:
234,139,127461,1,8,0:0:0:0:
249,150,128128,1,0,0:0:0:0:
170,141,128794,1,8,0:0:0:0:
187,126,129294,1,0,0:0:0:0:
187,126,129794,1,0,0:0:0:0:
199,109,130128,1,8,0:0:0:0:
195,113,130294,1,0,0:0:0:0:
204,107,130794,1,0,0:0:0:0:
203,121,131461,1,8,0:0:0:0:
190,116,132461,1,0,0:0:0:0:
187,137,132794,1,8,0:0:0:0:
187,137,133461,1,0,0:0:0:0:
174,112,134128,1,8,0:0:0:0:
176,120,134628,1,0,0:0:0:0:
211,133,134961,1,8,0:0:0:0:
183,122,135128,1,0,0:0:0:0:
183,129,135461,1,8,0:0:0:0:
183,133,136128,1,0,0:0:0:0:
177,138,136794,1,8,0:0:0:0:
184,139,137794,1,0,0:0:0:0:
184,139,138128,1,8,0:0:0:0:
185,121,138794,1,0,0:0:0:0:
143,110,139461,1,8,0:0:0:0:
161,105,139961,1,0,0:0:0:0:
174,96,140461,1,0,0:0:0:0:
171,123,140794,1,8,0:0:0:0:
170,84,140961,1,0,0:0:0:0:
195,128,141461,1,4,0:0:0:0:
177,127,142461,1,0,0:0:0:0:
200,132,142794,1,8,0:0:0:0:
202,148,143461,1,0,0:0:0:0:
208,138,144128,1,8,0:0:0:0:
222,136,145128,1,8,0:0:0:0:
214,141,145461,1,0,0:0:0:0:
218,111,146128,1,0,0:0:0:0:
198,124,146794,1,8,0:0:0:0:
201,133,147794,1,0,0:0:0:0:
213,126,148128,1,8,0:0:0:0:
213,126,148794,1,8,0:0:0:0:
213,126,149461,1,0,0:0:0:0:
183,111,150461,1,0,0:0:0:0:
204,159,150794,1,8,0:0:0:0:
182,124,151294,1,8,0:0:0:0:
197,125,151461,1,0,0:0:0:0:
177,145,152128,1,4,0:0:0:0:
194,142,152794,1,8,0:0:0:0:
194,142,153461,1,8,0:0:0:0:
176,57,153794,1,0,0:0:0:0:
168,139,154128,1,8,0:0:0:0:
178,143,154794,1,0,0:0:0:0:
187,90,155461,1,8,0:0:0:0:
163,91,155961,1,0,0:0:0:0:
190,134,156128,1,8,0:0:0:0:
168,96,156461,1,8,0:0:0:0:
163,34,156794,1,0,0:0:0:0:
178,131,157461,1,8,0:0:0:0:
228,114,158128,1,8,0:0:0:0:
242,153,158461,1,0,0:0:0:0:
166,94,158794,1,8,0:0:0:0:
179,112,159128,1,0,0:0:0:0:
196,131,159461,1,8,0:0:0:0:
196,131,160128,1,0,0:0:0:0:
200,89,160461,1,8,0:0:0:0:
196,131,160961,1,8,0:0:0:0:
196,131,161461,1,0,0:0:0:0:
212,119,161961,1,8,0:0:0:0:
196,131,162128,1,8,0:0:0:0:
196,131,162294,1,0,0:0:0:0:
196,131,162628,1,8,0:0:0:0:
196,131,162794,1,4,0:0:0:0:
194,116,163461,1,8,0:0:0:0:
220,145,163961,1,0,0:0:0:0:
202,120,164294,1,8,0:0:0:0:
219,132,164461,1,0,0:0:0:0:
219,137,164794,1,8,0:0:0:0:
202,120,165461,1,0,0:0:0:0:
244,116,165961,1,0,0:0:0:0:
153,128,166128,1,8,0:0:0:0:
244,116,166294,1,0,0:0:0:0:
173,126,166628,1,0,0:0:0:0:
213,106,166961,1,0,0:0:0:0:
210,118,167128,1,0,0:0:0:0:
220,137,167461,1,8,0:0:0:0:
213,106,167628,1,0,0:0:0:0:
220,137,167961,1,8,0:0:0:0:
220,129,168128,1,0,0:0:0:0:
210,114,168794,1,8,0:0:0:0:
218,134,169294,1,0,0:0:0:0:
212,156,169628,1,8,0:0:0:0:
234,151,169794,1,0,0:0:0:0:
233,103,170128,1,8,0:0:0:0:
161,94,170461,1,0,0:0:0:0:
212,114,170794,1,0,0:0:0:0:
172,124,171461,1,8,0:0:0:0:
195,101,171628,1,0,0:0:0:0:
175,126,171961,1,0,0:0:0:0:
235,86,172294,1,8,0:0:0:0:
244,82,172461,1,0,0:0:0:0:
220,186,172794,1,8,0:0:0:0:
168,66,172961,1,8,0:0:0:0:
168,66,173294,1,8,0:0:0:0:
167,94,173461,1,4,0:0:0:0:
220,186,174128,1,8,0:0:0:0:
217,107,174628,1,0,0:0:0:0:
211,120,174961,1,8,0:0:0:0:
236,121,175128,1,0,0:0:0:0:
224,115,175461,1,8,0:0:0:0:
217,81,176128,1,0,0:0:0:0:
140,126,176628,1,0,0:0:0:0:
193,109,176794,1,8,0:0:0:0:
221,120,177294,1,0,0:0:0:0:
227,105,177628,1,0,0:0:0:0:
219,125,177794,1,0,0:0:0:0:
176,103,178128,1,8,0:0:0:0:
163,103,178294,1,0,0:0:0:0:
219,125,178628,1,8,0:0:0:0:
201,120,178794,1,0,0:0:0:0:
198,146,179461,1,8,0:0:0:0:
195,116,179961,1,0,0:0:0:0:
182,136,180294,1,8,0:0:0:0:
208,119,180461,1,0,0:0:0:0:
192,135,180794,1,8,0:0:0:0:
192,105,181128,1,8,0:0:0:0:
208,119,181461,1,4,0:0:0:0:
195,88,182794,1,8,0:0:0:0:
220,186,183128,1,0,0:0:0:0:
212,196,183461,1,8,0:0:0:0:
279,311,183628,1,0,0:0:0:0:
122,122,183794,1,8,0:0:0:0:
156,252,183961,1,8,0:0:0:0:
179,170,184128,1,4,0:0:0:0:
220,186,184461,1,8,0:0:0:0:
220,186,184961,1,0,0:0:0:0:
220,186,185128,1,8,0:0:0:0:
220,186,185461,1,8,0:0:0:0:
220,186,185628,1,0,0:0:0:0:
220,186,185794,1,8,0:0:0:0:
220,186,186294,1,0,0:0:0:0:
220,186,186461,1,8,0:0:0:0:
220,186,186794,1,0,0:0:0:0:
220,186,187128,1,8,0:0:0:0:
220,186,187794,1,8,0:0:0:0:
220,186,188128,1,8,0:0:0:0:
220,186,188294,1,0,0:0:0:0:
220,186,188461,1,8,0:0:0:0:
123,67,188794,1,0,0:0:0:0:
228,63,189128,1,8,0:0:0:0:
220,186,189294,1,8,0:0:0:0:
220,186,189461,1,0,0:0:0:0:
220,186,189794,1,8,0:0:0:0:
220,186,190294,1,0,0:0:0:0:
220,186,190461,1,8,0:0:0:0:
220,186,190794,1,8,0:0:0:0:
220,186,190961,1,0,0:0:0:0:
220,186,191128,1,8,0:0:0:0:
220,186,191628,1,0,0:0:0:0:
220,186,191794,1,8,0:0:0:0:
220,186,192128,1,0,0:0:0:0:
220,186,192461,1,8,0:0:0:0:
220,186,193128,1,8,0:0:0:0:
220,186,193461,1,0,0:0:0:0:
220,186,193628,1,0,0:0:0:0:
220,186,193794,1,8,0:0:0:0:
175,158,194128,1,0,0:0:0:0:
220,186,194461,1,8,0:0:0:0:
198,177,194628,1,8,0:0:0:0:
220,186,194794,1,4,0:0:0:0:
220,186,195128,1,8,0:0:0:0:
220,186,195628,1,0,0:0:0:0:
220,186,195794,1,8,0:0:0:0:
220,186,196128,1,8,0:0:0:0:
220,186,196294,1,0,0:0:0:0:
220,186,196461,1,8,0:0:0:0:
220,186,196961,1,0,0:0:0:0:
220,186,197128,1,8,0:0:0:0:
220,186,197461,1,0,0:0:0:0:
220,186,197794,1,8,0:0:0:0:
220,186,198461,1,8,0:0:0:0:
220,186,198794,1,8,0:0:0:0:
275,129,198961,1,0,0:0:0:0:
265,131,199128,1,8,0:0:0:0:
186,145,199461,1,0,0:0:0:0:
187,120,199794,1,8,0:0:0:0:
166,137,199961,1,8,0:0:0:0:
221,129,200128,1,0,0:0:0:0:
260,139,200461,1,8,0:0:0:0:
235,135,200961,1,0,0:0:0:0:
228,124,201128,1,8,0:0:0:0:
171,126,201461,1,0,0:0:0:0:
186,148,201794,1,8,0:0:0:0:
220,186,202461,5,8,0:0:0:0:
168,94,202794,1,0,0:0:0:0:
190,113,203294,1,8,0:0:0:0:
213,111,203794,1,8,0:0:0:0:
206,117,204294,1,0,0:0:0:0:
190,113,204628,1,0,0:0:0:0:
183,106,204794,1,8,0:0:0:0:
264,83,204961,1,0,0:0:0:0:
215,137,205461,1,0,0:0:0:0:
