osu file format v14

[General]
AudioFilename: audio.mp3
AudioLeadIn: 0
PreviewTime: 86695
Countdown: 0
SampleSet: Soft
StackLeniency: 0.5
Mode: 0
LetterboxInBreaks: 0
WidescreenStoryboard: 1

[Editor]
DistanceSpacing: 1
BeatDivisor: 4
GridSize: 4
TimelineZoom: 1.8

[Metadata]
Title:Nothing More
TitleUnicode:Nothing More
Artist:Mazare & Luma
ArtistUnicode:Mazare & Luma
Creator:Irya
Version:browiec's Insane
Source:
Tags:dnb drum and bass monstercat instinct vol 3 hazu hazu- [xv] browiec english electronic cut ver.
BeatmapID:2268690
BeatmapSetID:1075885

[Difficulty]
HPDrainRate:5
CircleSize:4
OverallDifficulty:8.4
ApproachRate:9
SliderMultiplier:1.7
SliderTickRate:1

[Events]
//Background and Video events
0,0,"ai+nmore.jpg",0,0
//Break Periods
//Storyboard Layer 0 (Background)
//Storyboard Layer 1 (Fail)
//Storyboard Layer 2 (Pass)
//Storyboard Layer 3 (Foreground)
//Storyboard Layer 4 (Overlay)
//Storyboard Sound Samples

[TimingPoints]
112,333.333333333333,4,2,1,75,1,0
2778,-250,4,2,1,55,0,0
18778,-250,4,2,1,40,0,0
23278,-250,4,2,1,40,0,0
24111,-125,4,2,1,75,0,0
40028,-125,4,2,1,5,0,0
40111,-125,4,2,1,75,0,0
45445,-153.846153846154,4,2,1,60,0,0
56111,-138.888888888889,4,2,1,60,0,0
61445,-117.647058823529,4,2,1,75,0,0
66778,-95.2380952380952,4,2,2,75,0,1
85445,-95.2380952380952,4,2,2,75,0,0
88111,-95.2380952380952,4,2,2,75,0,1
106778,-111.111111111111,4,2,2,75,0,1
109361,-111.111111111111,4,2,2,5,0,0
109445,-111.111111111111,4,2,2,75,0,0

[Colours]
Combo1 : 242,145,6
Combo2 : 70,104,89
Combo3 : 140,143,90
Combo4 : 242,205,153

[HitObjects]
256,192,18778,12,0,23278,0:0:0:0:
100,168,23445,5,8,0:3:0:0:
100,168,23611,1,8,0:3:0:0:
184,224,23778,1,0,1:0:0:0:
184,224,23945,1,0,1:0:0:0:
256,108,24111,6,0,B|340:100|296:156|396:144,1,136,0|0,3:0|0:0,0:0:0:0:
472,104,24611,1,0,0:0:0:0:
424,228,24778,2,0,L|416:308,1,68,10|2,0:0|0:0,0:0:0:0:
332,348,25111,2,0,L|324:268,1,68,2|2,0:0|0:0,0:0:0:0:
216,208,25445,6,0,B|164:224|164:224|56:204,2,136,2|2|8,0:0|3:2|0:0,0:0:0:0:
344,48,26445,1,0,0:0:0:0:
320,144,26611,1,0,0:0:0:0:
228,48,26778,6,0,L|236:124,1,68,0|0,3:2|0:0,0:0:0:0:
172,224,27111,1,2,0:0:0:0:
260,268,27278,1,2,0:0:0:0:
224,140,27445,1,10,0:0:0:0:
160,236,27611,2,0,P|128:228|88:232,1,68,2|0,0:0|0:0,0:0:0:0:
20,288,27945,1,2,3:2:0:0:
168,344,28111,6,0,L|244:352,1,68,2|8,0:0|0:0,0:0:0:0:
320,248,28445,2,0,L|244:256,1,68,2|0,3:2|0:0,0:0:0:0:
124,128,28778,2,0,B|208:116|176:168|264:152,1,136,10|2,0:0|0:0,0:0:0:0:
316,80,29278,1,2,0:0:0:0:
400,212,29445,6,0,B|416:300|416:300|388:348,1,136,2|0,3:2|0:0,0:0:0:0:
300,380,29945,1,2,0:0:0:0:
248,248,30111,1,8,0:0:0:0:
48,340,30445,2,0,L|128:344,1,68,2|2,0:0|0:0,0:0:0:0:
248,248,30778,6,0,B|200:240|200:240|164:252|164:252|88:244,1,136,2|2,0:0|3:2,0:0:0:0:
156,160,31278,1,2,0:0:0:0:
216,332,31445,1,8,0:0:0:0:
304,108,31778,1,0,0:0:0:0:
396,340,32111,6,0,L|404:200,1,136,2|0,3:2|0:0,0:0:0:0:
464,128,32611,1,2,0:0:0:0:
316,172,32778,2,0,P|268:176|208:140,2,102,10|2|2,0:0|0:0|3:2,0:0:0:0:
347,6,33445,6,0,P|306:34|284:80,2,102,2|2|2,0:0|0:0|0:0,0:0:0:0:
448,36,34111,1,8,0:3:0:0:
448,36,34278,1,8,0:3:0:0:
384,104,34445,1,2,1:2:0:0:
384,104,34611,1,0,1:0:0:0:
492,188,34778,6,0,B|500:240|500:240|492:272|492:272|504:336,1,136,0|0,3:0|0:0,0:0:0:0:
428,384,35278,1,0,0:0:0:0:
336,272,35445,2,0,L|344:200,1,68,10|2,0:0|0:0,0:0:0:0:
236,304,35778,2,0,L|244:232,1,68,2|2,0:0|0:0,0:0:0:0:
184,88,36111,6,0,P|140:72|56:108,2,136,2|2|10,0:0|3:2|0:0,0:0:0:0:
344,224,37111,1,0,0:0:0:0:
264,276,37278,1,0,0:0:0:0:
272,116,37445,6,0,L|260:208,1,68,0|0,3:0|0:0,0:0:0:0:
184,224,37778,1,2,0:0:0:0:
264,276,37945,1,2,0:0:0:0:
132,300,38111,1,10,0:0:0:0:
164,148,38278,2,0,L|172:224,1,68,2|0,0:0|0:0,0:0:0:0:
132,300,38611,1,2,3:2:0:0:
28,200,38778,6,0,P|4:240|4:288,1,68,2|8,0:0|0:0,0:0:0:0:
130,321,39111,2,0,P|107:280|65:256,1,68,2|0,3:2|0:0,0:0:0:0:
8,116,39445,2,0,L|80:108,1,68,10|0,0:0|0:0,0:0:0:0:
184,48,39778,2,0,P|164:92|176:160,1,102,2|0,0:0|0:0,0:0:0:0:
224,204,40111,6,0,L|320:212,1,68,2|0,3:2|0:0,0:0:0:0:
428,192,40445,1,2,0:0:0:0:
364,260,40611,1,2,0:0:0:0:
404,100,40778,2,0,P|456:100|520:172,1,136,10|0,0:0|0:0,0:0:0:0:
504,248,41278,1,2,0:0:0:0:
364,260,41445,6,0,L|272:256,1,68,2|2,0:0|0:0,0:0:0:0:
220,168,41778,2,0,L|312:164,1,68,2|0,3:2|0:0,0:0:0:0:
404,100,42111,1,8,0:0:0:0:
188,48,42445,1,0,0:0:0:0:
136,128,42611,2,0,L|92:132,1,34,2|0,0:0|0:0,0:0:0:0:
0,228,42778,6,0,P|48:216|140:268,1,136,2|0,3:2|0:0,0:0:0:0:
168,336,43278,1,2,0:0:0:0:
216,208,43445,2,0,L|224:60,1,136,10|0,0:0|0:0,0:0:0:0:
304,16,43945,1,2,3:2:0:0:
400,136,44111,6,0,P|364:156|288:136,2,102,2|2|2,0:0|0:0|0:0,0:0:0:0:
432,44,44778,1,10,0:0:0:0:
432,44,44945,1,2,0:0:0:0:
344,64,45112,1,2,0:0:0:0:
344,64,45279,1,2,0:0:0:0:
496,116,45445,6,0,B|508:168|488:204|488:204|488:220|492:236|492:236|452:264|452:324,1,220.999989883423,2|0,3:2|0:0,0:0:0:0:
356,372,46445,1,2,0:0:0:0:
304,240,46778,2,0,L|176:232,1,110.499994941712,2|0,0:0|0:0,0:0:0:0:
80,344,47445,2,0,L|208:336,1,110.499994941712,2|0,0:0|0:0,0:0:0:0:
216,132,48111,6,0,B|168:124|120:144|120:144|120:184|140:216|140:216|168:208|196:208,1,220.999989883423,2|0,0:0|0:0,0:0:0:0:
280,280,49111,1,2,0:0:0:0:
392,140,49445,2,0,L|384:260,1,110.499994941712,2|0,0:0|0:0,0:0:0:0:
504,356,50111,2,0,L|496:236,1,110.499994941712,2|0,0:0|0:0,0:0:0:0:
416,52,50778,6,0,B|368:36|324:64|324:64|312:108|272:128|272:128|252:112|228:112,1,220.999989883423,2|0,0:0|0:0,0:0:0:0:
108,140,51778,1,2,0:0:0:0:
208,316,52111,2,0,L|216:200,1,110.499994941712,2|0,0:0|0:0,0:0:0:0:
88,76,52778,2,0,L|96:192,1,110.499994941712,2|0,0:0|0:0,0:0:0:0:
248,36,53445,6,0,B|300:56|348:44|348:44|356:64|372:72|372:72|416:60|456:76,1,220.999989883423,2|0,0:0|0:0,0:0:0:0:
504,176,54445,1,2,0:0:0:0:
300,144,54778,2,0,L|292:320,1,165.749992412568,2|2,0:0|0:0,0:0:0:0:
220,368,55445,2,0,P|176:372|116:312,1,110.499994941712,2|0,0:0|0:0,0:0:0:0:
100,172,56111,5,2,3:2:0:0:
264,244,56445,2,0,L|136:252,1,122.400002988281,8|0,0:0|0:0,0:0:0:0:
64,308,56945,1,2,3:2:0:0:
168,364,57111,1,10,0:0:0:0:
252,152,57445,5,2,3:2:0:0:
356,252,57778,2,0,B|328:176|380:196|348:108,1,122.400002988281,10|2,0:0|0:0,0:0:0:0:
440,80,58278,1,0,3:0:0:0:
456,216,58445,1,10,0:0:0:0:
288,48,58778,5,2,3:2:0:0:
124,120,59112,2,0,L|252:128,1,122.400002988281,10|0,0:0|0:0,0:0:0:0:
324,184,59612,1,0,3:0:0:0:
220,240,59778,1,10,0:0:0:0:
100,28,60111,5,2,3:2:0:0:
40,216,60445,2,0,P|20:176|40:88,1,122.400002988281,8|2,0:0|0:0,0:0:0:0:
100,28,60945,1,0,3:0:0:0:
148,168,61111,1,8,0:0:0:0:
232,68,61278,1,0,0:0:0:0:
232,68,61361,1,8,0:0:0:0:
232,68,61445,6,0,L|308:64,1,72.2500013780594,2|0,3:2|0:0,0:0:0:0:
368,160,61778,2,0,L|292:156,1,72.2500013780594,2|0,3:2|0:0,0:0:0:0:
220,252,62111,2,0,L|296:248,1,72.2500013780594,2|0,3:2|0:0,0:0:0:0:
356,344,62444,2,0,L|280:340,1,72.2500013780594,2|2,3:2|0:0,0:0:0:0:
132,284,62778,6,0,P|126:248|134:213,1,72.2500013780594,2|0,3:2|0:0,0:0:0:0:
282,219,63111,2,0,P|253:241|219:251,1,72.2500013780594,2|0,3:2|0:0,0:0:0:0:
151,122,63445,2,0,P|184:135|210:159,1,72.2500013780594,2|0,3:2|0:0,0:0:0:0:
132,284,63778,2,0,P|98:270|72:246,1,72.2500013780594,2|0,3:2|0:0,0:0:0:0:
72,52,64111,5,2,1:2:0:0:
8,180,64278,1,0,1:0:0:0:
164,68,64445,1,2,1:2:0:0:
196,220,64611,1,0,1:0:0:0:
252,32,64778,1,2,1:2:0:0:
128,156,64945,1,0,1:0:0:0:
312,172,65111,1,2,1:2:0:0:
164,68,65278,1,2,1:2:0:0:
216,260,65445,6,0,L|384:268,1,144.500002756119,2|2,0:0|0:0,0:0:0:0:
492,152,65945,1,2,0:0:0:0:
312,172,66111,1,2,0:0:0:0:
444,72,66278,1,2,0:0:0:0:
456,240,66445,1,2,0:0:0:0:
352,88,66611,1,2,0:0:0:0:
296,284,66778,6,0,L|292:180,1,89.2499972763062,4|0,3:2|0:0,0:0:0:0:
184,84,67111,2,0,L|180:188,1,89.2499972763062,10|0,0:0|0:0,0:0:0:0:
104,320,67445,1,0,0:0:0:0:
68,168,67611,1,0,3:0:0:0:
210,281,67778,2,0,P|262:293|306:277,1,89.2499972763062,10|2,0:0|0:0,0:0:0:0:
444,184,68111,6,0,L|356:176,1,89.2499972763062,0|0,0:0|3:2,0:0:0:0:
384,364,68445,2,0,L|392:276,1,89.2499972763062,10|0,0:0|0:0,0:0:0:0:
264,128,68778,1,2,0:0:0:0:
295,283,68945,1,2,3:2:0:0:
368,144,69111,2,0,L|376:56,1,89.2499972763062,10|0,0:0|0:0,0:0:0:0:
200,200,69445,6,0,P|148:208|96:192,1,89.2499972763062,0|0,3:2|0:0,0:0:0:0:
112,40,69778,2,0,P|144:81|157:134,1,89.2499972763062,10|0,0:0|0:0,0:0:0:0:
208,296,70111,1,0,0:0:0:0:
280,148,70278,1,0,3:2:0:0:
332,316,70445,2,0,L|424:320,1,89.2499972763062,10|0,0:0|0:0,0:0:0:0:
512,152,70778,6,0,B|416:132|452:216|336:196,1,178.499994552612,2|10,0:0|0:0,0:0:0:0:
224,72,71278,1,2,0:0:0:0:
272,240,71445,1,2,0:0:0:0:
360,92,71611,1,2,3:2:0:0:
376,280,71778,1,8,0:0:0:0:
284,148,71945,1,0,3:2:0:0:
240,328,72111,6,0,L|144:332,1,89.2499972763062,6|0,3:2|0:0,0:0:0:0:
44,236,72445,2,0,L|140:240,1,89.2499972763062,10|0,0:0|0:0,0:0:0:0:
264,120,72778,1,0,0:0:0:0:
104,148,72945,1,0,3:0:0:0:
296,216,73111,2,0,P|340:184|360:136,1,89.2499972763062,10|2,0:0|0:0,0:0:0:0:
184,28,73445,6,0,L|180:128,1,89.2499972763062,0|2,0:0|3:2,0:0:0:0:
76,248,73778,2,0,L|72:158,1,89.2499972763062,10|0,0:0|0:0,0:0:0:0:
216,272,74111,1,2,0:0:0:0:
64,340,74278,1,2,3:2:0:0:
164,196,74445,2,0,P|224:180|268:200,1,89.2499972763062,8|2,0:0|0:0,0:0:0:0:
324,356,74778,6,0,L|316:256,1,89.2499972763062,2|0,3:2|0:0,0:0:0:0:
504,304,75111,2,0,L|415:311,1,89.2499972763062,8|0,0:0|0:0,0:0:0:0:
276,188,75445,1,2,0:0:0:0:
324,356,75611,1,0,3:2:0:0:
392,200,75778,2,0,L|400:100,1,89.2499972763062,10|0,0:0|0:0,0:0:0:0:
204,24,76111,6,0,B|164:72|164:72|196:200,1,178.499994552612,2|8,0:0|0:0,0:0:0:0:
364,284,76611,1,2,0:0:0:0:
164,280,76778,1,2,0:0:0:0:
356,192,76945,1,2,3:2:0:0:
232,340,77111,1,8,0:0:0:0:
420,368,77278,1,2,3:2:0:0:
420,368,77361,1,0,3:0:0:0:
420,368,77445,6,0,L|512:372,1,89.2499972763062,6|0,3:2|0:0,0:0:0:0:
460,188,77778,2,0,L|464:280,1,89.2499972763062,10|0,0:0|0:0,0:0:0:0:
308,372,78111,1,0,0:0:0:0:
360,196,78278,1,0,3:0:0:0:
296,384,78445,2,0,L|299:294,1,89.2499972763062,10|2,0:0|0:0,0:0:0:0:
144,160,78778,5,0,0:0:0:0:
216,304,78945,1,2,3:2:0:0:
224,116,79111,2,0,P|192:80|140:68,1,89.2499972763062,10|0,0:0|0:0,0:0:0:0:
52,244,79445,2,0,L|152:252,1,89.2499972763062,2|2,0:0|3:2,0:0:0:0:
292,328,79778,2,0,L|192:336,1,89.2499972763062,10|2,0:0|0:0,0:0:0:0:
328,164,80111,6,0,P|344:216|328:276,1,89.2499972763062,2|0,3:2|0:0,0:0:0:0:
168,176,80445,2,0,P|205:136|264:120,1,89.2499972763062,8|0,0:0|0:0,0:0:0:0:
392,96,80778,1,2,0:0:0:0:
252,220,80945,1,2,3:2:0:0:
404,84,81111,2,0,L|512:80,1,89.2499972763062,10|2,0:0|0:0,0:0:0:0:
380,244,81445,5,0,0:0:0:0:
308,84,81611,1,2,3:2:0:0:
236,244,81778,2,0,L|232:348,1,89.2499972763062,10|0,0:0|0:0,0:0:0:0:
392,212,82111,1,2,0:0:0:0:
208,152,82278,1,2,3:2:0:0:
396,116,82445,1,10,0:0:0:0:
320,284,82611,1,2,3:2:0:0:
264,80,82778,6,0,P|220:60|164:72,1,89.2499972763062,6|0,3:2|0:0,0:0:0:0:
32,148,83111,2,0,P|76:128|132:140,1,89.2499972763062,8|0,0:0|0:0,0:0:0:0:
144,304,83445,1,2,0:0:0:0:
208,152,83611,1,2,3:2:0:0:
272,324,83778,2,0,L|264:224,1,89.2499972763062,10|2,0:0|0:0,0:0:0:0:
224,40,84111,6,0,P|268:72|316:80,1,89.2499972763062,0|2,0:0|3:2,0:0:0:0:
432,108,84445,2,0,P|382:130|351:167,1,89.2499972763062,10|0,0:0|0:0,0:0:0:0:
444,316,84778,1,2,0:0:0:0:
508,160,84945,1,2,3:2:0:0:
360,272,85111,2,0,L|272:280,1,89.2499972763062,10|2,0:0|0:0,0:0:0:0:
168,128,85445,6,0,B|204:184|204:184|168:304,1,178.499994552612,2|8,3:2|0:0,0:0:0:0:
28,360,85945,1,0,0:0:0:0:
104,208,86111,1,2,0:0:0:0:
160,380,86278,1,2,3:2:0:0:
24,264,86445,2,0,P|8:216|16:168,1,89.2499972763062,10|2,0:0|0:0,0:0:0:0:
192,201,86778,6,0,L|88:209,1,89.2499972763062,2|0,0:0|3:0,0:0:0:0:
0,72,87111,2,0,L|104:80,1,89.2499972763062,10|0,0:0|0:0,0:0:0:0:
284,172,87445,1,2,3:2:0:0:
172,20,87611,1,8,0:0:0:0:
152,224,87778,1,2,3:2:0:0:
260,56,87945,1,0,3:2:0:0:
328,256,88111,6,0,B|392:268|392:268|444:252|444:252|516:264,1,178.499994552612,6|10,3:2|0:0,0:0:0:0:
316,144,88611,1,0,0:0:0:0:
496,132,88778,1,0,0:0:0:0:
308,232,88945,1,2,3:2:0:0:
408,80,89111,2,0,L|400:180,1,89.2499972763062,10|2,0:0|0:0,0:0:0:0:
300,352,89445,5,2,0:0:0:0:
232,180,89611,1,0,3:0:0:0:
176,368,89778,2,0,L|168:268,1,89.2499972763062,10|0,0:0|0:0,0:0:0:0:
220,80,90111,1,0,0:0:0:0:
268,268,90278,1,2,3:2:0:0:
144,140,90445,2,0,L|40:136,1,89.2499972763062,10|2,0:0|0:0,0:0:0:0:
0,328,90778,6,0,B|60:300|60:300|172:328,1,178.499994552612,2|10,3:2|0:0,0:0:0:0:
264,176,91278,1,0,0:0:0:0:
312,360,91445,1,2,0:0:0:0:
404,208,91611,1,2,3:2:0:0:
216,252,91778,2,0,L|128:228,1,89.2499972763062,10|2,0:0|0:0,0:0:0:0:
269,89,92111,6,0,P|273:149|249:197,1,89.2499972763062,2|0,0:0|3:0,0:0:0:0:
80,152,92445,2,0,P|73:108|85:65,1,89.2499972763062,10|0,0:0|0:0,0:0:0:0:
240,196,92778,1,2,0:0:0:0:
48,248,92945,1,0,3:0:0:0:
176,104,93111,1,10,0:0:0:0:
184,296,93278,1,2,3:2:0:0:
276,96,93445,6,0,B|328:72|388:76|388:76|404:120|368:172,1,178.499994552612,6|10,3:2|0:0,0:0:0:0:
328,292,93945,1,0,0:0:0:0:
476,188,94111,1,0,0:0:0:0:
284,192,94278,1,2,3:2:0:0:
436,324,94445,2,0,L|344:316,1,89.2499972763062,10|2,0:0|0:0,0:0:0:0:
196,192,94778,5,2,0:0:0:0:
260,364,94945,1,0,3:0:0:0:
368,224,95111,2,0,L|376:132,1,89.2499972763062,10|0,0:0|0:0,0:0:0:0:
192,76,95445,1,0,0:0:0:0:
272,244,95611,1,2,3:2:0:0:
332,56,95778,2,0,P|392:44|424:56,1,89.2499972763062,10|2,0:0|0:0,0:0:0:0:
456,280,96111,6,0,B|404:275|404:275|373:288|373:288|348:270|348:270|280:264,1,178.499994552612,2|10,3:2|0:0,0:0:0:0:
144,336,96611,1,0,0:0:0:0:
220,184,96778,1,2,0:0:0:0:
264,356,96945,1,2,3:2:0:0:
132,232,97111,2,0,L|128:132,1,89.2499972763062,10|2,0:0|0:0,0:0:0:0:
320,196,97445,6,0,P|280:212|208:196,1,89.2499972763062,2|0,0:0|3:0,0:0:0:0:
212,44,97778,2,0,P|245:70|268:140,1,89.2499972763062,10|0,0:0|0:0,0:0:0:0:
192,296,98111,1,2,0:0:0:0:
120,128,98278,1,0,3:0:0:0:
40,284,98445,1,10,0:0:0:0:
196,200,98611,1,2,3:2:0:0:
196,200,98695,1,0,3:0:0:0:
196,200,98778,6,0,B|312:220|312:220|384:204,1,178.499994552612,6|10,3:2|0:0,0:0:0:0:
508,88,99278,1,0,0:0:0:0:
448,260,99445,1,0,0:0:0:0:
400,84,99611,1,2,3:2:0:0:
464,284,99778,2,0,L|456:376,1,89.2499972763062,10|2,0:0|0:0,0:0:0:0:
296,224,100111,5,2,0:0:0:0:
492,176,100278,1,0,3:0:0:0:
280,244,100445,2,0,L|188:236,1,89.2499972763062,10|0,0:0|0:0,0:0:0:0:
340,108,100778,1,0,0:0:0:0:
356,292,100945,1,2,3:2:0:0:
432,128,101111,2,0,L|440:36,1,89.2499972763062,10|2,0:0|0:0,0:0:0:0:
224,4,101445,6,0,B|212:68|212:68|224:108|224:108|208:200,1,178.499994552612,2|10,3:2|0:0,0:0:0:0:
168,324,101945,1,0,0:0:0:0:
100,168,102111,1,2,0:0:0:0:
56,336,102278,1,2,3:2:0:0:
8,152,102445,2,0,P|28:104|80:76,1,89.2499972763062,10|2,0:0|0:0,0:0:0:0:
212,248,102778,6,0,L|108:256,1,89.2499972763062,2|0,0:0|3:0,0:0:0:0:
224,368,103111,2,0,L|328:376,1,89.2499972763062,10|0,0:0|0:0,0:0:0:0:
392,184,103445,1,2,0:0:0:0:
212,248,103611,1,0,3:0:0:0:
408,300,103778,1,10,0:0:0:0:
196,232,103945,1,2,3:2:0:0:
420,152,104111,6,0,L|216:140,1,178.499994552612,6|10,3:2|0:0,0:0:0:0:
96,292,104611,1,0,0:0:0:0:
280,240,104778,1,0,0:0:0:0:
88,188,104945,1,2,3:2:0:0:
224,336,105111,2,0,P|260:304|272:244,1,89.2499972763062,10|2,0:0|0:0,0:0:0:0:
120,96,105445,5,2,0:0:0:0:
184,252,105611,1,0,3:0:0:0:
252,96,105778,2,0,L|260:4,1,89.2499972763062,10|0,0:0|0:0,0:0:0:0:
100,120,106111,1,0,0:0:0:0:
272,196,106278,1,2,3:2:0:0:
92,268,106445,2,0,L|-12:272,1,89.2499972763062,10|2,0:0|0:0,0:0:0:0:
196,372,106778,6,0,B|204:264|204:264|216:296|232:312,1,152.999995330811,2|2,3:2|0:0,0:0:0:0:
348,280,107278,2,0,P|308:260|292:148,1,152.999995330811,8|2,0:0|0:0,0:0:0:0:
364,92,107778,1,8,0:0:0:0:
372,196,107945,1,2,0:0:0:0:
200,40,108278,5,0,3:0:0:0:
152,156,108445,1,2,0:0:0:0:
84,56,108612,1,0,3:0:0:0:
244,128,108778,1,10,0:0:0:0:
64,184,108945,1,0,3:0:0:0:
220,224,109111,2,0,L|364:232,1,114.749996498108,2|0,0:0|0:0,0:0:0:0:
400,288,109445,5,2,3:2:0:0:
