osu file format v14

[General]
AudioFilename: audio.mp3
AudioLeadIn: 0
PreviewTime: 86695
Countdown: 0
SampleSet: Soft
StackLeniency: 0.5
Mode: 0
LetterboxInBreaks: 0
WidescreenStoryboard: 0

[Editor]
DistanceSpacing: 0.87
BeatDivisor: 4
GridSize: 8
TimelineZoom: 3.099999

[Metadata]
Title:Nothing More
TitleUnicode:Nothing More
Artist:Mazare & Luma
ArtistUnicode:Mazare & Luma
Creator:Irya
Version:Faded Memories
Source:
Tags:dnb drum and bass monstercat instinct vol 3 hazu hazu- [xv] browiec english electronic cut ver.
BeatmapID:2251265
BeatmapSetID:1075885

[Difficulty]
HPDrainRate:5.5
CircleSize:4.2
OverallDifficulty:9.2
ApproachRate:9.2
SliderMultiplier:1.7
SliderTickRate:1

[Events]
//Background and Video events
0,0,"ai+nmore.jpg",0,0
//Break Periods
//Storyboard Layer 0 (Background)
//Storyboard Layer 1 (Fail)
//Storyboard Layer 2 (Pass)
//Storyboard Layer 3 (Foreground)
//Storyboard Layer 4 (Overlay)
//Storyboard Sound Samples

[TimingPoints]
112,333.333333333333,4,2,1,75,1,0
23445,-142.857142857143,4,2,1,55,0,0
24111,-111.111111111111,4,2,1,75,0,0
43361,-111.111111111111,4,2,1,5,0,0
43445,-111.111111111111,4,2,1,75,0,0
45445,-142.857142857143,4,2,1,75,0,0
56111,-125,4,2,1,60,0,0
56361,-125,4,2,1,5,0,0
56445,-125,4,2,1,60,0,0
57695,-125,4,2,1,5,0,0
57778,-125,4,2,1,60,0,0
59028,-125,4,2,1,5,0,0
59111,-125,4,2,1,60,0,0
60361,-125,4,2,1,5,0,0
60445,-125,4,2,1,60,0,0
61445,-111.111111111111,4,2,1,75,0,0
64111,-111.111111111111,4,2,1,75,0,0
66278,-499.999999999997,4,2,1,75,0,0
66695,-499.999999999997,4,2,1,5,0,0
66778,-86.9565217391304,4,2,2,75,0,1
68695,-86.9565217391304,4,2,2,5,0,1
68778,-86.9565217391304,4,2,2,75,0,1
74028,-86.9565217391304,4,2,2,5,0,1
74111,-86.9565217391304,4,2,2,75,0,1
79361,-86.9565217391304,4,2,2,5,0,1
79445,-86.9565217391304,4,2,2,75,0,1
84695,-86.9565217391304,4,2,2,5,0,1
84778,-86.9565217391304,4,2,2,75,0,1
85445,-86.9565217391304,4,2,2,75,0,0
88111,-86.9565217391304,4,2,2,75,0,1
107778,-86.9565217391304,4,2,2,50,0,1
107945,-86.9565217391304,4,2,2,55,0,1
108111,-86.9565217391304,4,2,2,60,0,1
108278,-86.9565217391304,4,2,2,65,0,1
108445,-86.9565217391304,4,2,2,70,0,1
108611,-86.9565217391304,4,2,2,75,0,1
109111,-95.2380952380952,4,2,2,75,0,1
109361,-86.9565217391304,4,2,2,5,0,1
109445,-86.9565217391304,4,2,2,75,0,0

[Colours]
Combo1 : 242,145,6
Combo2 : 70,104,89
Combo3 : 140,143,90
Combo4 : 242,205,153

[HitObjects]
80,125,23445,5,8,0:3:0:0:
80,125,23611,1,8,0:3:0:0:
90,285,23778,2,0,L|86:226,1,59.4999981842042,0|0,1:0|1:0,0:0:0:0:
24,354,24111,6,0,P|91:325|170:342,1,152.999995330811,0|0,3:0|0:0,0:0:0:0:
168,341,24778,5,10,0:0:0:0:
275,336,24944,1,2,0:0:0:0:
476,276,25111,5,2,0:0:0:0:
369,281,25278,1,2,0:0:0:0:
415,129,25445,2,0,L|419:216,1,76.4999976654053,2|0,0:0|0:0,0:0:0:0:
481,67,25778,6,0,P|414:96|335:79,1,152.999995330811,2|8,3:2|0:0,0:0:0:0:
337,80,26445,1,0,0:0:0:0:
68,87,26778,1,0,3:2:0:0:
146,224,27111,5,2,0:0:0:0:
201,136,27278,1,2,0:0:0:0:
273,214,27445,1,10,0:0:0:0:
142,320,27611,6,0,P|211:291|285:307,1,152.999995330811,2|2,0:0|3:2,0:0:0:0:
371,343,28111,1,2,0:0:0:0:
447,302,28278,1,8,0:0:0:0:
285,307,28445,2,0,L|288:383,1,76.4999976654053,2|0,3:2|0:0,0:0:0:0:
447,302,28778,2,0,L|443:225,1,76.4999976654053,10|0,0:0|0:0,0:0:0:0:
442,46,29111,1,2,0:0:0:0:
400,136,29278,1,2,0:0:0:0:
350,50,29445,6,0,B|318:27|318:27|203:33,1,152.999995330811,2|0,3:2|0:0,0:0:0:0:
108,35,29945,1,2,0:0:0:0:
164,191,30111,2,0,L|160:114,1,76.4999976654053,8|0,0:0|0:0,0:0:0:0:
49,112,30445,1,2,0:0:0:0:
160,114,30611,1,2,0:0:0:0:
49,112,30778,2,0,L|45:188,1,76.4999976654053,2|0,0:0|0:0,0:0:0:0:
104,352,31111,1,2,3:2:0:0:
106,256,31278,1,2,0:0:0:0:
197,350,31445,6,0,B|229:373|229:373|344:367,1,152.999995330811,8|0,0:0|0:0,0:0:0:0:
342,367,32111,6,0,L|336:268,2,89.2499972763062,2|2|2,3:2|0:0|0:0,0:0:0:0:
468,314,32778,2,0,L|461:191,1,114.749996498108,10|0,0:0|0:0,0:0:0:0:
438,160,33111,1,2,0:0:0:0:
432,0,33278,1,2,3:2:0:0:
188,61,33445,6,0,B|220:84|220:84|335:78,1,152.999995330811,2|2,0:0|3:2,0:0:0:0:
249,7,33945,1,2,0:0:0:0:
61,58,34111,5,8,0:3:0:0:
61,58,34278,1,8,0:3:0:0:
69,244,34445,2,0,L|65:168,1,76.4999976654053,2|0,1:2|1:0,0:0:0:0:
2,312,34778,6,0,P|69:283|148:300,1,152.999995330811,0|0,3:0|0:0,0:0:0:0:
145,298,35445,5,10,0:0:0:0:
252,293,35612,1,2,0:0:0:0:
424,356,35778,5,2,0:0:0:0:
317,361,35945,1,2,0:0:0:0:
365,212,36111,2,0,L|369:289,1,76.4999976654053,2|0,0:0|0:0,0:0:0:0:
287,150,36445,6,0,P|360:165|430:136,1,152.999995330811,2|10,3:2|0:0,0:0:0:0:
430,135,37111,1,0,0:0:0:0:
345,0,37445,1,0,3:0:0:0:
218,158,37778,5,2,0:0:0:0:
168,76,37945,1,2,0:0:0:0:
211,0,38112,1,10,0:0:0:0:
74,156,38278,6,0,B|97:124|97:124|91:9,1,152.999995330811,2|2,0:0|3:2,0:0:0:0:
17,93,38778,1,2,0:0:0:0:
218,158,38945,1,8,0:0:0:0:
74,156,39111,2,0,L|70:233,1,76.4999976654053,2|0,3:2|0:0,0:0:0:0:
221,234,39445,2,0,L|217:157,1,76.4999976654053,10|0,0:0|0:0,0:0:0:0:
136,342,39778,1,2,0:0:0:0:
136,342,40111,6,0,B|168:365|168:365|283:359,1,152.999995330811,2|2,3:2|0:0,0:0:0:0:
425,279,40611,1,2,0:0:0:0:
425,279,40778,2,0,B|393:256|393:256|278:262,1,152.999995330811,10|0,0:0|0:0,0:0:0:0:
90,272,41278,1,2,0:0:0:0:
187,180,41445,1,2,0:0:0:0:
192,290,41611,1,2,0:0:0:0:
121,126,41778,6,0,B|150:99|150:99|265:93,1,152.999995330811,2|8,3:2|0:0,0:0:0:0:
469,36,42611,5,2,0:0:0:0:
469,36,42778,2,0,L|475:153,1,114.749996498108,2|2,3:2|0:0,0:0:0:0:
357,170,43195,6,0,L|353:93,1,76.4999976654053,2|0,0:0|0:0,0:0:0:0:
350,18,43445,2,0,L|358:173,1,152.999995330811,10|0,0:0|0:0,0:0:0:0:
367,334,43945,1,2,3:2:0:0:
257,294,44111,6,0,L|138:300,2,114.749996498108,2|2|2,0:0|0:0|0:0,0:0:0:0:
431,284,44778,1,10,0:0:0:0:
257,294,44945,5,2,0:0:0:0:
191,128,45111,1,2,0:0:0:0:
195,221,45278,1,2,0:0:0:0:
247,60,45445,6,0,B|221:41|221:41|129:46,1,118.999996368408,2|0,3:2|0:0,0:0:0:0:
0,49,45945,1,0,0:0:0:0:
93,183,46111,2,0,L|89:123,1,59.4999981842042,0|0,0:0|0:0,0:0:0:0:
0,49,46445,2,0,L|3:108,1,59.4999981842042,2|0,0:0|0:0,0:0:0:0:
154,224,46778,6,0,P|95:213|37:234,1,118.999996368408,2|0,0:0|0:0,0:0:0:0:
102,338,47278,1,0,0:0:0:0:
231,335,47445,2,0,L|351:328,1,118.999996368408,2|0,0:0|0:0,0:0:0:0:
462,221,48111,6,0,P|406:239|348:228,1,118.999996368408,2|0,0:0|0:0,0:0:0:0:
252,186,48611,1,0,0:0:0:0:
325,40,48778,2,0,L|321:100,1,59.4999981842042,0|0,0:0|0:0,0:0:0:0:
189,99,49111,2,0,L|185:39,1,59.4999981842042,2|0,0:0|0:0,0:0:0:0:
138,193,49445,6,0,P|193:174|251:185,1,118.999996368408,2|0,0:0|0:0,0:0:0:0:
201,291,49945,1,0,0:0:0:0:
24,200,50111,2,0,P|81:211|137:192,1,118.999996368408,2|0,0:0|0:0,0:0:0:0:
92,16,50778,6,0,B|73:42|73:42|78:134,1,118.999996368408,2|0,0:0|0:0,0:0:0:0:
83,291,51278,1,0,0:0:0:0:
196,187,51445,2,0,L|136:191,1,59.4999981842042,0|0,0:0|0:0,0:0:0:0:
23,294,51778,2,0,L|83:290,1,59.4999981842042,2|0,0:0|0:0,0:0:0:0:
256,132,52111,6,0,P|237:187|248:245,1,118.999996368408,2|0,0:0|0:0,0:0:0:0:
288,350,52611,1,0,0:0:0:0:
394,347,52778,2,0,L|514:340,1,118.999996368408,2|0,0:0|0:0,0:0:0:0:
446,207,53445,6,0,B|420:188|420:188|328:193,1,118.999996368408,2|0,0:0|0:0,0:0:0:0:
162,196,53945,1,0,0:0:0:0:
253,297,54111,2,0,L|249:237,1,59.4999981842042,0|0,0:0|0:0,0:0:0:0:
166,137,54445,2,0,L|162:197,1,59.4999981842042,2|0,0:0|0:0,0:0:0:0:
119,68,54778,6,0,P|174:87|232:75,1,118.999996368408,2|0,0:0|0:0,0:0:0:0:
346,31,55278,1,2,0:0:0:0:
452,88,55445,2,0,L|445:208,1,118.999996368408,2|0,0:0|0:0,0:0:0:0:
254,339,56111,6,0,L|248:236,1,102,2|0,3:2|0:0,0:0:0:0:
277,143,56445,2,0,L|281:211,1,68,8|0,0:0|0:0,0:0:0:0:
92,227,56945,1,2,3:2:0:0:
92,227,57111,2,0,L|88:159,1,68,10|0,0:0|0:0,0:0:0:0:
35,65,57445,6,0,P|82:49|132:59,1,102,2|0,3:2|0:0,0:0:0:0:
237,79,57778,2,0,L|169:83,1,68,10|0,0:0|0:0,0:0:0:0:
88,159,58111,1,2,0:0:0:0:
195,3,58278,1,0,3:0:0:0:
195,3,58445,2,0,L|263:-1,1,68,10|0,0:0|0:0,0:0:0:0:
477,86,58778,6,0,P|430:102|380:92,1,102,2|0,3:2|0:0,0:0:0:0:
345,0,59111,2,0,L|349:67,1,68,10|0,0:0|0:0,0:0:0:0:
362,293,59611,1,0,3:0:0:0:
362,293,59778,2,0,L|429:289,1,68,10|0,0:0|0:0,0:0:0:0:
294,178,60111,6,0,L|192:183,1,102,2|0,3:2|0:0,0:0:0:0:
92,156,60445,2,0,L|159:152,1,68,8|0,0:0|0:0,0:0:0:0:
242,299,60778,1,2,0:0:0:0:
64,308,60945,1,0,3:0:0:0:
64,308,61111,1,8,0:0:0:0:
155,75,61278,1,0,0:0:0:0:
155,75,61361,1,8,0:0:0:0:
155,75,61445,6,0,L|159:152,1,76.4999976654053,2|0,3:2|0:0,0:0:0:0:
242,299,61778,2,0,L|238:222,1,76.4999976654053,2|0,3:2|0:0,0:0:0:0:
307,66,62111,2,0,L|311:143,1,76.4999976654053,2|0,3:2|0:0,0:0:0:0:
394,291,62445,5,2,3:2:0:0:
234,147,62611,1,2,0:0:0:0:
463,134,62778,6,0,L|386:138,1,76.4999976654053,2|0,3:2|0:0,0:0:0:0:
238,222,63111,2,0,L|315:218,1,76.4999976654053,2|0,3:2|0:0,0:0:0:0:
307,63,63445,2,0,L|230:67,1,76.4999976654053,2|0,3:2|0:0,0:0:0:0:
82,155,63778,2,0,L|159:151,1,76.4999976654053,2|0,3:2|0:0,0:0:0:0:
52,77,64111,5,2,1:2:0:0:
167,275,64278,1,0,1:0:0:0:
156,46,64446,5,2,1:2:0:0:
59,242,64611,1,0,1:0:0:0:
273,148,64778,5,2,1:2:0:0:
12,161,64944,1,0,1:0:0:0:
263,297,65111,5,2,1:2:0:0:
249,0,65277,1,0,1:0:0:0:
121,157,65445,6,0,L|277:148,1,152.999995330811,2|2,0:0|0:0,0:0:0:0:
461,141,65945,1,2,0:0:0:0:
302,65,66111,5,2,0:0:0:0:
333,264,66278,2,0,L|340:309,1,42.5,2|0,0:0|0:0,0:0:0:0:
379,329,66778,6,0,L|373:231,1,97.7500018644333,4|0,3:2|0:0,0:0:0:0:
503,97,67111,2,0,L|497:194,1,97.7500018644333,10|0,0:0|0:0,0:0:0:0:
249,165,67445,1,0,0:0:0:0:
367,72,67611,1,0,3:0:0:0:
333,264,67778,1,10,0:0:0:0:
89,24,67945,6,0,L|95:121,1,97.7500018644333,2|0,0:0|0:0,0:0:0:0:
108,327,68278,1,0,3:2:0:0:
282,238,68445,6,0,B|300:161|300:161|272:91,1,146.62500279665,10|0,0:0|0:0,0:0:0:0:
243,64,68778,1,2,0:0:0:0:
0,196,68945,1,2,3:2:0:0:
203,217,69111,2,0,B|214:167|214:167|196:123,1,97.7500018644333,10|0,0:0|0:0,0:0:0:0:
129,342,69445,6,0,L|226:348,1,97.7500018644333,0|0,3:2|0:0,0:0:0:0:
384,211,69778,2,0,L|287:217,1,97.7500018644333,10|0,0:0|0:0,0:0:0:0:
115,224,70111,1,0,0:0:0:0:
226,348,70278,1,0,3:2:0:0:
247,132,70445,2,0,L|253:35,1,97.7500018644333,10|0,0:0|0:0,0:0:0:0:
419,78,70778,6,0,P|371:68|327:86,1,97.7500018644333,2|0,0:0|3:0,0:0:0:0:
378,342,71111,1,10,0:0:0:0:
381,163,71278,1,2,0:0:0:0:
381,163,71445,1,2,0:0:0:0:
285,297,71611,1,2,3:2:0:0:
489,242,71778,5,8,0:0:0:0:
200,214,71945,1,0,3:2:0:0:
505,36,72111,6,0,L|499:133,1,97.7500018644333,6|0,3:2|0:0,0:0:0:0:
378,342,72445,2,0,L|372:245,1,97.7500018644333,10|0,0:0|0:0,0:0:0:0:
358,32,72778,1,0,0:0:0:0:
208,207,72945,1,0,3:0:0:0:
411,131,73111,1,10,0:0:0:0:
99,38,73278,6,0,L|105:135,1,97.7500018644333,2|0,0:0|0:0,0:0:0:0:
266,73,73611,1,2,3:2:0:0:
24,20,73778,6,0,L|33:166,1,146.62500279665,10|0,0:0|0:0,0:0:0:0:
38,215,74111,1,2,0:0:0:0:
146,370,74278,1,2,3:2:0:0:
105,135,74445,1,8,0:0:0:0:
7,316,74611,1,2,0:0:0:0:
222,334,74778,6,0,L|319:340,1,97.7500018644333,2|0,3:2|0:0,0:0:0:0:
469,238,75111,2,0,L|372:244,1,97.7500018644333,8|0,0:0|0:0,0:0:0:0:
175,256,75445,1,2,0:0:0:0:
313,77,75611,1,0,3:2:0:0:
273,250,75778,2,0,L|267:153,1,97.7500018644333,10|0,0:0|0:0,0:0:0:0:
257,0,76111,5,2,0:0:0:0:
168,158,76278,1,0,3:0:0:0:
410,83,76445,5,8,0:0:0:0:
117,63,76611,1,2,0:0:0:0:
371,244,76778,5,2,0:0:0:0:
77,228,76944,1,2,3:2:0:0:
313,77,77111,1,8,0:0:0:0:
266,347,77278,1,2,3:2:0:0:
266,347,77361,1,0,3:0:0:0:
266,347,77445,6,0,L|272:250,1,97.7500018644333,6|0,3:2|0:0,0:0:0:0:
435,93,77778,6,0,L|441:190,1,97.7500018644333,10|0,0:0|0:0,0:0:0:0:
156,134,78111,1,0,0:0:0:0:
357,142,78278,1,0,3:0:0:0:
190,292,78445,1,10,0:0:0:0:
44,74,78611,6,0,L|38:171,1,97.7500018644333,2|0,0:0|0:0,0:0:0:0:
25,382,78945,1,2,3:2:0:0:
283,362,79111,6,0,P|297:290|274:220,1,146.62500279665,10|0,0:0|0:0,0:0:0:0:
246,190,79445,1,2,0:0:0:0:
0,309,79611,1,2,3:2:0:0:
207,342,79778,2,0,P|216:293|200:247,1,97.7500018644333,10|2,0:0|0:0,0:0:0:0:
44,74,80111,6,0,L|141:68,1,97.7500018644333,2|0,3:2|0:0,0:0:0:0:
343,196,80445,2,0,L|246:190,1,97.7500018644333,8|0,0:0|0:0,0:0:0:0:
308,0,80778,1,2,0:0:0:0:
463,143,80945,1,2,3:2:0:0:
240,56,81111,1,10,0:0:0:0:
456,45,81278,6,0,L|462:142,1,97.7500018644333,2|0,0:0|0:0,0:0:0:0:
475,356,81611,1,2,3:2:0:0:
243,291,81778,2,0,L|340:285,1,97.7500018644333,10|0,0:0|0:0,0:0:0:0:
512,269,82111,5,2,0:0:0:0:
348,91,82278,1,2,3:2:0:0:
295,367,82445,1,10,0:0:0:0:
462,142,82611,1,2,3:2:0:0:
119,122,82778,6,0,L|216:128,1,97.7500018644333,6|0,3:2|0:0,0:0:0:0:
350,261,83111,2,0,L|253:267,1,97.7500018644333,8|0,0:0|0:0,0:0:0:0:
22,278,83445,1,2,0:0:0:0:
160,198,83611,1,2,3:2:0:0:
95,353,83778,1,10,0:0:0:0:
119,122,83945,6,0,L|125:25,1,97.7500018644333,2|0,0:0|0:0,0:0:0:0:
295,82,84278,1,2,3:2:0:0:
41,0,84445,6,0,L|32:146,1,146.62500279665,10|0,0:0|0:0,0:0:0:0:
30,192,84778,1,2,0:0:0:0:
247,237,84945,1,2,3:2:0:0:
125,25,85111,2,0,L|119:122,1,97.7500018644333,10|2,0:0|0:0,0:0:0:0:
332,284,85445,6,0,L|326:187,1,97.7500018644333,2|0,3:2|0:0,0:0:0:0:
459,44,85778,2,0,L|453:141,1,97.7500018644333,8|0,0:0|0:0,0:0:0:0:
439,319,86111,1,2,0:0:0:0:
318,81,86278,1,2,3:2:0:0:
512,227,86445,1,10,0:0:0:0:
512,227,86611,1,2,0:0:0:0:
150,243,86778,6,0,L|247:237,1,97.7500018644333,2|0,0:0|3:0,0:0:0:0:
439,319,87111,2,0,L|342:313,1,97.7500018644333,10|0,0:0|0:0,0:0:0:0:
39,294,87445,5,2,3:2:0:0:
319,80,87611,1,8,0:0:0:0:
71,94,87778,1,2,3:2:0:0:
209,350,87945,1,0,3:2:0:0:
191,36,88111,6,0,L|197:133,1,97.7500018644333,6|0,3:2|0:0,0:0:0:0:
122,290,88445,6,0,B|203:235|203:235|289:280,1,195.500003728867,10|0,0:0|0:0,0:0:0:0:
469,351,88945,1,2,3:2:0:0:
362,181,89111,1,10,0:0:0:0:
288,376,89278,1,2,0:0:0:0:
479,239,89445,6,0,L|485:142,1,97.7500018644333,2|0,0:0|3:0,0:0:0:0:
283,33,89778,2,0,B|364:88|364:88|450:43,1,195.500003728867,10|0,0:0|0:0,0:0:0:0:
245,128,90278,5,2,3:2:0:0:
485,141,90445,1,10,0:0:0:0:
370,0,90611,1,2,0:0:0:0:
106,67,90778,6,0,L|100:164,1,97.7500018644333,2|0,3:2|0:0,0:0:0:0:
7,292,91111,6,0,B|93:247|93:247|174:302,1,195.500003728867,10|2,0:0|0:0,0:0:0:0:
308,384,91611,1,2,3:2:0:0:
233,217,91778,1,10,0:0:0:0:
89,360,91945,1,2,0:0:0:0:
343,266,92111,6,0,L|337:169,1,97.7500018644333,2|0,0:0|3:0,0:0:0:0:
247,1,92445,2,0,L|241:98,1,97.7500018644333,10|0,0:0|0:0,0:0:0:0:
512,109,92778,5,2,0:0:0:0:
233,217,92945,1,0,3:0:0:0:
512,332,93111,1,10,0:0:0:0:
329,58,93278,1,2,3:2:0:0:
349,363,93445,6,0,L|343:266,1,97.7500018644333,6|0,3:2|0:0,0:0:0:0:
415,111,93778,6,0,B|334:166|334:166|248:121,1,195.500003728867,10|0,0:0|0:0,0:0:0:0:
57,17,94278,1,2,3:2:0:0:
142,191,94445,1,10,0:0:0:0:
213,10,94611,1,2,0:0:0:0:
50,134,94778,6,0,L|44:231,1,97.7500018644333,2|0,0:0|3:0,0:0:0:0:
216,354,95111,2,0,B|135:299|135:299|49:344,1,195.500003728867,10|0,0:0|0:0,0:0:0:0:
242,243,95611,5,2,3:2:0:0:
43,231,95778,1,10,0:0:0:0:
131,384,95945,1,2,0:0:0:0:
412,309,96111,6,0,L|418:212,1,97.7500018644333,2|0,3:2|0:0,0:0:0:0:
308,15,96445,2,0,L|314:112,1,97.7500018644333,10|0,0:0|0:0,0:0:0:0:
327,249,96778,1,2,0:0:0:0:
327,249,96945,1,2,3:2:0:0:
425,60,97111,1,10,0:0:0:0:
498,173,97278,1,2,0:0:0:0:
236,150,97445,6,0,L|139:144,1,97.7500018644333,2|0,0:0|3:0,0:0:0:0:
0,283,97778,2,0,L|97:277,1,97.7500018644333,10|0,0:0|0:0,0:0:0:0:
197,12,98111,5,2,0:0:0:0:
97,276,98278,1,0,3:0:0:0:
6,48,98445,1,10,0:0:0:0:
346,127,98611,1,2,3:2:0:0:
346,127,98695,1,0,3:0:0:0:
346,127,98778,6,0,L|249:133,1,97.7500018644333,6|0,3:2|0:0,0:0:0:0:
132,51,99111,6,0,B|177:137|177:137|122:218,1,195.500003728867,10|0,0:0|0:0,0:0:0:0:
0,369,99611,1,2,3:2:0:0:
213,286,99777,1,10,0:0:0:0:
2,217,99944,1,2,0:0:0:0:
155,378,100111,6,0,L|252:384,1,97.7500018644333,2|0,0:0|3:0,0:0:0:0:
375,211,100445,2,0,B|320:292|320:292|365:378,1,195.500003728867,10|0,0:0|0:0,0:0:0:0:
264,184,100945,5,2,3:2:0:0:
252,384,101112,1,10,0:0:0:0:
420,296,101279,1,2,0:0:0:0:
503,85,101445,6,0,L|406:91,1,97.7500018644333,2|0,3:2|0:0,0:0:0:0:
254,16,101778,6,0,B|309:97|309:97|264:183,1,195.500003728867,10|2,0:0|0:0,0:0:0:0:
192,322,102278,1,2,3:2:0:0:
215,100,102445,1,10,0:0:0:0:
332,260,102611,1,2,0:0:0:0:
15,278,102778,6,0,L|112:272,1,97.7500018644333,2|0,0:0|3:0,0:0:0:0:
263,183,103111,2,0,L|166:177,1,97.7500018644333,10|0,0:0|0:0,0:0:0:0:
100,0,103445,5,2,0:0:0:0:
207,271,103611,1,0,3:0:0:0:
0,165,103778,1,10,0:0:0:0:
223,18,103945,1,2,3:2:0:0:
200,368,104111,6,0,L|206:271,1,97.7500018644333,6|0,3:2|0:0,0:0:0:0:
132,107,104445,6,0,B|213:162|213:162|299:117,1,195.500003728867,10|0,0:0|0:0,0:0:0:0:
490,16,104945,1,2,3:2:0:0:
409,183,105111,1,10,0:0:0:0:
303,19,105278,1,2,0:0:0:0:
501,128,105445,6,0,L|507:225,1,97.7500018644333,2|0,0:0|3:0,0:0:0:0:
334,335,105778,2,0,B|415:280|415:280|501:325,1,195.500003728867,10|0,0:0|0:0,0:0:0:0:
308,239,106278,5,2,3:2:0:0:
507,225,106445,1,10,0:0:0:0:
421,376,106611,1,2,0:0:0:0:
227,257,106778,6,0,L|230:208,3,48.8750009322167,2|0|0|0,3:2|0:0|0:0|0:0,0:0:0:0:
75,212,107111,2,0,L|78:260,1,48.8750009322167,2|0,0:0|0:0,0:0:0:0:
148,362,107278,6,0,L|151:313,3,48.8750009322167,8|0|0|0,0:0|0:0|0:0|0:0,0:0:0:0:
56,195,107611,6,0,L|59:243,1,48.8750009322167,2|0,0:0|0:0,0:0:0:0:
154,169,107778,1,8,1:2:0:0:
154,169,107861,1,0,1:0:0:0:
154,169,107945,2,0,L|151:121,1,48.8750009322167,2|0,1:2|1:0,0:0:0:0:
71,66,108111,5,2,1:2:0:0:
105,42,108195,1,0,1:0:0:0:
146,33,108278,1,0,3:0:0:0:
189,38,108360,1,0,1:0:0:0:
226,58,108445,1,2,1:2:0:0:
263,78,108529,1,0,1:0:0:0:
305,83,108612,1,0,3:0:0:0:
347,74,108695,1,0,1:0:0:0:
380,48,108778,6,0,L|383:97,1,48.8750009322167,10|0,0:0|0:0,0:0:0:0:
328,245,108945,2,0,L|331:196,1,48.8750009322167,0|0,3:0|0:0,0:0:0:0:
468,1,109111,6,0,L|477:147,1,133.874995914459,2|0,0:0|0:0,0:0:0:0:
479,177,109444,1,2,3:2:0:0:
