osu file format v14

[General]
AudioFilename: audio.mp3
AudioLeadIn: 0
PreviewTime: 65521
Countdown: 0
SampleSet: Soft
StackLeniency: 0.4
Mode: 0
LetterboxInBreaks: 0
WidescreenStoryboard: 0

[Editor]
Bookmarks: 2855,24188,45521,56188,61521,66855,88188,109521,120188,141521,152188,157521,162855,184188,205521,226855
DistanceSpacing: 1
BeatDivisor: 4
GridSize: 8
TimelineZoom: 1.900001

[Metadata]
Title:Nothing More
TitleUnicode:Nothing More
Artist:Mazare & Luma
ArtistUnicode:Mazare & Luma
Creator:Flowziee
Version:Love and Nothing More...
Source:
Tags:dnb drum and n & bass dance english electronic monstercat instinct vol. 3 'n' HOS HootOwlStar JayBone
BeatmapID:2293137
BeatmapSetID:1097424

[Difficulty]
HPDrainRate:5.5
CircleSize:4.2
OverallDifficulty:8.5
ApproachRate:9.2
SliderMultiplier:1.4
SliderTickRate:1

[Events]
//Background and Video events
0,0,"bg.jpg",0,0
//Break Periods
2,109721,118854
//Storyboard Layer 0 (Background)
//Storyboard Layer 1 (Fail)
//Storyboard Layer 2 (Pass)
//Storyboard Layer 3 (Foreground)
//Storyboard Layer 4 (Overlay)
//Storyboard Sound Samples

[TimingPoints]
2855,333.333333333333,4,2,0,30,1,0
2855,-200,4,2,6,30,0,0
7521,-200,4,2,6,30,0,0
7563,-200,4,2,6,10,0,0
8188,-200,4,2,6,30,0,0
13188,-200,4,2,6,30,0,0
13229,-200,4,2,6,10,0,0
13521,-200,4,2,6,30,0,0
18188,-200,4,2,6,30,0,0
18229,-200,4,2,6,10,0,0
18854,-200,4,2,6,30,0,0
23521,-200,4,3,0,60,0,0
24188,-100,4,3,1,40,0,0
24854,-100,4,3,2,40,0,0
25854,-100,4,3,1,40,0,0
26188,-100,4,3,2,40,0,0
26854,-100,4,3,1,40,0,0
27521,-100,4,3,2,40,0,0
28021,-100,4,3,1,40,0,0
28354,-100,4,3,2,40,0,0
28521,-100,4,3,1,40,0,0
28854,-100,4,3,2,40,0,0
29521,-100,4,3,1,40,0,0
30188,-100,4,3,2,40,0,0
31188,-100,4,3,1,40,0,0
31521,-100,4,3,2,40,0,0
32188,-95.2380952380952,4,3,1,40,0,0
32854,-90.9090909090909,4,3,2,40,0,0
33521,-86.9565217391304,4,3,1,40,0,0
34188,-76.9230769230769,4,3,2,40,0,0
34854,-100,4,3,1,40,0,0
35521,-100,4,3,2,40,0,0
36521,-100,4,3,1,40,0,0
36854,-100,4,3,2,40,0,0
37521,-100,4,3,1,40,0,0
38188,-100,4,3,2,40,0,0
38688,-100,4,3,1,40,0,0
39021,-100,4,3,2,40,0,0
39188,-100,4,3,1,40,0,0
39521,-100,4,3,2,40,0,0
40188,-100,4,3,1,40,0,0
40854,-100,4,3,2,40,0,0
41854,-100,4,3,1,40,0,0
42188,-100,4,3,2,40,0,0
42854,-95.2380952380952,4,3,1,40,0,0
43521,-90.9090909090909,4,3,2,40,0,0
44021,-90.9090909090909,4,3,1,40,0,0
44188,-86.9565217391304,4,3,1,40,0,0
44854,-76.9230769230769,4,3,0,50,0,0
45521,-200,4,3,1,60,0,0
56188,-100,4,3,1,60,0,0
56521,-100,4,3,2,60,0,0
57021,-100,4,3,1,60,0,0
57188,-100,4,3,2,60,0,0
57521,-100,4,3,1,65,0,0
57854,-100,4,3,2,65,0,0
58354,-100,4,3,1,65,0,0
58521,-100,4,3,2,65,0,0
58854,-100,4,3,1,70,0,0
59188,-100,4,3,2,70,0,0
59688,-100,4,3,1,70,0,0
59854,-100,4,3,2,70,0,0
60188,-100,4,3,1,75,0,0
60521,-100,4,3,2,75,0,0
61021,-100,4,3,1,75,0,0
61188,-100,4,3,2,75,0,0
61521,-90.9090909090909,4,3,1,80,0,0
63854,-90.9090909090909,4,3,1,80,0,0
64188,-83.3333333333333,4,2,5,70,0,0
64521,-83.3333333333333,4,2,5,70,0,0
64854,-83.3333333333333,4,2,3,75,0,0
65021,-83.3333333333333,4,2,5,75,0,0
65188,-83.3333333333333,4,2,5,75,0,0
65521,-83.3333333333333,4,2,3,80,0,0
65688,-83.3333333333333,4,2,5,80,0,0
65854,-83.3333333333333,4,2,5,85,0,0
66188,-83.3333333333333,4,2,3,90,0,0
66354,-133.333333333333,4,2,5,90,0,0
66771,-133.333333333333,4,2,5,10,0,0
66854,-76.9230769230769,4,3,1,80,0,1
67188,-66.6666666666667,4,3,2,80,0,0
67688,-66.6666666666667,4,3,1,80,0,0
67854,-66.6666666666667,4,3,2,80,0,0
68354,-76.9230769230769,4,3,1,80,0,0
68438,-76.9230769230769,4,3,1,10,0,0
68521,-66.6666666666667,4,3,2,80,0,0
69021,-66.6666666666667,4,3,1,80,0,0
69188,-66.6666666666667,4,3,2,80,0,0
69521,-76.9230769230769,4,3,1,80,0,0
69854,-66.6666666666667,4,3,2,80,0,0
70354,-76.9230769230769,4,3,1,80,0,0
70438,-76.9230769230769,4,3,1,10,0,0
70521,-66.6666666666667,4,3,2,80,0,0
71021,-76.9230769230769,4,3,1,80,0,0
71104,-76.9230769230769,4,3,1,10,0,0
71188,-66.6666666666667,4,3,2,80,0,0
71688,-76.9230769230769,4,3,1,80,0,0
71771,-76.9230769230769,4,3,1,10,0,0
71854,-66.6666666666667,4,3,2,80,0,0
71938,-66.6666666666667,4,3,1,10,0,0
72021,-58.8235294117647,4,3,1,80,0,0
72104,-58.8235294117647,4,3,1,20,0,0
72188,-76.9230769230769,4,3,1,80,0,1
72521,-66.6666666666667,4,3,2,80,0,0
73021,-66.6666666666667,4,3,1,80,0,0
73188,-66.6666666666667,4,3,2,80,0,0
73688,-76.9230769230769,4,3,1,80,0,0
73771,-76.9230769230769,4,3,1,10,0,0
73854,-66.6666666666667,4,3,2,80,0,0
74354,-66.6666666666667,4,3,1,80,0,0
74521,-66.6666666666667,4,3,2,80,0,0
74854,-76.9230769230769,4,3,1,80,0,0
75188,-66.6666666666667,4,3,2,80,0,0
75688,-76.9230769230769,4,3,1,80,0,0
75771,-76.9230769230769,4,3,1,10,0,0
75854,-66.6666666666667,4,3,2,80,0,0
76354,-76.9230769230769,4,3,1,80,0,0
76438,-76.9230769230769,4,3,1,10,0,0
76521,-66.6666666666667,4,3,2,80,0,0
77021,-76.9230769230769,4,3,1,80,0,0
77104,-76.9230769230769,4,3,1,10,0,0
77188,-66.6666666666667,4,3,2,80,0,0
77271,-66.6666666666667,4,3,1,10,0,0
77354,-58.8235294117647,4,3,1,80,0,0
77521,-76.9230769230769,4,3,1,80,0,1
77854,-66.6666666666667,4,3,2,80,0,0
78354,-66.6666666666667,4,3,1,80,0,0
78521,-66.6666666666667,4,3,2,80,0,0
79021,-76.9230769230769,4,3,1,80,0,0
79104,-76.9230769230769,4,3,1,10,0,0
79188,-66.6666666666667,4,3,2,80,0,0
79688,-66.6666666666667,4,3,1,80,0,0
79854,-66.6666666666667,4,3,2,80,0,0
80188,-76.9230769230769,4,3,1,80,0,0
80521,-66.6666666666667,4,3,2,80,0,0
81021,-76.9230769230769,4,3,1,80,0,0
81104,-76.9230769230769,4,3,1,10,0,0
81188,-66.6666666666667,4,3,2,80,0,0
81688,-76.9230769230769,4,3,1,80,0,0
81771,-76.9230769230769,4,3,1,10,0,0
81854,-66.6666666666667,4,3,2,80,0,0
82354,-76.9230769230769,4,3,1,80,0,0
82438,-76.9230769230769,4,3,1,10,0,0
82521,-66.6666666666667,4,3,2,80,0,0
82604,-66.6666666666667,4,3,1,10,0,0
82688,-58.8235294117647,4,3,1,80,0,0
82771,-58.8235294117647,4,3,1,10,0,0
82854,-76.9230769230769,4,3,1,80,0,1
83188,-66.6666666666667,4,3,2,80,0,0
83688,-66.6666666666667,4,3,1,80,0,0
83854,-66.6666666666667,4,3,2,80,0,0
84354,-76.9230769230769,4,3,1,80,0,0
84438,-76.9230769230769,4,3,1,10,0,0
84521,-66.6666666666667,4,3,2,80,0,0
85021,-66.6666666666667,4,3,1,80,0,0
85188,-66.6666666666667,4,3,2,80,0,0
85521,-76.9230769230769,4,3,1,80,0,0
85854,-66.6666666666667,4,3,2,80,0,0
86354,-76.9230769230769,4,3,1,80,0,0
86438,-76.9230769230769,4,3,1,10,0,0
86521,-66.6666666666667,4,3,2,80,0,0
87021,-76.9230769230769,4,3,1,80,0,0
87104,-76.9230769230769,4,3,1,10,0,0
87188,-66.6666666666667,4,3,2,80,0,0
87521,-76.9230769230769,4,3,1,80,0,0
87604,-76.9230769230769,4,3,1,10,0,0
87688,-66.6666666666667,4,3,2,80,0,0
88021,-76.9230769230769,4,3,1,80,0,0
88104,-76.9230769230769,4,3,1,10,0,0
88188,-58.8235294117647,4,3,1,90,0,1
88521,-58.8235294117647,4,3,2,90,0,1
88688,-58.8235294117647,4,2,1,90,0,1
89021,-58.8235294117647,4,3,1,90,0,1
89188,-58.8235294117647,4,3,2,90,0,1
89521,-58.8235294117647,4,2,1,90,0,1
89854,-52.6315789473684,4,2,2,90,0,1
89938,-52.6315789473684,4,2,1,10,0,1
90021,-52.6315789473684,4,2,2,90,0,1
90104,-52.6315789473684,4,2,1,10,0,1
90188,-52.6315789473684,4,2,2,90,0,1
90271,-52.6315789473684,4,2,1,10,0,1
90354,-52.6315789473684,4,2,4,90,0,1
90438,-52.6315789473684,4,2,1,10,0,1
90521,-52.6315789473684,4,2,2,90,0,1
90604,-52.6315789473684,4,2,1,10,0,1
90688,-52.6315789473684,4,2,2,90,0,1
90771,-52.6315789473684,4,2,1,10,0,1
90854,-58.8235294117647,4,3,1,90,0,1
91188,-58.8235294117647,4,3,2,90,0,1
91354,-58.8235294117647,4,2,1,90,0,1
91854,-58.8235294117647,4,3,2,90,0,1
92188,-50,4,2,6,90,0,1
92521,-50,4,2,7,90,0,1
92688,-50,4,2,1,90,0,1
93021,-50,4,3,1,90,0,1
93188,-50,4,3,2,90,0,1
93354,-50,4,3,1,90,0,1
93521,-58.8235294117647,4,3,1,90,0,1
93854,-58.8235294117647,4,3,2,90,0,1
94021,-58.8235294117647,4,2,1,90,0,1
94354,-58.8235294117647,4,3,1,90,0,1
94521,-58.8235294117647,4,3,2,90,0,1
94854,-58.8235294117647,4,2,1,90,0,1
95188,-52.6315789473684,4,2,2,90,0,1
95271,-52.6315789473684,4,2,1,10,0,1
95354,-52.6315789473684,4,2,2,90,0,1
95438,-52.6315789473684,4,2,1,10,0,1
95521,-52.6315789473684,4,2,2,90,0,1
95604,-52.6315789473684,4,2,1,10,0,1
95688,-52.6315789473684,4,2,4,90,0,1
95771,-52.6315789473684,4,2,1,10,0,1
95854,-52.6315789473684,4,2,2,90,0,1
95938,-52.6315789473684,4,2,1,10,0,1
96021,-52.6315789473684,4,2,2,90,0,1
96104,-52.6315789473684,4,2,1,10,0,1
96188,-58.8235294117647,4,3,1,90,0,1
96521,-58.8235294117647,4,3,2,90,0,1
96688,-58.8235294117647,4,2,1,90,0,1
97188,-58.8235294117647,4,3,2,90,0,1
97521,-50,4,2,6,90,0,1
97854,-50,4,2,7,90,0,1
98021,-50,4,2,1,90,0,1
98354,-50,4,3,1,90,0,1
98521,-50,4,3,2,90,0,1
98688,-50,4,3,1,90,0,1
98854,-58.8235294117647,4,3,1,90,0,1
99188,-58.8235294117647,4,3,2,90,0,1
99354,-58.8235294117647,4,2,1,90,0,1
99688,-58.8235294117647,4,3,1,90,0,1
99854,-58.8235294117647,4,3,2,90,0,1
100188,-58.8235294117647,4,2,1,90,0,1
100521,-52.6315789473684,4,2,2,90,0,1
100604,-52.6315789473684,4,2,1,10,0,1
100688,-52.6315789473684,4,2,2,90,0,1
100771,-52.6315789473684,4,2,1,10,0,1
100854,-52.6315789473684,4,2,2,90,0,1
100938,-52.6315789473684,4,2,1,10,0,1
101021,-52.6315789473684,4,2,4,90,0,1
101104,-52.6315789473684,4,2,1,10,0,1
101188,-52.6315789473684,4,2,2,90,0,1
101271,-52.6315789473684,4,2,1,10,0,1
101354,-52.6315789473684,4,2,2,90,0,1
101438,-52.6315789473684,4,2,1,10,0,1
101521,-58.8235294117647,4,3,1,90,0,1
101854,-58.8235294117647,4,3,2,90,0,1
102021,-58.8235294117647,4,2,1,90,0,1
102521,-58.8235294117647,4,3,2,90,0,1
102854,-50,4,2,6,90,0,1
103188,-50,4,2,7,90,0,1
103354,-50,4,2,1,90,0,1
103688,-50,4,3,1,90,0,1
103854,-50,4,3,2,90,0,1
104021,-50,4,3,1,90,0,1
104188,-58.8235294117647,4,3,1,90,0,1
104521,-58.8235294117647,4,3,2,90,0,1
104688,-58.8235294117647,4,2,1,90,0,1
105021,-58.8235294117647,4,3,1,90,0,1
105188,-58.8235294117647,4,3,2,90,0,1
105688,-58.8235294117647,4,3,1,90,0,1
105854,-58.8235294117647,4,3,2,90,0,1
106354,-58.8235294117647,4,3,1,90,0,1
106521,-58.8235294117647,4,3,2,90,0,1
106854,-83.3333333333333,4,2,5,70,0,1
107188,-83.3333333333333,4,2,5,70,0,1
107521,-83.3333333333333,4,2,3,75,0,1
107688,-83.3333333333333,4,2,5,75,0,1
107854,-83.3333333333333,4,2,5,75,0,1
108188,-83.3333333333333,4,2,3,80,0,1
108354,-83.3333333333333,4,2,5,80,0,1
108521,-83.3333333333333,4,2,5,85,0,1
108854,-83.3333333333333,4,2,3,90,0,1
109021,-83.3333333333333,4,2,5,90,0,1
109188,-83.3333333333333,4,2,5,90,0,1
109521,-66.6666666666667,4,2,5,60,0,0
119521,-66.6666666666667,4,3,0,60,0,0
120188,-100,4,3,1,40,0,0
120854,-100,4,3,2,40,0,0
121854,-100,4,3,1,40,0,0
122188,-100,4,3,2,40,0,0
122854,-100,4,3,1,40,0,0
123521,-100,4,3,2,40,0,0
124021,-100,4,3,1,40,0,0
124354,-100,4,3,2,40,0,0
124521,-100,4,3,1,40,0,0
124854,-100,4,3,2,40,0,0
125521,-100,4,3,1,40,0,0
126188,-100,4,3,2,40,0,0
127188,-100,4,3,1,40,0,0
127521,-100,4,3,2,40,0,0
128188,-95.2380952380952,4,3,1,40,0,0
128854,-90.9090909090909,4,3,2,40,0,0
129521,-86.9565217391304,4,3,1,40,0,0
130188,-76.9230769230769,4,3,2,40,0,0
130854,-100,4,3,1,40,0,0
131521,-100,4,3,2,40,0,0
132521,-100,4,3,1,40,0,0
132854,-100,4,3,2,40,0,0
133521,-100,4,3,1,40,0,0
134188,-100,4,3,2,40,0,0
134688,-100,4,3,1,40,0,0
135021,-100,4,3,2,40,0,0
135188,-100,4,3,1,40,0,0
135521,-100,4,3,2,40,0,0
136188,-100,4,3,1,40,0,0
136854,-100,4,3,2,40,0,0
137854,-100,4,3,1,40,0,0
138188,-100,4,3,2,40,0,0
138854,-95.2380952380952,4,3,1,40,0,0
139521,-90.9090909090909,4,3,2,40,0,0
140021,-90.9090909090909,4,3,1,40,0,0
140188,-86.9565217391304,4,3,1,40,0,0
140854,-76.9230769230769,4,3,0,40,0,0
141521,-200,4,3,1,50,0,0
152188,-100,4,3,1,60,0,0
152854,-100,4,3,2,60,0,0
153854,-100,4,3,1,60,0,0
154188,-100,4,3,2,60,0,0
154854,-100,4,3,1,60,0,0
155521,-100,4,3,2,60,0,0
156521,-100,4,3,1,60,0,0
156854,-100,4,3,2,60,0,0
157521,-90.9090909090909,4,3,1,60,0,0
158188,-90.9090909090909,4,3,2,60,0,0
158521,-90.9090909090909,4,3,1,60,0,0
159521,-90.9090909090909,4,3,2,60,0,0
159854,-90.9090909090909,4,3,1,60,0,0
160188,-83.3333333333333,4,2,5,70,0,0
160854,-83.3333333333333,4,2,5,75,0,0
161521,-83.3333333333333,4,2,3,80,0,0
161854,-83.3333333333333,4,2,3,85,0,0
162188,-83.3333333333333,4,2,5,90,0,0
162354,-133.333333333333,4,2,5,90,0,0
162771,-133.333333333333,4,2,5,10,0,0
162854,-66.6666666666667,4,3,1,80,0,1
163104,-66.6666666666667,4,3,1,10,0,1
163188,-66.6666666666667,4,3,1,80,0,0
163521,-58.8235294117647,4,3,2,80,0,0
163771,-58.8235294117647,4,3,2,10,0,0
163854,-58.8235294117647,4,3,2,80,0,0
164021,-100,4,3,1,80,0,0
164854,-200,4,3,2,80,0,0
165521,-66.6666666666667,4,3,1,80,0,0
166188,-58.8235294117647,4,3,2,80,0,0
166438,-58.8235294117647,4,3,2,10,0,0
166521,-58.8235294117647,4,3,2,80,0,0
166688,-100,4,3,1,80,0,0
167104,-100,4,3,1,10,0,0
167188,-100,4,3,1,80,0,0
167521,-100,4,3,2,80,0,0
167604,-100,4,3,1,10,0,0
167688,-100,4,3,1,80,0,0
168104,-100,4,3,1,10,0,0
168188,-66.6666666666667,4,3,1,80,0,1
168438,-66.6666666666667,4,3,1,10,0,1
168521,-66.6666666666667,4,3,1,80,0,0
168854,-58.8235294117647,4,3,2,80,0,0
169104,-58.8235294117647,4,3,2,10,0,0
169188,-58.8235294117647,4,3,2,80,0,0
169354,-100,4,3,1,80,0,0
170188,-200,4,3,2,80,0,0
170854,-66.6666666666667,4,3,1,80,0,0
171521,-58.8235294117647,4,3,2,80,0,0
171771,-58.8235294117647,4,3,2,10,0,0
171854,-58.8235294117647,4,3,2,80,0,0
172021,-100,4,3,1,80,0,0
172854,-100,4,3,2,80,0,0
172938,-100,4,3,1,10,0,0
173021,-100,4,3,1,80,0,0
173438,-100,4,3,1,10,0,0
173521,-66.6666666666667,4,3,1,80,0,1
173771,-66.6666666666667,4,3,1,10,0,1
173854,-66.6666666666667,4,3,1,80,0,0
174188,-58.8235294117647,4,3,2,80,0,0
174438,-58.8235294117647,4,3,2,10,0,0
174521,-58.8235294117647,4,3,2,80,0,0
174688,-100,4,3,1,80,0,0
175521,-200,4,3,2,80,0,0
176188,-66.6666666666667,4,3,1,80,0,0
176854,-58.8235294117647,4,3,2,80,0,0
177104,-58.8235294117647,4,3,2,10,0,0
177188,-58.8235294117647,4,3,2,80,0,0
177354,-100,4,3,1,80,0,0
177771,-100,4,3,1,10,0,0
177854,-100,4,3,1,80,0,0
178188,-100,4,3,2,80,0,0
178271,-100,4,3,1,10,0,0
178354,-100,4,3,1,80,0,0
178771,-100,4,3,1,10,0,0
178854,-66.6666666666667,4,3,1,80,0,1
179104,-66.6666666666667,4,3,1,10,0,1
179188,-66.6666666666667,4,3,1,80,0,0
179521,-58.8235294117647,4,3,2,80,0,0
179771,-58.8235294117647,4,3,2,10,0,0
179854,-58.8235294117647,4,3,2,80,0,0
180021,-100,4,3,1,80,0,0
180854,-200,4,3,2,80,0,0
181521,-100,4,3,1,80,0,0
182521,-100,4,2,3,80,0,0
183521,-100,4,3,2,80,0,0
183688,-100,4,3,1,80,0,0
184188,-58.8235294117647,4,3,1,90,0,1
184521,-58.8235294117647,4,3,2,90,0,1
184688,-58.8235294117647,4,2,1,90,0,1
185021,-58.8235294117647,4,3,1,90,0,1
185188,-58.8235294117647,4,3,2,90,0,1
185521,-58.8235294117647,4,2,1,90,0,1
185854,-52.6315789473684,4,2,2,90,0,1
185938,-52.6315789473684,4,2,1,10,0,1
186021,-52.6315789473684,4,2,2,90,0,1
186104,-52.6315789473684,4,2,1,10,0,1
186188,-52.6315789473684,4,2,2,90,0,1
186271,-52.6315789473684,4,2,1,10,0,1
186354,-52.6315789473684,4,2,4,90,0,1
186438,-52.6315789473684,4,2,1,10,0,1
186521,-52.6315789473684,4,2,2,90,0,1
186604,-52.6315789473684,4,2,1,10,0,1
186688,-52.6315789473684,4,2,2,90,0,1
186771,-52.6315789473684,4,2,1,10,0,1
186854,-58.8235294117647,4,3,1,90,0,1
187188,-58.8235294117647,4,3,2,90,0,1
187354,-58.8235294117647,4,2,1,90,0,1
187854,-58.8235294117647,4,3,2,90,0,1
188188,-50,4,2,6,90,0,1
188521,-50,4,2,7,90,0,1
188688,-50,4,2,1,90,0,1
189021,-50,4,3,1,90,0,1
189188,-50,4,3,2,90,0,1
189354,-50,4,3,1,90,0,1
189521,-58.8235294117647,4,3,1,90,0,1
189854,-58.8235294117647,4,3,2,90,0,1
190021,-58.8235294117647,4,2,1,90,0,1
190354,-58.8235294117647,4,3,1,90,0,1
190521,-58.8235294117647,4,3,2,90,0,1
190854,-58.8235294117647,4,2,1,90,0,1
191188,-52.6315789473684,4,2,2,90,0,1
191271,-52.6315789473684,4,2,1,10,0,1
191354,-52.6315789473684,4,2,2,90,0,1
191438,-52.6315789473684,4,2,1,10,0,1
191521,-52.6315789473684,4,2,2,90,0,1
191604,-52.6315789473684,4,2,1,10,0,1
191688,-52.6315789473684,4,2,4,90,0,1
191771,-52.6315789473684,4,2,1,10,0,1
191854,-52.6315789473684,4,2,2,90,0,1
191938,-52.6315789473684,4,2,1,10,0,1
192021,-52.6315789473684,4,2,2,90,0,1
192104,-52.6315789473684,4,2,1,10,0,1
192188,-58.8235294117647,4,3,1,90,0,1
192521,-58.8235294117647,4,3,2,90,0,1
192688,-58.8235294117647,4,2,1,90,0,1
193188,-58.8235294117647,4,3,2,90,0,1
193521,-50,4,2,6,90,0,1
193854,-50,4,2,7,90,0,1
194021,-50,4,2,1,90,0,1
194354,-50,4,3,1,90,0,1
194521,-50,4,3,2,90,0,1
194688,-50,4,3,1,90,0,1
194854,-58.8235294117647,4,3,1,90,0,1
195188,-58.8235294117647,4,3,2,90,0,1
195354,-58.8235294117647,4,2,1,90,0,1
195688,-58.8235294117647,4,3,1,90,0,1
195854,-58.8235294117647,4,3,2,90,0,1
196188,-58.8235294117647,4,2,1,90,0,1
196521,-52.6315789473684,4,2,2,90,0,1
196604,-52.6315789473684,4,2,1,10,0,1
196688,-52.6315789473684,4,2,2,90,0,1
196771,-52.6315789473684,4,2,1,10,0,1
196854,-52.6315789473684,4,2,2,90,0,1
196938,-52.6315789473684,4,2,1,10,0,1
197021,-52.6315789473684,4,2,4,90,0,1
197104,-52.6315789473684,4,2,1,10,0,1
197188,-52.6315789473684,4,2,2,90,0,1
197271,-52.6315789473684,4,2,1,10,0,1
197354,-52.6315789473684,4,2,2,90,0,1
197438,-52.6315789473684,4,2,1,10,0,1
197521,-58.8235294117647,4,3,1,90,0,1
197854,-58.8235294117647,4,3,2,90,0,1
198021,-58.8235294117647,4,2,1,90,0,1
198521,-58.8235294117647,4,3,2,90,0,1
198854,-50,4,2,6,90,0,1
199188,-50,4,2,7,90,0,1
199354,-50,4,2,1,90,0,1
199688,-50,4,3,1,90,0,1
199854,-50,4,3,2,90,0,1
200021,-50,4,3,1,90,0,1
200188,-58.8235294117647,4,3,1,90,0,1
200521,-58.8235294117647,4,3,2,90,0,1
200688,-58.8235294117647,4,2,1,90,0,1
201021,-58.8235294117647,4,3,1,90,0,1
201188,-58.8235294117647,4,3,2,90,0,1
201688,-58.8235294117647,4,3,1,90,0,1
201854,-58.8235294117647,4,3,2,90,0,1
202354,-58.8235294117647,4,3,1,90,0,1
202521,-58.8235294117647,4,3,2,90,0,1
202854,-83.3333333333333,4,3,1,80,0,1
202938,-83.3333333333333,4,2,3,70,0,1
203021,-83.3333333333333,4,2,3,75,0,1
203188,-83.3333333333333,4,3,1,80,0,1
203271,-83.3333333333333,4,2,3,70,0,1
203354,-83.3333333333333,4,3,2,90,0,1
203438,-83.3333333333333,4,2,3,75,0,1
203688,-83.3333333333333,4,3,2,75,0,1
203771,-83.3333333333333,4,2,3,75,0,1
203854,-83.3333333333333,4,3,2,90,0,1
203938,-83.3333333333333,4,2,3,75,0,1
204188,-83.3333333333333,4,2,3,80,0,1
204521,-83.3333333333333,4,2,3,85,0,1
204854,-83.3333333333333,4,3,2,90,0,1
204938,-83.3333333333333,4,2,3,100,0,1
205438,-83.3333333333333,4,2,3,10,0,1
205521,-200,4,2,0,30,0,0

[Colours]
Combo1 : 182,219,250
Combo2 : 124,124,124
Combo3 : 170,170,170
Combo4 : 197,153,20
Combo5 : 36,124,157
Combo6 : 226,200,50
Combo7 : 29,167,233
Combo8 : 241,255,140
SliderBorder : 255,255,255

[HitObjects]
438,76,2855,6,0,B|342:49|369:121|276:96|276:96|215:78|222:17|222:17|215:77|159:98|159:98|90:122|30:34|129:21|159:98|159:98|163:151|123:179|123:179|150:218|126:262|126:262|109:293|137:377|203:368,1,910,2|0,0:0|0:0,0:0:0:0:
330,328,7521,2,0,L|344:331,14,8.75
417,352,8188,6,0,B|430:295|386:261|386:261|367:195|443:144|496:198|496:198|459:232|372:215|341:173|341:173|268:237|253:146|183:219|183:219|235:339|109:407|-14:356|13:232,1,980,2|0,0:0|0:0,0:0:0:0:
85,130,13188,2,0,L|85:115,6,8.75
19,79,13521,102,0,B|76:22|145:67|145:67|208:116|274:67|274:67|350:107|395:39|395:39|437:-16|506:39|470:88|470:88|436:131|462:177|462:177|399:168|331:248|393:334|465:322,1,910,2|0,0:0|0:0,0:0:0:0:
297,356,18188,2,0,L|295:343,14,8.75
302,266,18855,6,0,B|201:263|236:373|132:363|132:363|73:351|64:293|64:293|124:279|144:225|127:181|127:181|194:171|225:106|225:106|253:22|443:53|310:241|197:117,1,910,2|0,0:0|0:0,0:0:0:0:
55,43,23521,5,8,0:0:0:0:
33,187,23688,1,8,0:0:0:0:
61,31,23855,1,8,0:0:0:0:
133,217,24021,1,8,0:0:0:0:
305,35,24188,6,0,L|143:51,1,140,8|0,0:3|0:0,0:0:0:0:
165,48,24854,2,0,P|171:99|185:135,1,70,10|2,0:0|0:0,0:0:0:0:
229,204,25188,1,2,0:0:0:0:
381,76,25354,1,2,0:0:0:0:
279,0,25521,2,0,P|262:74|282:144,2,140,2|10|10,0:0|0:0|0:0,0:0:0:0:
279,0,26521,1,2,0:0:0:0:
360,15,26688,1,2,0:0:0:0:
382,188,26855,101,8,2:3:0:0:
382,188,27188,1,2,0:0:0:0:
476,163,27354,1,2,0:0:0:0:
437,315,27521,1,10,0:0:0:0:
301,246,27688,2,0,P|280:181|270:116,1,105,2|0,0:0|0:0,0:0:0:0:
277,134,28021,1,10,0:0:0:0:
251,34,28188,6,0,P|199:24|164:10,1,70,10|8,0:0|0:0,0:0:0:0:
5,98,28521,2,0,P|65:85|85:88,1,70,10|0,0:0|0:0,0:0:0:0:
198,176,28854,2,0,P|153:215|129:271,1,105,10|0,0:0|0:0,0:0:0:0:
126,272,29188,1,2,0:0:0:0:
54,240,29354,1,2,0:0:0:0:
239,367,29521,102,0,P|243:310|235:254,1,105,10|0,0:0|0:0,0:0:0:0:
230,254,29854,1,2,0:0:0:0:
301,124,30021,2,0,P|306:165|316:216,1,70,2|8,0:0|0:0,0:0:0:0:
311,193,30521,1,2,0:0:0:0:
382,228,30688,1,2,0:0:0:0:
488,140,30854,6,0,P|431:144|375:136,1,105,2|0,0:0|0:0,0:0:0:0:
375,131,31187,1,10,0:0:0:0:
245,33,31354,2,0,P|286:38|337:48,1,70,2|8,0:0|0:0,0:0:0:0:
314,43,31854,2,0,L|294:117,1,70,2|2,0:0|0:0,0:0:0:0:
108,20,32188,102,0,P|73:43|9:62,2,97.9999970092774,10|2|2,0:0|0:0|0:0,0:0:0:0:
153,211,32854,5,10,0:0:0:0:
51,179,33077,1,0,0:0:0:0:
129,107,33299,1,2,0:0:0:0:
180,345,33521,101,2,0:0:0:0:
58,383,33743,1,2,0:0:0:0:
87,259,33966,1,2,0:0:0:0:
180,345,34188,6,0,P|241:330|372:339,1,181.999991668702,10|0,0:0|0:0,0:0:0:0:
359,335,34854,102,0,P|352:295|377:190,1,140,8|0,3:0|0:0,0:0:0:0:
372,198,35521,2,0,P|390:235|393:274,1,70,10|2,0:0|0:0,0:0:0:0:
280,172,35854,1,2,0:0:0:0:
408,109,36021,1,2,0:0:0:0:
289,40,36188,2,0,P|226:57|145:51,2,140,2|10|10,0:0|0:0|0:0,0:0:0:0:
289,40,37187,1,2,0:0:0:0:
282,120,37354,1,2,0:0:0:0:
95,194,37521,5,8,3:0:0:0:
95,194,37854,1,2,0:0:0:0:
197,228,38021,1,2,0:0:0:0:
115,367,38188,1,10,0:0:0:0:
0,286,38354,2,0,P|59:277|134:279,1,105,2|0,0:0|0:0,0:0:0:0:
122,286,38688,1,10,0:0:0:0:
289,338,38854,102,0,L|301:263,1,70,10|8,0:0|0:0,0:0:0:0:
387,368,39188,2,0,L|378:222,1,140,10|8,0:0|0:0,0:0:0:0:
378,228,39854,2,0,L|461:222,1,70,2|0,0:0|0:0,0:0:0:0:
509,89,40188,6,0,L|376:82,1,105,8|0,3:0|0:0,0:0:0:0:
388,75,40521,1,2,0:0:0:0:
399,154,40688,1,2,0:0:0:0:
250,252,40854,2,0,L|257:95,1,140,10|0,0:0|0:0,0:0:0:0:
166,23,41354,1,2,0:0:0:0:
150,137,41521,1,2,0:0:0:0:
256,112,41688,1,2,0:0:0:0:
137,126,41854,2,0,L|140:221,1,70,10|0,0:0|0:0,0:0:0:0:
44,362,42188,2,0,L|59:205,1,140,8|0,3:0|0:0,0:0:0:0:
57,222,42854,102,0,P|115:226|165:246,2,97.9999970092774,10|2|2,0:0|0:0|0:0,0:0:0:0:
163,334,43521,2,0,P|241:313|318:320,1,154.000004699707,10|0,0:0|0:0,0:0:0:0:
410,340,44021,1,10,0:0:0:0:
448,262,44188,2,0,P|465:201|494:167,2,107.333335380554,2|2|2,0:0|0:0|0:0,0:0:0:0:
313,318,44854,1,8,0:0:0:0:
374,273,45021,1,8,0:0:0:0:
277,215,45188,1,8,0:0:0:0:
381,152,45354,1,8,0:0:0:0:
240,64,45521,86,0,B|160:48|160:64|160:80|88:64,1,140,2|0,0:0|0:0,0:0:0:0:
0,171,46521,1,2,0:0:0:0:
0,171,46854,2,0,P|55:162|101:198,1,105,2|0,0:0|0:0,0:0:0:0:
136,253,47521,2,0,L|131:335,1,70,2|0,0:0|0:0,0:0:0:0:
281,365,48188,6,0,B|295:298|295:298|277:228,1,140,2|0,0:0|0:0,0:0:0:0:
346,158,49188,1,2,0:0:0:0:
346,158,49521,2,0,P|379:145|448:165,1,105,2|0,0:0|0:0,0:0:0:0:
436,272,50188,2,0,P|408:249|391:206,1,70,2|0,0:0|0:0,0:0:0:0:
453,26,50854,102,0,B|466:60|489:89|489:89|454:75|414:79,1,140,2|0,0:0|0:0,0:0:0:0:
269,48,51854,1,2,0:0:0:0:
269,48,52188,2,0,P|291:80|252:138,1,105,2|0,0:0|0:0,0:0:0:0:
192,120,52854,2,0,L|107:123,1,70,2|0,0:0|0:0,0:0:0:0:
0,261,53521,6,0,B|97:259|97:259|147:284,1,140,2|0,0:0|0:0,0:0:0:0:
244,364,54521,1,2,0:0:0:0:
244,364,54854,2,0,P|266:327|261:268,1,105,2|0,0:0|0:0,0:0:0:0:
330,218,55521,2,0,L|343:295,1,70,2|0,0:0|0:0,0:0:0:0:
491,366,56188,6,0,L|479:284,1,70,8|0,0:0|0:0,0:0:0:0:
512,166,56521,2,0,P|461:164|364:151,1,140,8|0,0:0|0:0,0:0:0:0:
278,113,57021,1,8,0:0:0:0:
386,51,57188,2,0,P|391:99|363:165,1,105,8|0,0:0|0:0,0:0:0:0:
367,163,57521,6,0,L|367:240,1,70,8|0,0:0|0:0,0:0:0:0:
228,353,57854,2,0,P|157:349|120:293,1,140,8|0,0:0|0:0,0:0:0:0:
168,214,58354,1,8,0:0:0:0:
70,140,58521,2,0,P|24:143|-19:148,1,70,8|0,0:0|0:0,0:0:0:0:
168,214,58854,102,0,P|181:165|182:122,1,70,8|0,0:0|0:0,0:0:0:0:
290,238,59188,2,0,P|270:182|256:84,1,140,8|0,0:0|0:0,0:0:0:0:
316,35,59688,1,8,0:0:0:0:
452,104,59854,2,0,L|454:229,1,105,8|0,0:0|0:0,0:0:0:0:
459,222,60188,6,0,P|416:212|362:217,1,70,8|0,0:0|0:0,0:0:0:0:
178,261,60521,2,0,P|226:297|305:309,1,140,8|0,0:0|0:0,0:0:0:0:
378,327,61021,1,8,0:0:0:0:
295,162,61188,2,0,L|287:234,1,70,8|0,0:0|0:0,0:0:0:0:
304,310,61438,1,8,0:0:0:0:
304,310,61521,6,0,P|337:322|398:326,1,77.0000023498536,8|0,0:0|0:0,0:0:0:0:
208,310,61854,2,0,P|175:322|114:326,1,77.0000023498536,8|0,0:0|0:0,0:0:0:0:
365,241,62188,6,0,P|396:226|442:185,1,77.0000023498536,8|0,0:0|0:0,0:0:0:0:
147,241,62521,2,0,P|115:226|69:185,1,77.0000023498536,8|0,0:0|0:0,0:0:0:0:
402,131,62854,102,0,P|413:97|418:36,1,77.0000023498536,8|0,0:0|0:0,0:0:0:0:
110,131,63187,2,0,P|98:97|94:36,1,77.0000023498536,8|0,0:0|0:0,0:0:0:0:
332,33,63521,5,8,0:0:0:0:
332,33,63687,1,0,0:0:0:0:
256,224,63854,1,8,0:0:0:0:
256,224,64021,1,0,0:0:0:0:
93,56,64188,38,0,L|83:106,3,41.9999987182618,0|0|0|0,0:3|0:0|0:0|0:0,0:0:0:0:
106,177,64521,2,0,L|116:227,3,41.9999987182618
55,302,64854,21,0,0:0:0:0:
74,294,64937,1,0,0:0:0:0:
95,291,65020,1,0,0:0:0:0:
116,292,65104,1,0,0:0:0:0:
136,298,65188,1,0,0:0:0:0:
155,302,65271,1,0,0:0:0:0:
176,304,65355,1,0,0:0:0:0:
196,301,65438,1,0,0:0:0:0:
216,294,65522,5,0,0:0:0:0:
254,277,65605,1,0,0:0:0:0:
294,268,65688,1,0,0:0:0:0:
332,283,65771,1,0,0:0:0:0:
358,315,65855,5,0,0:0:0:0:
299,317,65938,1,0,0:0:0:0:
254,277,66021,1,0,0:0:0:0:
257,216,66104,1,0,0:0:0:0:
296,169,66188,2,0,L|361:172,1,41.9999987182618
488,180,66354,54,0,P|468:125|480:35,1,131.25000500679,0|0,0:3|0:0,0:0:0:0:
465,39,66854,70,0,P|405:35|358:50,1,90.9999958343508,4|0,3:2|0:0,0:0:0:0:
163,148,67188,2,0,P|201:201|248:109,1,210.000008010865,8|0,0:0|0:0,0:0:0:0:
165,59,67688,1,8,0:0:0:0:
360,186,67854,2,0,L|475:181,2,105.000004005432,8|0|0,0:0|0:0|0:0,0:0:0:0:
299,290,68354,2,0,L|350:288,1,45.4999979171754,8|0,0:0|0:0,0:0:0:0:
154,366,68521,102,0,P|174:315|55:289,1,210.000008010865,8|0,0:0|0:0,0:0:0:0:
11,357,69021,1,8,0:0:0:0:
54,170,69188,2,0,P|133:157|186:170,1,105.000004005432,8|0,0:0|0:0,0:0:0:0:
348,223,69521,6,0,L|475:216,1,90.9999958343508,8|0,0:0|0:0,0:0:0:0:
299,358,69854,2,0,B|264:300|264:300|251:122,1,210.000008010865,8|0,0:0|0:0,0:0:0:0:
366,36,70354,2,0,L|437:42,1,45.4999979171754,8|0,0:0|0:0,0:0:0:0:
463,144,70521,2,0,L|250:158,1,210.000008010865,8|0,0:0|0:0,0:0:0:0:
356,25,71021,2,0,L|441:32,1,45.4999979171754,8|0,0:0|0:0,0:0:0:0:
472,154,71188,2,0,L|217:171,1,210.000008010865,8|0,0:0|0:0,0:0:0:0:
347,15,71688,102,0,L|434:22,1,45.4999979171754,8|0,0:0|0:0,0:0:0:0:
481,164,71854,2,0,L|407:169,1,52.5000020027161,8|0,0:0|0:0,0:0:0:0:
255,87,72021,2,0,L|328:91,1,59.5000011348725,8|0,0:0|0:0,0:0:0:0:
462,242,72188,6,0,L|449:349,1,90.9999958343508,4|0,3:2|0:0,0:0:0:0:
259,384,72521,2,0,P|278:324|230:175,1,210.000008010865,8|0,0:0|0:0,0:0:0:0:
153,175,73021,1,8,0:0:0:0:
103,334,73188,2,0,P|51:336|-7:324,2,105.000004005432,8|0|0,0:0|0:0|0:0,0:0:0:0:
228,349,73688,2,0,L|225:283,1,45.4999979171754,8|0,0:0|0:0,0:0:0:0:
150,92,73854,102,0,P|63:86|52:191,1,210.000008010865,8|0,0:0|0:0,0:0:0:0:
119,230,74354,1,8,0:0:0:0:
270,129,74521,2,0,P|282:74|278:21,1,105.000004005432,8|0,0:0|0:0,0:0:0:0:
301,11,74771,1,0,0:0:0:0:
322,2,74854,6,0,P|363:17|437:16,1,90.9999958343508,8|0,0:0|0:0,0:0:0:0:
502,189,75188,2,0,P|438:169|339:274,1,210.000008010865,8|0,0:0|0:0,0:0:0:0:
232,352,75688,2,0,L|240:301,1,45.4999979171754,8|0,0:0|0:0,0:0:0:0:
114,152,75854,2,0,L|152:397,1,210.000008010865,8|0,0:0|0:0,0:0:0:0:
240,366,76354,2,0,L|249:308,1,45.4999979171754,8|0,0:0|0:0,0:0:0:0:
105,137,76521,2,0,L|138:348,1,210.000008010865,8|0,0:0|0:0,0:0:0:0:
247,377,77021,102,0,L|257:313,1,45.4999979171754,8|0,0:0|0:0,0:0:0:0:
98,126,77188,2,0,L|107:184,1,52.5000020027161,8|0,0:0|0:0,0:0:0:0:
330,263,77354,1,8,0:0:0:0:
337,191,77437,1,8,0:0:0:0:
345,120,77521,6,0,P|386:106|438:106,1,90.9999958343508,4|0,3:2|0:0,0:0:0:0:
330,263,77854,2,0,P|287:249|289:365,1,210.000008010865,8|0,3:0|0:0,0:0:0:0:
359,344,78354,1,8,0:0:0:0:
253,180,78521,2,0,P|201:208|160:268,2,105.000004005432,8|0|0,0:0|0:0|0:0,0:0:0:0:
345,120,79021,2,0,L|406:125,1,45.4999979171754,8|0,0:0|0:0,0:0:0:0:
210,43,79188,102,0,B|176:93|176:93|171:268,1,210.000008010865,8|0,0:0|0:0,0:0:0:0:
118,339,79688,1,8,0:0:0:0:
0,154,79854,2,0,P|81:147|118:160,1,105.000004005432,8|0,0:0|0:0,0:0:0:0:
260,251,80188,6,0,L|253:356,1,90.9999958343508,8|0,0:0|0:0,0:0:0:0:
486,264,80521,2,0,P|390:245|350:146,1,210.000008010865,8|0,0:0|0:0,0:0:0:0:
417,25,81021,2,0,P|421:47|421:70,1,45.4999979171754,8|0,0:0|0:0,0:0:0:0:
349,149,81188,2,0,P|254:143|256:48,1,210.000008010865,8|0,0:0|0:0,0:0:0:0:
422,15,81688,2,0,P|426:41|426:67,1,45.4999979171754,8|0,0:0|0:0,0:0:0:0:
343,158,81855,2,0,P|234:151|237:42,1,210.000008010865,8|0,0:0|0:0,0:0:0:0:
439,14,82354,102,0,P|443:40|442:66,1,45.4999979171754,8|0,0:0|0:0,0:0:0:0:
335,174,82521,2,0,P|282:187|253:184,1,52.5000020027161,8|0,0:0|0:0,0:0:0:0:
189,25,82688,2,0,P|220:31|256:60,1,59.5000011348725,8|0,0:0|0:0,0:0:0:0:
153,170,82854,6,0,L|25:174,1,90.9999958343508,4|0,3:2|0:0,0:0:0:0:
1,370,83188,2,0,B|68:318|68:318|209:307,1,210.000008010865,8|0,0:0|0:0,0:0:0:0:
272,351,83688,1,8,0:0:0:0:
446,316,83854,2,0,L|465:189,2,105.000004005432,8|0|0,0:0|0:0|0:0,0:0:0:0:
355,275,84354,2,0,L|364:210,1,45.4999979171754,8|0,0:0|0:0,0:0:0:0:
445,58,84521,102,0,P|432:121|291:85,1,210.000008010865,8|0,0:0|0:0,0:0:0:0:
257,59,85021,1,8,0:0:0:0:
96,22,85188,2,0,P|107:86|100:143,1,105.000004005432,8|0,0:0|0:0,0:0:0:0:
14,238,85521,6,0,P|60:225|124:235,1,90.9999958343508,8|0,0:0|0:0,0:0:0:0:
272,193,85854,2,0,P|228:262|312:348,1,210.000008010865,8|0,0:0|0:0,0:0:0:0:
449,289,86354,2,0,L|457:242,1,45.4999979171754,8|0,0:0|0:0,0:0:0:0:
415,67,86521,2,0,P|385:140|264:192,1,210.000008010865,8|0,0:0|0:0,0:0:0:0:
452,311,87021,2,0,L|462:254,1,45.4999979171754,8|0,0:0|0:0,0:0:0:0:
205,30,87188,2,0,B|255:44|255:44|294:83,1,105.000004005432,8|0,0:0|0:0,0:0:0:0:
372,346,87521,2,0,L|380:284,1,45.4999979171754,8|0,0:0|0:0,0:0:0:0:
165,94,87688,2,0,B|215:108|215:108|254:147,1,105.000004005432,8|0,0:0|0:0,0:0:0:0:
294,384,88021,2,0,L|232:369,1,45.4999979171754,8|0,0:0|0:0,0:0:0:0:
61,327,88188,6,0,P|51:280|64:189,1,119.000002269745,8|0,0:0|0:0,0:0:0:0:
271,108,88521,1,8,0:0:0:0:
178,247,88688,1,2,0:0:0:0:
178,247,88771,1,2,0:0:0:0:
178,247,88854,1,2,0:0:0:0:
138,87,89021,1,8,0:0:0:0:
375,15,89188,2,0,P|375:79|404:142,1,119.000002269745,8|0,0:0|0:0,0:0:0:0:
445,262,89521,5,0,2:0:0:0:
512,99,89688,1,8,3:0:0:0:
377,317,89854,102,0,P|407:339|435:347,1,66.4999982242585,8|0,0:3|0:0,0:0:0:0:
320,178,90021,2,0,P|305:214|305:242,1,66.4999982242585
382,330,90188,2,0,P|418:357|451:367,1,66.4999982242585
314,164,90355,2,0,P|296:207|296:240,1,66.4999982242585,8|0,0:3|0:0,0:0:0:0:
389,347,90521,2,0,P|432:379|472:391,1,66.4999982242585,8|0,0:3|0:0,0:0:0:0:
307,147,90688,2,0,P|285:198|285:239,1,66.4999982242585
211,384,90854,6,0,L|74:372,1,119.000002269745,8|0,0:0|0:0,0:0:0:0:
0,191,91188,1,8,0:0:0:0:
149,278,91354,1,2,0:0:0:0:
156,249,91438,1,2,0:0:0:0:
155,219,91521,1,2,0:0:0:0:
149,190,91604,1,2,0:0:0:0:
136,164,91687,1,8,0:3:0:0:
24,60,91854,2,0,L|162:51,1,119.000002269745,8|0,0:0|0:0,0:0:0:0:
343,22,92188,70,0,B|331:93|331:93|347:159,1,140,0|8,0:0|3:0,0:0:0:0:
211,384,92521,2,0,B|223:313|223:313|207:247,1,140,8|0,0:3|0:0,0:0:0:0:
221,134,92854,1,2,0:0:0:0:
415,122,93021,1,8,0:0:0:0:
206,246,93188,1,8,0:0:0:0:
429,313,93354,1,8,0:0:0:0:
473,58,93521,22,0,P|395:44|351:61,1,119.000002269745,8|0,0:0|0:0,0:0:0:0:
299,244,93854,1,8,0:0:0:0:
512,138,94021,1,2,0:0:0:0:
512,138,94104,1,2,0:0:0:0:
512,138,94188,1,2,0:0:0:0:
360,56,94354,1,8,0:0:0:0:
429,313,94521,2,0,P|393:265|383:207,1,119.000002269745,8|0,0:0|0:0,0:0:0:0:
260,89,94854,5,0,0:0:0:0:
299,244,95021,1,8,3:0:0:0:
94,206,95188,102,0,P|75:157|83:114,1,66.4999982242585,8|0,0:3|0:0,0:0:0:0:
144,92,95354,2,0,P|166:44|202:20,1,66.4999982242585
89,217,95521,2,0,P|66:158|75:106,1,66.4999982242585
149,80,95687,2,0,P|175:22|218:-6,1,66.4999982242585,8|0,0:3|0:0,0:0:0:0:
83,231,95854,2,0,P|55:160|61:121,1,66.4999982242585,8|0,0:3|0:0,0:0:0:0:
155,66,96020,2,0,P|186:-3|216:-25,1,66.4999982242585
321,117,96188,6,0,L|330:271,1,119.000002269745,8|0,0:0|0:0,0:0:0:0:
136,371,96521,1,8,0:0:0:0:
239,242,96688,1,2,0:0:0:0:
268,235,96771,1,2,0:0:0:0:
297,233,96854,1,2,0:0:0:0:
327,235,96937,1,2,0:0:0:0:
356,241,97021,1,8,0:3:0:0:
240,359,97188,2,0,P|232:286|243:226,1,119.000002269745,8|0,0:0|0:0,0:0:0:0:
286,40,97521,70,0,B|352:52|352:52|435:40,1,140,0|8,0:0|3:0,0:0:0:0:
177,118,97854,2,0,B|111:106|111:106|28:118,1,140,8|0,0:3|0:0,0:0:0:0:
303,166,98188,1,2,0:0:0:0:
97,230,98354,1,8,0:0:0:0:
165,18,98521,1,8,0:0:0:0:
409,117,98688,1,8,0:0:0:0:
400,186,98771,1,8,0:0:0:0:
392,256,98854,22,0,P|334:267|268:256,1,119.000002269745,8|0,0:0|0:0,0:0:0:0:
82,351,99188,1,8,0:0:0:0:
168,183,99354,1,2,0:0:0:0:
168,183,99438,1,2,0:0:0:0:
168,183,99521,1,2,0:0:0:0:
192,289,99688,1,8,0:0:0:0:
0,91,99854,2,0,P|83:80|137:88,1,119.000002269745,8|0,0:0|0:0,0:0:0:0:
253,18,100188,5,0,0:0:0:0:
168,183,100354,1,8,3:0:0:0:
377,223,100521,102,0,P|402:183|409:147,1,66.4999982242585,8|0,0:3|0:0,0:0:0:0:
343,102,100688,2,0,P|332:56|312:26,1,66.4999982242585
379,235,100854,2,0,P|408:186|417:144,1,66.4999982242585
339,91,101021,2,0,P|325:35|302:0,1,66.4999982242585,8|0,0:3|0:0,0:0:0:0:
383,249,101187,2,0,P|418:192|429:141,1,66.4999982242585,8|0,0:3|0:0,0:0:0:0:
335,77,101354,2,0,P|319:10|305:-15,1,66.4999982242585
502,245,101521,6,0,L|370:250,1,119.000002269745,8|0,0:0|0:0,0:0:0:0:
140,338,101854,1,8,0:0:0:0:
287,367,102021,1,2,0:0:0:0:
283,337,102104,1,2,0:0:0:0:
280,307,102187,1,2,0:0:0:0:
276,278,102270,1,2,0:0:0:0:
273,248,102354,1,8,0:3:0:0:
129,118,102521,2,0,L|8:127,1,119.000002269745,8|0,0:0|0:0,0:0:0:0:
268,14,102854,70,0,B|286:83|286:83|266:161,1,140,0|8,0:0|3:0,0:0:0:0:
27,308,103188,2,0,B|75:254|75:254|152:231,1,140,8|0,0:3|0:0,0:0:0:0:
191,166,103521,1,2,0:0:0:0:
342,307,103688,1,8,0:0:0:0:
379,79,103855,1,8,0:0:0:0:
261,231,104021,1,8,0:0:0:0:
451,358,104188,22,0,P|463:287|458:233,1,119.000002269745,8|0,0:0|0:0,0:0:0:0:
379,79,104521,1,8,0:0:0:0:
348,185,104688,1,2,0:0:0:0:
348,185,104771,1,2,0:0:0:0:
348,185,104854,1,2,0:0:0:0:
465,88,105021,1,8,0:0:0:0:
288,41,105188,2,0,P|215:57|159:61,1,119.000002269745,8|0,0:0|0:0,0:0:0:0:
99,132,105521,5,0,0:0:0:0:
43,30,105688,1,8,0:0:0:0:
193,136,105854,2,0,L|177:266,1,119.000002269745,8|0,0:0|0:0,0:0:0:0:
123,316,106188,1,0,0:0:0:0:
49,236,106354,1,8,0:0:0:0:
277,186,106521,2,0,P|320:227|339:305,1,119.000002269745,8|0,0:0|0:0,0:0:0:0:
249,378,106854,6,0,L|255:314,3,41.9999987182618,8|0|0|0,0:3|0:0|0:0|0:0,0:0:0:0:
338,282,107188,2,0,L|332:218,3,41.9999987182618,8|0|0|0,0:0|0:0|0:0|0:0,0:0:0:0:
418,218,107521,5,0,0:0:0:0:
420,197,107604,1,0,0:0:0:0:
422,176,107687,1,8,0:3:0:0:
424,155,107770,1,0,0:0:0:0:
427,134,107854,1,8,0:0:0:0:
425,113,107938,1,0,0:0:0:0:
423,92,108021,1,0,0:0:0:0:
421,71,108104,1,0,0:0:0:0:
418,50,108189,5,0,0:0:0:0:
414,91,108272,1,0,0:0:0:0:
387,122,108355,1,8,0:3:0:0:
348,134,108438,1,0,0:0:0:0:
308,121,108522,5,8,0:0:0:0:
259,82,108605,1,0,0:0:0:0:
198,72,108688,1,0,0:0:0:0:
139,92,108771,1,0,0:0:0:0:
98,139,108854,2,0,L|91:197,1,41.9999987182618
184,346,109021,2,0,L|191:288,1,41.9999987182618,8|0,0:3|0:0,0:0:0:0:
317,227,109188,6,0,P|398:207|496:225,1,167.999994873047,8|8,0:0|0:3,0:0:0:0:
399,41,119521,53,8,0:0:0:0:
462,168,119688,1,8,0:0:0:0:
392,29,119854,1,8,0:0:0:0:
369,197,120021,1,8,0:0:0:0:
388,20,120188,22,0,B|234:33,1,140,8|0,2:3|0:0,0:0:0:0:
248,31,120854,2,0,L|165:38,1,70,10|2,0:0|0:0,0:0:0:0:
85,89,121188,1,2,0:0:0:0:
248,135,121354,1,2,0:0:0:0:
141,201,121521,2,0,L|-16:210,2,140,2|10|10,0:0|0:0|0:0,0:0:0:0:
141,201,122521,1,2,0:0:0:0:
159,275,122688,1,2,0:0:0:0:
291,333,122854,5,8,2:3:0:0:
291,333,123188,1,2,0:0:0:0:
260,228,123354,1,2,0:0:0:0:
409,146,123521,1,10,0:0:0:0:
476,291,123688,2,0,P|418:281|355:286,1,105,2|0,0:0|0:0,0:0:0:0:
360,287,124021,1,10,0:0:0:0:
260,228,124188,102,0,P|233:187|227:148,1,70,10|8,0:0|0:0,0:0:0:0:
260,7,124521,2,0,P|280:42|291:75,1,70,10|0,0:0|0:0,0:0:0:0:
429,156,124854,2,0,P|383:153|302:165,1,105,10|0,0:0|0:0,0:0:0:0:
311,164,125188,1,2,0:0:0:0:
289,238,125354,1,2,0:0:0:0:
109,265,125521,6,0,L|95:154,1,105,10|0,0:0|0:0,0:0:0:0:
85,146,125854,1,2,0:0:0:0:
195,61,126021,2,0,L|183:134,1,70,2|8,0:0|0:0,0:0:0:0:
183,130,126521,1,2,0:0:0:0:
246,177,126688,1,2,0:0:0:0:
228,289,126854,102,0,L|117:275,1,105,2|0,0:0|0:0,0:0:0:0:
109,265,127187,1,10,0:0:0:0:
3,363,127354,2,0,L|76:351,1,70,2|8,0:0|0:0,0:0:0:0:
72,351,127854,2,0,L|143:360,1,70,2|2,0:0|0:0,0:0:0:0:
303,361,128188,6,0,P|330:306|330:246,2,97.9999970092774,10|2|2,0:0|0:0|0:0,0:0:0:0:
404,192,128854,101,10,0:0:0:0:
419,308,129077,1,2,0:0:0:0:
512,238,129299,1,2,0:0:0:0:
428,32,129521,5,2,0:0:0:0:
343,142,129744,1,2,0:0:0:0:
481,161,129966,1,2,0:0:0:0:
354,0,130188,102,0,L|167:23,1,181.999991668702,10|0,0:0|0:0,0:0:0:0:
173,22,130854,6,0,P|199:80|173:167,1,140,8|0,2:3|0:0,0:0:0:0:
183,152,131521,2,0,P|173:114|181:71,1,70,10|2,0:0|0:0,0:0:0:0:
73,202,131854,1,2,0:0:0:0:
197,264,132021,1,2,0:0:0:0:
73,348,132188,2,0,P|131:342|208:369,2,140,2|10|10,0:0|0:0|0:0,0:0:0:0:
73,348,133188,1,2,0:0:0:0:
81,272,133354,1,2,0:0:0:0:
257,212,133521,101,8,2:3:0:0:
257,212,133854,1,2,0:0:0:0:
277,299,134021,1,2,0:0:0:0:
426,354,134188,1,10,0:0:0:0:
475,216,134354,2,0,P|468:165|436:122,1,105,2|0,0:0|0:0,0:0:0:0:
423,115,134688,1,10,0:0:0:0:
316,52,134854,6,0,P|305:89|313:136,1,70,10|8,0:0|0:0,0:0:0:0:
226,13,135188,2,0,P|229:83|203:162,1,140,10|8,0:0|0:0,0:0:0:0:
209,149,135854,2,0,L|106:135,1,70,2|0,0:0|0:0,0:0:0:0:
19,311,136188,102,0,P|105:287|144:300,1,105,8|0,2:3|0:0,0:0:0:0:
132,296,136521,1,2,0:0:0:0:
134,219,136688,1,2,0:0:0:0:
270,384,136854,2,0,P|268:328|313:226,1,140,10|0,0:0|0:0,0:0:0:0:
414,210,137354,1,2,0:0:0:0:
319,138,137521,1,2,0:0:0:0:
295,249,137688,1,2,0:0:0:0:
423,216,137854,2,0,L|414:128,1,70,10|0,0:0|0:0,0:0:0:0:
336,0,138188,2,0,L|316:160,1,140,8|0,3:0|0:0,0:0:0:0:
318,138,138854,6,0,P|276:151|196:137,2,97.9999970092774,10|2|2,0:0|0:0|0:0,0:0:0:0:
179,68,139521,2,0,P|136:140|178:233,1,154.000004699707,10|0,0:0|0:0,0:0:0:0:
223,295,140021,1,10,0:0:0:0:
117,352,140188,2,0,P|64:356|9:324,2,107.333335380554,2|2|2,0:0|0:0|0:0,0:0:0:0:
223,295,140854,1,8,3:0:0:0:
260,362,141021,1,8,3:0:0:0:
309,231,141188,1,8,3:0:0:0:
371,384,141354,1,8,3:0:0:0:
428,184,141521,70,0,B|437:93|437:93|419:46,1,140,2|0,0:0|0:0,0:0:0:0:
289,31,142521,1,2,0:0:0:0:
289,31,142854,2,0,P|314:72|288:128,1,105,2|0,0:0|0:0,0:0:0:0:
232,156,143521,2,0,L|233:232,1,70,2|0,0:0|0:0,0:0:0:0:
99,348,144188,6,0,B|30:329|30:329|84:277,1,140,2|0,0:0|0:0,0:0:0:0:
168,268,145188,1,2,0:0:0:0:
168,268,145521,2,0,P|211:276|246:326,1,105,2|0,0:0|0:0,0:0:0:0:
99,348,146188,2,0,L|181:342,1,70,2|0,0:0|0:0,0:0:0:0:
377,375,146854,102,0,B|368:288|368:288|377:235,1,140,2|0,0:0|0:0,0:0:0:0:
412,146,147854,1,2,0:0:0:0:
412,146,148188,2,0,P|414:102|361:77,1,105,2|0,0:0|0:0,0:0:0:0:
321,11,148854,2,0,L|406:3,1,70,2|0,0:0|0:0,0:0:0:0:
290,174,149521,6,0,B|268:147|228:146|228:146|208:180|162:182,1,140,2|0,0:0|0:0,0:0:0:0:
99,160,150521,1,2,0:0:0:0:
99,160,150854,2,0,P|78:127|97:64,1,105,2|0,0:0|0:0,0:0:0:0:
7,39,151521,2,0,L|-1:113,1,70,2|0,0:0|0:0,0:0:0:0:
11,303,152188,6,0,P|82:279|150:295,1,140,8|0,0:0|0:0,0:0:0:0:
355,362,152854,2,0,P|316:301|406:219,1,210,8|0,0:0|0:0,0:0:0:0:
391,294,153521,1,0,0:0:0:0:
498,258,153854,1,8,0:0:0:0:
356,150,154188,2,0,L|375:3,1,140,8|0,0:0|0:0,0:0:0:0:
489,131,154854,6,0,P|441:153|345:145,1,140,8|0,0:0|0:0,0:0:0:0:
190,23,155521,2,0,B|143:79|154:153|154:153|111:160|88:196,1,210,8|0,0:0|0:0,0:0:0:0:
59,253,156188,1,0,0:0:0:0:
163,230,156521,1,8,0:0:0:0:
192,375,156854,2,0,L|38:354,1,140,8|0,0:0|0:0,0:0:0:0:
309,283,157521,6,0,P|320:318|326:358,1,77.0000023498536,8|0,0:0|0:0,0:0:0:0:
455,216,157854,2,0,P|437:250|425:286,1,77.0000023498536,8|0,0:0|0:0,0:0:0:0:
285,134,158188,2,0,P|307:163|326:198,1,77.0000023498536,8|0,0:0|0:0,0:0:0:0:
456,78,158521,2,0,P|427:104|403:134,1,77.0000023498536,8|0,0:0|0:0,0:0:0:0:
188,295,158854,102,0,P|201:238|199:195,1,77.0000023498536,8|0,0:0|0:0,0:0:0:0:
166,33,159188,2,0,P|163:91|172:133,1,77.0000023498536,8|0,0:0|0:0,0:0:0:0:
121,243,159521,2,0,P|109:203|72:165,1,77.0000023498536,8|0,0:0|0:0,0:0:0:0:
241,72,159855,2,0,P|259:109|302:140,1,77.0000023498536,8|0,0:0|0:0,0:0:0:0:
383,78,160188,70,0,L|391:34,3,41.9999987182618
484,132,160521,2,0,L|476:88,3,41.9999987182618
402,167,160854,5,0,0:0:0:0:
393,186,160937,1,0,0:0:0:0:
387,206,161020,1,0,0:0:0:0:
384,226,161104,1,0,0:0:0:0:
384,247,161187,1,0,0:0:0:0:
387,268,161270,1,0,0:0:0:0:
393,288,161354,1,0,0:0:0:0:
402,307,161437,1,0,0:0:0:0:
413,325,161520,5,0,0:0:0:0:
408,283,161604,1,0,0:0:0:0:
380,253,161687,1,0,0:0:0:0:
340,245,161771,1,0,0:0:0:0:
302,262,161854,5,0,0:0:0:0:
258,306,161938,1,0,0:0:0:0:
199,327,162021,1,0,0:0:0:0:
137,319,162105,1,0,0:0:0:0:
85,285,162188,2,0,L|80:215,1,41.9999987182618
177,115,162354,70,0,P|156:79|67:52,1,131.25000500679
67,31,162854,54,0,P|17:95|70:118,1,157.500006008148,8|0,0:0|0:0,0:0:0:0:
295,10,163188,1,0,0:0:0:0:
295,10,163521,2,0,B|320:72|320:72|299:186,1,178.500003404617,8|0,0:0|0:0,0:0:0:0:
292,191,163854,1,0,0:0:0:0:
175,37,164021,6,0,P|175:96|183:116,1,70,8|0,0:0|0:0,0:0:0:0:
292,191,164354,1,0,0:0:0:0:
409,37,164521,2,0,P|408:96|401:116,1,70,8|0,0:0|0:0,0:0:0:0:
176,288,164854,38,0,P|249:273|293:280,1,105,8|0,0:0|0:0,0:0:0:0:
506,322,165521,70,0,P|429:336|384:220,1,210.000008010865,8|0,0:0|0:0,0:0:0:0:
475,152,166021,1,0,0:0:0:0:
314,4,166188,2,0,B|265:60|265:60|245:184,1,178.500003404617,8|0,0:0|0:0,0:0:0:0:
241,176,166521,1,0,0:0:0:0:
370,148,166688,102,0,P|377:104|374:72,1,70,8|0,0:0|0:0,0:0:0:0:
181,44,167021,2,0,L|175:101,1,35,8|0,0:0|0:0,0:0:0:0:
116,199,167188,2,0,P|109:155|112:123,1,70,8|0,0:0|0:0,0:0:0:0:
45,268,167521,2,0,P|14:263|-16:263,1,35,8|0,0:0|0:0,0:0:0:0:
117,331,167688,2,0,P|170:310|209:318,1,70,8|0,0:0|0:0,0:0:0:0:
292,336,168021,2,0,L|320:391,1,35,8|0,0:0|0:0,0:0:0:0:
246,136,168188,6,0,P|210:197|286:188,1,157.500006008148,8|0,0:0|0:0,0:0:0:0:
441,4,168521,1,0,0:0:0:0:
441,4,168854,2,0,B|481:81|481:81|483:173,1,178.500003404617,8|0,0:0|0:0,0:0:0:0:
475,187,169188,1,0,0:0:0:0:
317,291,169354,102,0,P|351:301|386:298,1,70,8|0,0:0|0:0,0:0:0:0:
475,187,169688,1,0,0:0:0:0:
317,83,169854,2,0,P|351:73|386:76,1,70,8|0,0:0|0:0,0:0:0:0:
180,1,170188,54,0,P|189:60|183:109,1,105,8|0,0:0|0:0,0:0:0:0:
144,327,170854,54,0,P|73:333|34:204,1,210.000008010865,8|0,0:0|0:0,0:0:0:0:
106,167,171354,1,0,0:0:0:0:
294,371,171521,2,0,B|309:243|309:243|287:178,1,178.500003404617,8|0,0:0|0:0,0:0:0:0:
279,188,171854,1,0,0:0:0:0:
398,242,172021,6,0,P|438:242|479:229,1,70,8|0,0:0|0:0,0:0:0:0:
270,195,172354,1,0,0:0:0:0:
297,72,172521,2,0,P|297:33|284:1,1,70,8|0,0:0|0:0,0:0:0:0:
108,118,172854,2,0,P|97:151|98:181,1,35,8|0,0:0|0:0,0:0:0:0:
200,194,173021,2,0,P|242:196|289:191,1,70,8|0,0:0|0:0,0:0:0:0:
164,54,173354,2,0,P|153:21|154:-9,1,35,8|0,0:0|0:0,0:0:0:0:
27,177,173521,102,0,P|15:246|89:219,1,157.500006008148,8|0,0:0|0:0,0:0:0:0:
290,14,173854,1,0,0:0:0:0:
290,14,174188,2,0,B|255:59|255:59|261:192,1,178.500003404617,8|0,0:0|0:0,0:0:0:0:
269,194,174521,1,0,0:0:0:0:
371,349,174688,6,0,P|380:295|376:263,1,70,8|0,0:0|0:0,0:0:0:0:
269,194,175021,1,0,0:0:0:0:
167,349,175188,2,0,P|158:315|158:280,1,70,8|0,0:0|0:0,0:0:0:0:
331,84,175521,38,0,P|399:66|447:70,1,105,8|0,0:0|0:0,0:0:0:0:
376,271,176188,70,0,P|341:222|444:148,1,210.000008010865,8|0,0:0|0:0,0:0:0:0:
491,236,176688,1,0,0:0:0:0:
354,352,176854,2,0,B|245:372|245:372|149:350,1,178.500003404617,8|0,0:0|0:0,0:0:0:0:
161,349,177188,1,0,0:0:0:0:
43,289,177354,102,0,L|31:204,1,70,8|0,0:0|0:0,0:0:0:0:
70,71,177688,2,0,L|25:66,1,35,8|0,0:0|0:0,0:0:0:0:
154,26,177854,2,0,L|163:106,1,70,8|0,0:0|0:0,0:0:0:0:
206,264,178188,2,0,L|212:223,1,35,8|0,0:0|0:0,0:0:0:0:
272,147,178354,2,0,L|363:143,1,70,8|0,0:0|0:0,0:0:0:0:
477,184,178688,2,0,L|472:122,1,35,8|0,0:0|0:0,0:0:0:0:
479,290,178854,6,0,P|463:329|413:264,1,157.500006008148,8|0,0:0|0:0,0:0:0:0:
470,69,179188,1,0,0:0:0:0:
470,69,179521,2,0,B|410:40|410:40|283:55,1,178.500003404617,8|0,0:0|0:0,0:0:0:0:
287,62,179854,1,0,0:0:0:0:
217,241,180021,102,0,P|271:202|285:183,1,70,8|0,0:0|0:0,0:0:0:0:
287,62,180354,1,0,0:0:0:0:
107,131,180521,2,0,P|145:76|164:62,1,70,8|0,0:0|0:0,0:0:0:0:
19,184,180854,54,0,P|67:244|84:283,1,105,8|0,0:0|0:0,0:0:0:0:
355,329,181521,6,0,B|266:320|267:338|267:355|173:341|173:341|200:298|189:245,1,280,4|0,0:0|0:0,0:0:0:0:
447,59,182521,1,0,0:0:0:0:
448,76,182604,1,0,0:0:0:0:
450,93,182687,1,0,0:0:0:0:
451,111,182771,1,0,0:0:0:0:
453,128,182854,102,0,P|459:180|474:221,1,70
323,78,183188,2,0,P|331:44|333:9,1,70
239,234,183521,53,8,0:0:0:0:
192,18,183688,1,8,0:0:0:0:
184,12,184021,1,8,0:0:0:0:
231,228,184188,22,0,P|165:235|94:222,1,119.000002269745,8|0,0:0|0:0,0:0:0:0:
20,22,184521,1,8,0:0:0:0:
140,85,184688,1,2,0:0:0:0:
140,85,184771,1,2,0:0:0:0:
140,85,184854,1,2,0:0:0:0:
6,180,185021,1,8,0:0:0:0:
222,113,185188,2,0,P|280:113|344:97,1,119.000002269745,8|0,0:0|0:0,0:0:0:0:
445,167,185521,5,0,0:0:0:0:
368,12,185688,1,8,0:3:0:0:
290,195,185854,102,0,P|300:234|329:269,1,66.4999982242585,8|0,0:3|0:0,0:0:0:0:
409,261,186021,2,0,P|388:295|384:340,1,66.4999982242585
278,188,186188,2,0,P|290:235|324:277,1,66.4999982242585
420,267,186355,2,0,P|396:309|391:363,1,66.4999982242585,8|0,0:3|0:0,0:0:0:0:
263,180,186521,2,0,P|278:236|319:287,1,66.4999982242585,8|0,0:3|0:0,0:0:0:0:
435,275,186688,2,0,P|405:325|399:390,1,66.4999982242585
267,365,186854,6,0,P|223:333|138:338,1,119.000002269745,8|0,0:0|0:0,0:0:0:0:
38,152,187188,1,8,0:0:0:0:
174,211,187354,1,2,0:0:0:0:
170,240,187437,1,2,0:0:0:0:
166,270,187520,1,2,0:0:0:0:
162,299,187604,1,2,0:0:0:0:
159,329,187687,1,8,0:3:0:0:
119,122,187854,2,0,P|152:108|244:126,1,119.000002269745,8|0,0:0|0:0,0:0:0:0:
459,172,188188,70,0,B|479:97|479:97|463:34,1,140,0|8,0:0|3:0,0:0:0:0:
271,229,188521,2,0,B|251:304|251:304|267:367,1,140,8|0,0:3|0:0,0:0:0:0:
357,288,188854,1,2,0:0:0:0:
385,140,189021,1,8,0:0:0:0:
177,236,189188,1,8,0:0:0:0:
149,88,189355,1,8,0:0:0:0:
385,140,189521,22,0,P|398:80|380:22,1,119.000002269745,8|0,0:0|0:0,0:0:0:0:
149,88,189854,1,8,0:0:0:0:
295,94,190021,1,2,0:0:0:0:
295,94,190104,1,2,0:0:0:0:
295,94,190188,1,2,0:0:0:0:
205,0,190354,1,8,0:0:0:0:
328,215,190521,2,0,P|416:224|457:207,1,119.000002269745,8|0,0:0|0:0,0:0:0:0:
325,323,190854,5,0,0:0:0:0:
385,140,191021,1,8,0:3:0:0:
207,179,191188,102,0,P|184:137|178:101,1,66.4999982242585,8|0,0:3|0:0,0:0:0:0:
93,122,191354,2,0,P|106:76|127:46,1,66.4999982242585
218,184,191521,2,0,P|190:133|183:90,1,66.4999982242585
81,116,191687,2,0,P|97:60|122:25,1,66.4999982242585,8|0,0:3|0:0,0:0:0:0:
232,191,191854,2,0,P|198:130|190:78,1,66.4999982242585,8|0,0:3|0:0,0:0:0:0:
67,109,192020,2,0,P|86:42|116:0,1,66.4999982242585
13,267,192188,6,0,L|32:404,1,119.000002269745,8|0,0:0|0:0,0:0:0:0:
282,299,192521,1,8,0:0:0:0:
196,364,192688,1,2,0:0:0:0:
179,339,192771,1,2,0:0:0:0:
170,311,192854,1,2,0:0:0:0:
170,281,192938,1,2,0:0:0:0:
179,253,193021,1,8,0:3:0:0:
338,162,193188,2,0,P|423:155|472:153,1,119.000002269745,8|0,0:0|0:0,0:0:0:0:
235,28,193521,70,0,B|220:100|220:100|243:163,1,140,0|8,0:0|3:0,0:0:0:0:
451,368,193854,2,0,B|466:296|466:296|443:233,1,140,8|0,0:3|0:0,0:0:0:0:
338,162,194188,1,2,0:0:0:0:
159,343,194354,1,8,0:0:0:0:
377,309,194521,1,8,0:0:0:0:
179,216,194688,1,8,0:0:0:0:
109,212,194771,1,8,0:0:0:0:
39,208,194854,22,0,P|20:142|38:76,1,119.000002269745,8|0,0:0|0:0,0:0:0:0:
280,27,195188,1,8,0:0:0:0:
125,127,195354,1,2,0:0:0:0:
125,127,195438,1,2,0:0:0:0:
125,127,195521,1,2,0:0:0:0:
292,24,195688,1,8,0:0:0:0:
296,214,195854,2,0,P|221:221|166:212,1,119.000002269745,8|0,0:0|0:0,0:0:0:0:
113,302,196188,5,0,0:0:0:0:
234,118,196354,1,8,0:3:0:0:
397,176,196521,102,0,P|437:177|476:166,1,66.4999982242585,8|0,0:3|0:0,0:0:0:0:
296,214,196688,2,0,P|323:242|358:262,1,66.4999982242585
407,172,196854,2,0,P|455:173|501:160,1,66.4999982242585
285,217,197021,2,0,P|318:252|361:276,1,66.4999982242585,8|0,0:3|0:0,0:0:0:0:
417,168,197188,2,0,P|474:169|529:153,1,66.4999982242585,8|0,0:3|0:0,0:0:0:0:
275,221,197355,2,0,P|314:262|364:290,1,66.4999982242585
446,380,197521,6,0,L|437:230,1,119.000002269745,8|0,0:0|0:0,0:0:0:0:
445,36,197854,1,8,0:0:0:0:
340,114,198021,1,2,0:0:0:0:
311,122,198104,1,2,0:0:0:0:
281,125,198187,1,2,0:0:0:0:
252,122,198271,1,2,0:0:0:0:
223,115,198354,1,8,0:3:0:0:
59,42,198521,2,0,L|195:34,1,119.000002269745,8|0,0:0|0:0,0:0:0:0:
178,283,198854,70,0,B|106:307|106:307|34:283,1,140,0|8,0:0|3:0,0:0:0:0:
348,234,199188,2,0,B|420:210|420:210|492:234,1,140,8|0,0:3|0:0,0:0:0:0:
418,298,199521,1,2,0:0:0:0:
275,189,199688,1,8,0:0:0:0:
481,19,199854,1,8,0:0:0:0:
477,143,200021,1,8,0:0:0:0:
336,102,200188,22,0,P|260:96|185:113,1,119.000002269745,8|0,0:0|0:0,0:0:0:0:
42,236,200521,1,8,0:0:0:0:
162,211,200688,1,2,0:0:0:0:
162,211,200771,1,2,0:0:0:0:
162,211,200854,1,2,0:0:0:0:
36,127,201021,1,8,0:0:0:0:
65,355,201188,2,0,P|141:362|195:347,1,119.000002269745,8|0,0:0|0:0,0:0:0:0:
285,248,201521,5,0,0:0:0:0:
162,211,201688,1,8,0:0:0:0:
352,361,201854,2,0,P|375:315|374:238,1,119.000002269745,8|0,0:0|0:0,0:0:0:0:
359,94,202188,1,0,0:0:0:0:
487,115,202354,1,8,0:0:0:0:
328,20,202521,2,0,L|192:34,1,119.000002269745,8|0,0:0|0:0,0:0:0:0:
56,168,202854,5,8,0:0:0:0:
54,188,202937,1,0,0:0:0:0:
52,209,203020,1,0,0:0:0:0:
51,230,203104,1,0,0:0:0:0:
49,251,203188,2,0,B|55:301,1,41.9999987182618
178,366,203354,5,8,0:0:0:0:
181,324,203437,1,0,0:0:0:0:
184,282,203520,1,0,0:0:0:0:
188,240,203604,1,0,0:0:0:0:
191,198,203688,2,0,L|185:135,1,41.9999987182618
316,326,203854,2,0,L|312:394,3,41.9999987182618,8|0|0|0,0:0|0:0|0:0|0:0,0:0:0:0:
412,320,204188,5,0,0:0:0:0:
397,281,204271,1,0,0:0:0:0:
404,240,204354,1,8,0:3:0:0:
432,209,204438,1,0,0:0:0:0:
472,198,204522,5,0,0:0:0:0:
413,220,204605,1,0,0:0:0:0:
353,207,204688,1,8,0:3:0:0:
308,164,204772,1,0,0:0:0:0:
294,103,204854,2,0,L|299:37,1,41.9999987182618,8|0,0:0|0:0,0:0:0:0:
168,159,205021,2,0,L|163:218,1,41.9999987182618,8|0,0:3|0:0,0:0:0:0:
76,33,205188,2,0,L|218:48,1,125.999996154785,8|0,3:0|0:0,0:0:0:0:
218,53,205521,70,0,B|276:63|319:37|319:37|380:52|380:52|437:29|493:55,1,280,2|2,0:0|0:0,0:0:0:0:
467,229,207521,2,0,P|412:243|404:327,1,140,2|0,0:0|0:0,0:0:0:0:
397,317,208521,2,0,B|336:323|297:290|297:290|282:322|247:349|247:349|220:313|215:272|215:272|224:229|261:208,1,350,2|0,0:0|0:0,0:0:0:0:
69,197,210854,6,0,B|27:207|-2:193|-2:193|3:136|49:106|49:106|105:103|145:143,1,280,2|2,0:0|0:0,0:0:0:0:
358,128,212854,2,0,P|396:105|372:25,1,140,2|0,0:0|0:0,0:0:0:0:
373,25,213854,2,0,B|328:23|297:52|297:52|279:98|227:113|227:113|188:171|241:208|241:208|278:201|308:215,1,350,2|0,0:0|0:0,0:0:0:0:
494,361,216188,102,0,B|430:333|375:356|375:356|339:335|339:335|283:367|223:334,1,280,2|2,0:0|0:0,0:0:0:0:
80,360,218188,2,0,P|105:318|69:242,1,140,2|0,0:0|0:0,0:0:0:0:
68,241,219188,2,0,B|144:216|135:125|135:125|179:206|259:175|259:175|297:136,1,350,2|0,0:0|0:0,0:0:0:0:
455,27,221521,6,0,B|462:63|434:90|434:90|420:124|440:159|440:159|434:194|434:194|464:240|446:304,1,280,2|2,0:0|0:0,0:0:0:0:
357,367,223521,2,0,P|353:317|268:306,1,140,2|0,0:0|0:0,0:0:0:0:
275,299,224521,2,0,P|216:321|69:288,1,210,2|2,0:0|0:0,0:0:0:0:
