osu file format v14

[General]
AudioFilename: audio.mp3
AudioLeadIn: 0
PreviewTime: 65521
Countdown: 0
SampleSet: Soft
StackLeniency: 0.5
Mode: 0
LetterboxInBreaks: 0
WidescreenStoryboard: 1

[Editor]
Bookmarks: 2855,109521,120188,226854
DistanceSpacing: 0.7
BeatDivisor: 8
GridSize: 32
TimelineZoom: 1.900001

[Metadata]
Title:Nothing More
TitleUnicode:Nothing More
Artist:Mazare & Luma
ArtistUnicode:Mazare & Luma
Creator:Flowziee
Version:JayBone's Insane
Source:
Tags:dnb drum and n & bass dance english electronic monstercat instinct vol. 3 'n' HOS HootOwlStar JayBone
BeatmapID:2327093
BeatmapSetID:1097424

[Difficulty]
HPDrainRate:5
CircleSize:4.5
OverallDifficulty:7.5
ApproachRate:9
SliderMultiplier:1.5
SliderTickRate:1

[Events]
//Background and Video events
0,0,"bg.jpg",0,0
//Break Periods
2,109721,118876
//Storyboard Layer 0 (Background)
//Storyboard Layer 1 (Fail)
//Storyboard Layer 2 (Pass)
//Storyboard Layer 3 (Foreground)
//Storyboard Layer 4 (Overlay)
//Storyboard Sound Samples

[TimingPoints]
2855,333.333333333333,4,2,0,30,1,0
2855,-200,4,2,6,30,0,0
7563,-200,4,2,6,10,0,0
8188,-200,4,2,6,30,0,0
13229,-200,4,2,6,10,0,0
13521,-200,4,2,6,30,0,0
18229,-200,4,2,6,10,0,0
18854,-200,4,2,6,30,0,0
23521,-200,4,3,0,60,0,0
24188,-125,4,3,1,40,0,0
24854,-125,4,3,2,40,0,0
25854,-125,4,3,1,40,0,0
26188,-125,4,3,2,40,0,0
26854,-125,4,3,1,40,0,0
27521,-125,4,3,2,40,0,0
28021,-125,4,3,1,40,0,0
28354,-125,4,3,2,40,0,0
28521,-125,4,3,1,40,0,0
28854,-125,4,3,2,40,0,0
29521,-125,4,3,1,40,0,0
30188,-125,4,3,2,40,0,0
31188,-125,4,3,1,40,0,0
31521,-125,4,3,2,40,0,0
32188,-125,4,3,1,40,0,0
32854,-125,4,3,2,40,0,0
33521,-125,4,3,1,40,0,0
34188,-125,4,3,2,40,0,0
34854,-125,4,3,1,40,0,0
35521,-125,4,3,2,40,0,0
36521,-125,4,3,1,40,0,0
36854,-125,4,3,2,40,0,0
37521,-125,4,3,1,40,0,0
38188,-125,4,3,2,40,0,0
38688,-125,4,3,1,40,0,0
39021,-125,4,3,2,40,0,0
39188,-125,4,3,1,40,0,0
39521,-125,4,3,2,40,0,0
40188,-125,4,3,1,40,0,0
40854,-125,4,3,2,40,0,0
41854,-125,4,3,1,40,0,0
42188,-125,4,3,2,40,0,0
42854,-125,4,3,1,40,0,0
43521,-125,4,3,2,40,0,0
44021,-125,4,3,1,40,0,0
44854,-125,4,3,0,50,0,0
45521,-200,4,3,1,60,0,0
56188,-125,4,3,1,60,0,0
56521,-125,4,3,2,60,0,0
57021,-125,4,3,1,60,0,0
57188,-125,4,3,2,60,0,0
57521,-125,4,3,1,65,0,0
57854,-125,4,3,2,65,0,0
58354,-125,4,3,1,65,0,0
58521,-125,4,3,2,65,0,0
58854,-125,4,3,1,70,0,0
59188,-125,4,3,2,70,0,0
59688,-125,4,3,1,70,0,0
59854,-125,4,3,2,70,0,0
60188,-125,4,3,1,75,0,0
60521,-125,4,3,2,75,0,0
61021,-125,4,3,1,75,0,0
61188,-125,4,3,2,75,0,0
61521,-111.111111111111,4,3,1,80,0,0
62188,-111.111111111111,4,3,1,80,0,0
62521,-111.111111111111,4,3,1,80,0,0
63521,-111.111111111111,4,3,1,80,0,0
63854,-111.111111111111,4,3,1,80,0,0
64188,-111.111111111111,4,2,5,70,0,0
64854,-111.111111111111,4,2,3,75,0,0
65021,-111.111111111111,4,2,5,75,0,0
65521,-100,4,2,3,80,0,0
65688,-100,4,2,5,80,0,0
65854,-100,4,2,5,85,0,0
66188,-100,4,2,3,90,0,0
66354,-100,4,2,5,90,0,0
66771,-100,4,2,5,10,0,0
66854,-83.3333333333333,4,3,1,80,0,0
67188,-83.3333333333333,4,3,2,80,0,0
67688,-83.3333333333333,4,3,1,80,0,0
67854,-83.3333333333333,4,3,2,80,0,0
68354,-83.3333333333333,4,3,1,80,0,0
68438,-83.3333333333333,4,3,1,10,0,0
68521,-83.3333333333333,4,3,2,80,0,0
69021,-83.3333333333333,4,3,1,80,0,0
69188,-83.3333333333333,4,3,2,80,0,0
69521,-83.3333333333333,4,3,1,80,0,0
69854,-83.3333333333333,4,3,2,80,0,0
70354,-83.3333333333333,4,3,1,80,0,0
70438,-83.3333333333333,4,3,1,10,0,0
70521,-83.3333333333333,4,3,2,80,0,0
71021,-83.3333333333333,4,3,1,80,0,0
71104,-83.3333333333333,4,3,1,10,0,0
71188,-83.3333333333333,4,3,2,80,0,0
71688,-83.3333333333333,4,3,1,80,0,0
71771,-83.3333333333333,4,3,1,10,0,0
71854,-83.3333333333333,4,3,2,80,0,0
71938,-83.3333333333333,4,3,1,10,0,0
72021,-83.3333333333333,4,3,1,80,0,0
72104,-83.3333333333333,4,3,1,20,0,0
72188,-83.3333333333333,4,3,1,80,0,0
72521,-83.3333333333333,4,3,2,80,0,0
73021,-83.3333333333333,4,3,1,80,0,0
73188,-83.3333333333333,4,3,2,80,0,0
73688,-83.3333333333333,4,3,1,80,0,0
73771,-83.3333333333333,4,3,1,10,0,0
73854,-83.3333333333333,4,3,2,80,0,0
74354,-83.3333333333333,4,3,1,80,0,0
74521,-83.3333333333333,4,3,2,80,0,0
74854,-83.3333333333333,4,3,1,80,0,0
75188,-83.3333333333333,4,3,2,80,0,0
75688,-83.3333333333333,4,3,1,80,0,0
75771,-83.3333333333333,4,3,1,10,0,0
75854,-83.3333333333333,4,3,2,80,0,0
76354,-83.3333333333333,4,3,1,80,0,0
76438,-83.3333333333333,4,3,1,10,0,0
76521,-83.3333333333333,4,3,2,80,0,0
77021,-83.3333333333333,4,3,1,80,0,0
77104,-83.3333333333333,4,3,1,10,0,0
77188,-83.3333333333333,4,3,2,80,0,0
77271,-83.3333333333333,4,3,1,10,0,0
77354,-83.3333333333333,4,3,1,80,0,0
77854,-83.3333333333333,4,3,2,80,0,0
78354,-83.3333333333333,4,3,1,80,0,0
78521,-83.3333333333333,4,3,2,80,0,0
79021,-83.3333333333333,4,3,1,80,0,0
79104,-83.3333333333333,4,3,1,10,0,0
79188,-83.3333333333333,4,3,2,80,0,0
79688,-83.3333333333333,4,3,1,80,0,0
79854,-83.3333333333333,4,3,2,80,0,0
80188,-83.3333333333333,4,3,1,80,0,0
80521,-83.3333333333333,4,3,2,80,0,0
81021,-83.3333333333333,4,3,1,80,0,0
81104,-83.3333333333333,4,3,1,10,0,0
81188,-83.3333333333333,4,3,2,80,0,0
81688,-83.3333333333333,4,3,1,80,0,0
81771,-83.3333333333333,4,3,1,10,0,0
81854,-83.3333333333333,4,3,2,80,0,0
82354,-83.3333333333333,4,3,1,80,0,0
82438,-83.3333333333333,4,3,1,10,0,0
82521,-83.3333333333333,4,3,2,80,0,0
82604,-83.3333333333333,4,3,1,10,0,0
82688,-83.3333333333333,4,3,1,80,0,0
82771,-83.3333333333333,4,3,1,10,0,0
82854,-83.3333333333333,4,3,1,80,0,0
83188,-83.3333333333333,4,3,2,80,0,0
83688,-83.3333333333333,4,3,1,80,0,0
83854,-83.3333333333333,4,3,2,80,0,0
84354,-83.3333333333333,4,3,1,80,0,0
84438,-83.3333333333333,4,3,1,10,0,0
84521,-83.3333333333333,4,3,2,80,0,0
85021,-83.3333333333333,4,3,1,80,0,0
85188,-83.3333333333333,4,3,2,80,0,0
85521,-83.3333333333333,4,3,1,80,0,0
85854,-83.3333333333333,4,3,2,80,0,0
86354,-83.3333333333333,4,3,1,80,0,0
86438,-83.3333333333333,4,3,1,10,0,0
86521,-83.3333333333333,4,3,2,80,0,0
87021,-83.3333333333333,4,3,1,80,0,0
87104,-83.3333333333333,4,3,1,10,0,0
87188,-83.3333333333333,4,3,2,80,0,0
87521,-83.3333333333333,4,3,1,80,0,0
87604,-83.3333333333333,4,3,1,10,0,0
87688,-83.3333333333333,4,3,2,80,0,0
88021,-83.3333333333333,4,3,1,80,0,0
88104,-83.3333333333333,4,3,1,10,0,0
88188,-83.3333333333333,4,3,1,90,0,1
88521,-83.3333333333333,4,3,2,90,0,1
88688,-83.3333333333333,4,2,1,90,0,1
89021,-83.3333333333333,4,3,1,90,0,1
89188,-83.3333333333333,4,3,2,90,0,1
89521,-83.3333333333333,4,2,1,90,0,1
89854,-83.3333333333333,4,2,2,90,0,1
89938,-83.3333333333333,4,2,1,10,0,1
90021,-83.3333333333333,4,2,2,90,0,1
90104,-83.3333333333333,4,2,1,10,0,1
90188,-83.3333333333333,4,2,2,90,0,1
90271,-83.3333333333333,4,2,1,10,0,1
90354,-83.3333333333333,4,2,4,90,0,1
90438,-83.3333333333333,4,2,1,10,0,1
90521,-83.3333333333333,4,2,2,90,0,1
90604,-83.3333333333333,4,2,1,10,0,1
90688,-83.3333333333333,4,2,2,90,0,1
90771,-83.3333333333333,4,2,1,10,0,1
90854,-83.3333333333333,4,3,1,90,0,1
91188,-83.3333333333333,4,3,2,90,0,1
91354,-83.3333333333333,4,2,1,90,0,1
91854,-83.3333333333333,4,3,2,90,0,1
92188,-83.3333333333333,4,2,6,90,0,1
92521,-83.3333333333333,4,2,7,90,0,1
92688,-83.3333333333333,4,2,1,90,0,1
93021,-83.3333333333333,4,3,1,90,0,1
93188,-83.3333333333333,4,3,2,90,0,1
93354,-83.3333333333333,4,3,1,90,0,1
93854,-83.3333333333333,4,3,2,90,0,1
94021,-83.3333333333333,4,2,1,90,0,1
94354,-83.3333333333333,4,3,1,90,0,1
94521,-83.3333333333333,4,3,2,90,0,1
94854,-83.3333333333333,4,2,1,90,0,1
95188,-83.3333333333333,4,2,2,90,0,1
95271,-83.3333333333333,4,2,1,10,0,1
95354,-83.3333333333333,4,2,2,90,0,1
95438,-83.3333333333333,4,2,1,10,0,1
95521,-83.3333333333333,4,2,2,90,0,1
95604,-83.3333333333333,4,2,1,10,0,1
95688,-83.3333333333333,4,2,4,90,0,1
95771,-83.3333333333333,4,2,1,10,0,1
95854,-83.3333333333333,4,2,2,90,0,1
95938,-83.3333333333333,4,2,1,10,0,1
96021,-83.3333333333333,4,2,2,90,0,1
96104,-83.3333333333333,4,2,1,10,0,1
96188,-83.3333333333333,4,3,1,90,0,1
96521,-83.3333333333333,4,3,2,90,0,1
96688,-83.3333333333333,4,2,1,90,0,1
97188,-83.3333333333333,4,3,2,90,0,1
97521,-83.3333333333333,4,2,6,90,0,1
97854,-83.3333333333333,4,2,7,90,0,1
98021,-83.3333333333333,4,2,1,90,0,1
98354,-83.3333333333333,4,3,1,90,0,1
98521,-83.3333333333333,4,3,2,90,0,1
98688,-83.3333333333333,4,3,1,90,0,1
99188,-83.3333333333333,4,3,2,90,0,1
99354,-83.3333333333333,4,2,1,90,0,1
99688,-83.3333333333333,4,3,1,90,0,1
99854,-83.3333333333333,4,3,2,90,0,1
100188,-83.3333333333333,4,2,1,90,0,1
100521,-83.3333333333333,4,2,2,90,0,1
100604,-83.3333333333333,4,2,1,10,0,1
100688,-83.3333333333333,4,2,2,90,0,1
100771,-83.3333333333333,4,2,1,10,0,1
100854,-83.3333333333333,4,2,2,90,0,1
100938,-83.3333333333333,4,2,1,10,0,1
101021,-83.3333333333333,4,2,4,90,0,1
101104,-83.3333333333333,4,2,1,10,0,1
101188,-83.3333333333333,4,2,2,90,0,1
101271,-83.3333333333333,4,2,1,10,0,1
101354,-83.3333333333333,4,2,2,90,0,1
101438,-83.3333333333333,4,2,1,10,0,1
101521,-83.3333333333333,4,3,1,90,0,1
101854,-83.3333333333333,4,3,2,90,0,1
102021,-83.3333333333333,4,2,1,90,0,1
102521,-83.3333333333333,4,3,2,90,0,1
102854,-83.3333333333333,4,2,6,90,0,1
103188,-83.3333333333333,4,2,7,90,0,1
103354,-83.3333333333333,4,2,1,90,0,1
103688,-83.3333333333333,4,3,1,90,0,1
103854,-83.3333333333333,4,3,2,90,0,1
104021,-83.3333333333333,4,3,1,90,0,1
104521,-83.3333333333333,4,3,2,90,0,1
104688,-83.3333333333333,4,2,1,90,0,1
105021,-83.3333333333333,4,3,1,90,0,1
105188,-83.3333333333333,4,3,2,90,0,1
105688,-83.3333333333333,4,3,1,90,0,1
105854,-83.3333333333333,4,3,2,90,0,1
106354,-83.3333333333333,4,3,1,90,0,1
106521,-83.3333333333333,4,3,2,90,0,1
106854,-83.3333333333333,4,2,5,70,0,1
107521,-83.3333333333333,4,2,3,75,0,1
107688,-83.3333333333333,4,2,5,75,0,1
108188,-83.3333333333333,4,2,3,80,0,1
108354,-83.3333333333333,4,2,5,80,0,1
108521,-83.3333333333333,4,2,5,85,0,1
108854,-83.3333333333333,4,2,3,90,0,1
109021,-83.3333333333333,4,2,5,90,0,1
109521,-125,4,2,5,60,0,0
119521,-125,4,3,0,60,0,0
120188,-125,4,3,1,40,0,0
120854,-125,4,3,2,40,0,0
121854,-125,4,3,1,40,0,0
122188,-125,4,3,2,40,0,0
122854,-125,4,3,1,40,0,0
123521,-125,4,3,2,40,0,0
124021,-125,4,3,1,40,0,0
124354,-125,4,3,2,40,0,0
124521,-125,4,3,1,40,0,0
124854,-125,4,3,2,40,0,0
125521,-125,4,3,1,40,0,0
126188,-125,4,3,2,40,0,0
127188,-125,4,3,1,40,0,0
127521,-125,4,3,2,40,0,0
128188,-125,4,3,1,40,0,0
128854,-125,4,3,2,40,0,0
129521,-125,4,3,1,40,0,0
130188,-125,4,3,2,40,0,0
130854,-125,4,3,1,40,0,0
131521,-125,4,3,2,40,0,0
132521,-125,4,3,1,40,0,0
132854,-125,4,3,2,40,0,0
133521,-125,4,3,1,40,0,0
134188,-125,4,3,2,40,0,0
134688,-125,4,3,1,40,0,0
135021,-125,4,3,2,40,0,0
135188,-125,4,3,1,40,0,0
135521,-125,4,3,2,40,0,0
136188,-125,4,3,1,40,0,0
136854,-125,4,3,2,40,0,0
137854,-125,4,3,1,40,0,0
138188,-125,4,3,2,40,0,0
138854,-125,4,3,1,40,0,0
139521,-125,4,3,2,40,0,0
140021,-125,4,3,1,40,0,0
140854,-125,4,3,0,40,0,0
141521,-200,4,3,1,50,0,0
152188,-125,4,3,1,60,0,0
152854,-125,4,3,2,60,0,0
153854,-125,4,3,1,60,0,0
154188,-125,4,3,2,60,0,0
154854,-125,4,3,1,60,0,0
155521,-125,4,3,2,60,0,0
156521,-125,4,3,1,60,0,0
156854,-125,4,3,2,60,0,0
157521,-125,4,3,1,60,0,0
158188,-125,4,3,2,60,0,0
158521,-125,4,3,1,60,0,0
159521,-125,4,3,2,60,0,0
159854,-125,4,3,1,60,0,0
160188,-125,4,2,5,70,0,0
160854,-125,4,2,5,75,0,0
161521,-100,4,2,3,80,0,0
161854,-100,4,2,3,85,0,0
162188,-100,4,2,5,90,0,0
162771,-100,4,2,5,10,0,0
162854,-83.3333333333333,4,3,1,80,0,0
163104,-83.3333333333333,4,3,1,10,0,0
163188,-83.3333333333333,4,3,1,80,0,0
163521,-83.3333333333333,4,3,2,80,0,0
163771,-83.3333333333333,4,3,2,10,0,0
163854,-83.3333333333333,4,3,2,80,0,0
164021,-83.3333333333333,4,3,1,80,0,0
164854,-83.3333333333333,4,3,2,80,0,0
165521,-83.3333333333333,4,3,1,80,0,0
166188,-83.3333333333333,4,3,2,80,0,0
166438,-83.3333333333333,4,3,2,10,0,0
166521,-83.3333333333333,4,3,2,80,0,0
166688,-83.3333333333333,4,3,1,80,0,0
167104,-83.3333333333333,4,3,1,10,0,0
167188,-83.3333333333333,4,3,1,80,0,0
167521,-83.3333333333333,4,3,2,80,0,0
167604,-83.3333333333333,4,3,1,10,0,0
167688,-83.3333333333333,4,3,1,80,0,0
168104,-83.3333333333333,4,3,1,10,0,0
168188,-83.3333333333333,4,3,1,80,0,0
168438,-83.3333333333333,4,3,1,10,0,0
168521,-83.3333333333333,4,3,1,80,0,0
168854,-83.3333333333333,4,3,2,80,0,0
169104,-83.3333333333333,4,3,2,10,0,0
169188,-83.3333333333333,4,3,2,80,0,0
169354,-83.3333333333333,4,3,1,80,0,0
170188,-83.3333333333333,4,3,2,80,0,0
170854,-83.3333333333333,4,3,1,80,0,0
171521,-83.3333333333333,4,3,2,80,0,0
171771,-83.3333333333333,4,3,2,10,0,0
171854,-83.3333333333333,4,3,2,80,0,0
172021,-83.3333333333333,4,3,1,80,0,0
172854,-83.3333333333333,4,3,2,80,0,0
172938,-83.3333333333333,4,3,1,10,0,0
173021,-83.3333333333333,4,3,1,80,0,0
173438,-83.3333333333333,4,3,1,10,0,0
173521,-83.3333333333333,4,3,1,80,0,0
173771,-83.3333333333333,4,3,1,10,0,0
173854,-83.3333333333333,4,3,1,80,0,0
174188,-83.3333333333333,4,3,2,80,0,0
174438,-83.3333333333333,4,3,2,10,0,0
174521,-83.3333333333333,4,3,2,80,0,0
174688,-83.3333333333333,4,3,1,80,0,0
175521,-83.3333333333333,4,3,2,80,0,0
176188,-83.3333333333333,4,3,1,80,0,0
176854,-83.3333333333333,4,3,2,80,0,0
177104,-83.3333333333333,4,3,2,10,0,0
177188,-83.3333333333333,4,3,2,80,0,0
177354,-83.3333333333333,4,3,1,80,0,0
177771,-83.3333333333333,4,3,1,10,0,0
177854,-83.3333333333333,4,3,1,80,0,0
178188,-83.3333333333333,4,3,2,80,0,0
178271,-83.3333333333333,4,3,1,10,0,0
178354,-83.3333333333333,4,3,1,80,0,0
178771,-83.3333333333333,4,3,1,10,0,0
178854,-83.3333333333333,4,3,1,80,0,0
179104,-83.3333333333333,4,3,1,10,0,0
179188,-83.3333333333333,4,3,1,80,0,0
179521,-83.3333333333333,4,3,2,80,0,0
179771,-83.3333333333333,4,3,2,10,0,0
179854,-83.3333333333333,4,3,2,80,0,0
180021,-83.3333333333333,4,3,1,80,0,0
180854,-83.3333333333333,4,3,2,80,0,0
181521,-166.666666666667,4,3,1,80,0,0
182521,-166.666666666667,4,2,3,80,0,0
182854,-83.3333333333333,4,2,3,80,0,0
183521,-83.3333333333333,4,3,2,80,0,0
183688,-83.3333333333333,4,3,1,80,0,0
184188,-83.3333333333333,4,3,1,90,0,1
184521,-83.3333333333333,4,3,2,90,0,1
184688,-83.3333333333333,4,2,1,90,0,1
185021,-83.3333333333333,4,3,1,90,0,1
185188,-83.3333333333333,4,3,2,90,0,1
185521,-83.3333333333333,4,2,1,90,0,1
185854,-83.3333333333333,4,2,2,90,0,1
185938,-83.3333333333333,4,2,1,10,0,1
186021,-83.3333333333333,4,2,2,90,0,1
186104,-83.3333333333333,4,2,1,10,0,1
186188,-83.3333333333333,4,2,2,90,0,1
186271,-83.3333333333333,4,2,1,10,0,1
186354,-83.3333333333333,4,2,4,90,0,1
186438,-83.3333333333333,4,2,1,10,0,1
186521,-83.3333333333333,4,2,2,90,0,1
186604,-83.3333333333333,4,2,1,10,0,1
186688,-83.3333333333333,4,2,2,90,0,1
186771,-83.3333333333333,4,2,1,10,0,1
186854,-83.3333333333333,4,3,1,90,0,1
187188,-83.3333333333333,4,3,2,90,0,1
187354,-83.3333333333333,4,2,1,90,0,1
187854,-83.3333333333333,4,3,2,90,0,1
188188,-83.3333333333333,4,2,6,90,0,1
188521,-83.3333333333333,4,2,7,90,0,1
188688,-83.3333333333333,4,2,1,90,0,1
189021,-83.3333333333333,4,3,1,90,0,1
189188,-83.3333333333333,4,3,2,90,0,1
189354,-83.3333333333333,4,3,1,90,0,1
189854,-83.3333333333333,4,3,2,90,0,1
190021,-83.3333333333333,4,2,1,90,0,1
190354,-83.3333333333333,4,3,1,90,0,1
190521,-83.3333333333333,4,3,2,90,0,1
190854,-83.3333333333333,4,2,1,90,0,1
191188,-83.3333333333333,4,2,2,90,0,1
191271,-83.3333333333333,4,2,1,10,0,1
191354,-83.3333333333333,4,2,2,90,0,1
191438,-83.3333333333333,4,2,1,10,0,1
191521,-83.3333333333333,4,2,2,90,0,1
191604,-83.3333333333333,4,2,1,10,0,1
191688,-83.3333333333333,4,2,4,90,0,1
191771,-83.3333333333333,4,2,1,10,0,1
191854,-83.3333333333333,4,2,2,90,0,1
191938,-83.3333333333333,4,2,1,10,0,1
192021,-83.3333333333333,4,2,2,90,0,1
192104,-83.3333333333333,4,2,1,10,0,1
192188,-83.3333333333333,4,3,1,90,0,1
192521,-83.3333333333333,4,3,2,90,0,1
192688,-83.3333333333333,4,2,1,90,0,1
193188,-83.3333333333333,4,3,2,90,0,1
193521,-83.3333333333333,4,2,6,90,0,1
193854,-83.3333333333333,4,2,7,90,0,1
194021,-83.3333333333333,4,2,1,90,0,1
194354,-83.3333333333333,4,3,1,90,0,1
194521,-83.3333333333333,4,3,2,90,0,1
194688,-83.3333333333333,4,3,1,90,0,1
195188,-83.3333333333333,4,3,2,90,0,1
195354,-83.3333333333333,4,2,1,90,0,1
195688,-83.3333333333333,4,3,1,90,0,1
195854,-83.3333333333333,4,3,2,90,0,1
196188,-83.3333333333333,4,2,1,90,0,1
196521,-83.3333333333333,4,2,2,90,0,1
196604,-83.3333333333333,4,2,1,10,0,1
196688,-83.3333333333333,4,2,2,90,0,1
196771,-83.3333333333333,4,2,1,10,0,1
196854,-83.3333333333333,4,2,2,90,0,1
196938,-83.3333333333333,4,2,1,10,0,1
197021,-83.3333333333333,4,2,4,90,0,1
197104,-83.3333333333333,4,2,1,10,0,1
197188,-83.3333333333333,4,2,2,90,0,1
197271,-83.3333333333333,4,2,1,10,0,1
197354,-83.3333333333333,4,2,2,90,0,1
197438,-83.3333333333333,4,2,1,10,0,1
197521,-83.3333333333333,4,3,1,90,0,1
197854,-83.3333333333333,4,3,2,90,0,1
198021,-83.3333333333333,4,2,1,90,0,1
198521,-83.3333333333333,4,3,2,90,0,1
198854,-83.3333333333333,4,2,6,90,0,1
199188,-83.3333333333333,4,2,7,90,0,1
199354,-83.3333333333333,4,2,1,90,0,1
199688,-83.3333333333333,4,3,1,90,0,1
199854,-83.3333333333333,4,3,2,90,0,1
200021,-83.3333333333333,4,3,1,90,0,1
200521,-83.3333333333333,4,3,2,90,0,1
200688,-83.3333333333333,4,2,1,90,0,1
201021,-83.3333333333333,4,3,1,90,0,1
201188,-83.3333333333333,4,3,2,90,0,1
201688,-83.3333333333333,4,3,1,90,0,1
201854,-83.3333333333333,4,3,2,90,0,1
202354,-83.3333333333333,4,3,1,90,0,1
202521,-83.3333333333333,4,3,2,90,0,1
202854,-83.3333333333333,4,3,1,80,0,1
202938,-83.3333333333333,4,2,3,70,0,1
203021,-83.3333333333333,4,2,3,75,0,1
203188,-83.3333333333333,4,3,1,80,0,1
203271,-83.3333333333333,4,2,3,70,0,1
203354,-83.3333333333333,4,3,2,90,0,1
203438,-83.3333333333333,4,2,3,75,0,1
203688,-83.3333333333333,4,3,2,75,0,1
203771,-83.3333333333333,4,2,3,75,0,1
203854,-83.3333333333333,4,3,2,90,0,1
203938,-83.3333333333333,4,2,3,75,0,1
204188,-83.3333333333333,4,2,3,80,0,1
204521,-83.3333333333333,4,2,3,85,0,1
204854,-83.3333333333333,4,3,2,90,0,1
204938,-83.3333333333333,4,2,3,100,0,1
205438,-83.3333333333333,4,2,3,10,0,1
205521,-200,4,2,0,30,0,0

[Colours]
Combo1 : 182,219,250
Combo2 : 124,124,124
Combo3 : 170,170,170
Combo4 : 197,153,20
Combo5 : 36,124,157
Combo6 : 226,200,50
Combo7 : 29,167,233
Combo8 : 241,255,140
SliderBorder : 255,255,255

[HitObjects]
221,331,2855,6,0,B|165:255|92:260|92:260|35:266|-66:327|5:405|108:414|110:300|97:259|97:259|74:194|108:130|108:130|35:133|25:57|43:12|100:1|132:21|132:21|221:73|270:-9|357:39,1,1050,2|0,0:0|0:0,0:0:0:0:
356,38,8188,6,0,B|401:152|324:249|324:249|401:152|521:177|521:177|493:312|349:418|215:347|215:347|229:276|177:214|102:221,1,1050,2|0,0:0|0:0,0:0:0:0:
103,221,13521,102,0,B|91:301|126:367|126:367|104:296|32:255|32:255|-5:174|79:101|169:138|180:208|180:208|197:304|289:342|289:342|372:371|463:284|463:284|420:262|344:267,1,1050,2|0,0:0|0:0,0:0:0:0:
360,266,18854,6,0,B|306:206|385:161|326:95|326:95|298:58|254:-31|350:-87|445:-8|366:67|326:95|326:95|231:146|161:38|161:38|54:115|119:233,1,900,2|0,0:0|0:0,0:0:0:0:
118,232,23521,5,8,0:0:0:0:
80,339,23688,1,8,0:0:0:0:
106,220,23854,1,8,0:0:0:0:
161,344,24021,1,8,0:0:0:0:
94,208,24188,6,0,P|88:156|106:82,1,120,8|0,0:3|0:0,0:0:0:0:
320,39,24854,2,0,L|260:33,2,60,10|2|2,0:0|0:0|0:0,0:0:0:0:
383,84,25354,1,2,0:0:0:0:
382,84,25521,2,0,B|370:142|370:142|375:203,2,120,2|10|10,0:0|0:0|0:0,0:0:0:0:
437,248,26521,2,0,L|431:307,1,60,2|2,0:0|0:0,0:0:0:0:
303,233,26854,101,8,2:3:0:0:
121,328,27188,2,0,P|149:335|179:333,1,60,2|2,0:0|0:0,0:0:0:0:
241,283,27521,1,10,0:0:0:0:
187,225,27688,2,0,P|158:217|128:219,1,60,2|0,0:0|0:0,0:0:0:0:
67,270,28021,1,10,0:0:0:0:
77,158,28187,2,0,L|81:98,1,60,10|8,0:0|0:0,0:0:0:0:
144,0,28521,2,0,L|149:59,1,60,10|0,0:0|0:0,0:0:0:0:
208,207,28854,2,0,L|214:117,1,90,10|0,0:0|0:0,0:0:0:0:
215,98,29188,1,2,0:0:0:0:
130,215,29354,1,2,0:0:0:0:
290,140,29521,6,0,P|349:132|405:151,1,120,10|2,0:0|0:0,0:0:0:0:
458,209,30021,1,2,0:0:0:0:
462,99,30188,1,8,0:0:0:0:
395,320,30521,2,0,P|402:291|400:261,1,60,2|2,0:0|0:0,0:0:0:0:
348,204,30854,2,0,L|228:214,1,120,2|10,0:0|0:0,0:0:0:0:
160,253,31354,1,2,0:0:0:0:
228,135,31521,2,0,P|237:76|210:24,1,120,8|2,0:0|0:0,0:0:0:0:
55,298,32188,101,10,0:0:0:0:
150,319,32410,2,0,L|71:305,1,80,2|2,0:0|0:0,0:0:0:0:
229,264,32854,1,10,0:0:0:0:
324,243,33076,2,0,L|245:256,1,80,0|2,0:0|0:0,0:0:0:0:
403,298,33521,1,2,0:0:0:0:
498,319,33743,2,0,L|419:305,1,80,2|2,0:0|0:0,0:0:0:0:
482,220,34188,2,0,P|484:190|477:161,1,60,10|0,0:0|0:0,0:0:0:0:
421,106,34521,2,0,P|418:76|425:47,1,60,0|0,0:0|0:0,0:0:0:0:
249,173,34854,6,0,P|307:181|364:161,1,120,8|0,3:0|0:0,0:0:0:0:
113,92,35521,2,0,P|83:88|53:89,2,60,10|2|2,0:0|0:0|0:0,0:0:0:0:
181,133,36021,1,2,0:0:0:0:
181,133,36188,2,0,P|196:190|192:250,2,120,2|10|10,0:0|0:0|0:0,0:0:0:0:
260,291,37188,2,0,P|289:294|319:293,1,60,2|2,0:0|0:0,0:0:0:0:
190,328,37521,101,8,3:0:0:0:
277,156,37855,2,0,L|282:215,1,60,2|2,0:0|0:0,0:0:0:0:
260,291,38188,1,10,0:0:0:0:
192,250,38354,2,0,L|186:190,1,60,2|0,0:0|0:0,0:0:0:0:
209,115,38688,1,10,0:0:0:0:
111,168,38854,2,0,P|81:171|51:170,1,60,10|8,0:0|0:0,0:0:0:0:
58,70,39188,2,0,L|176:49,1,120,10|8,0:0|0:0,0:0:0:0:
362,65,39854,2,0,L|273:49,1,90,2|0,0:0|0:0,0:0:0:0:
254,46,40188,5,8,3:0:0:0:
432,32,40521,2,0,P|439:61|435:91,1,60,2|2,0:0|0:0,0:0:0:0:
374,141,40854,2,0,P|374:200|391:258,1,120,10|0,0:0|0:0,0:0:0:0:
461,292,41354,1,2,0:0:0:0:
428,361,41521,2,0,P|398:362|369:355,1,60,2|2,0:0|0:0,0:0:0:0:
295,327,41854,2,0,P|240:307|180:313,2,120,10|8|0,0:0|3:0|0:0,0:0:0:0:
369,355,42688,1,0,0:0:0:0:
336,175,42854,102,0,L|322:254,1,80,10|2,0:0|0:0,0:0:0:0:
269,99,43299,1,2,0:0:0:0:
174,78,43521,2,0,L|253:92,1,80,10|0,0:0|0:0,0:0:0:0:
98,145,43966,1,0,0:0:0:0:
77,240,44188,2,0,L|91:161,1,80,2|2,0:0|0:0,0:0:0:0:
144,316,44632,1,2,0:0:0:0:
193,224,44854,2,0,L|187:164,1,60,8|8,0:0|0:0,0:0:0:0:
137,104,45188,2,0,L|142:44,1,60,8|8,0:0|0:0,0:0:0:0:
264,150,45521,86,0,P|336:167|405:141,1,150,2|0,0:0|0:0,0:0:0:0:
471,49,46521,1,2,0:0:0:0:
358,39,46854,2,0,L|283:45,1,75,2|0,0:0|0:0,0:0:0:0:
174,75,47521,1,2,0:0:0:0:
274,291,48188,6,0,P|290:218|264:149,1,150,2|0,0:0|0:0,0:0:0:0:
174,75,49188,1,2,0:0:0:0:
99,165,49521,2,0,P|82:237|108:306,1,150,2|2,0:0|0:0,0:0:0:0:
413,136,50855,102,0,L|263:149,1,150,2|0,0:0|0:0,0:0:0:0:
189,240,51855,1,2,0:0:0:0:
279,315,52188,2,0,L|428:301,1,150,2|2,0:0|0:0,0:0:0:0:
116,162,53521,6,0,L|265:148,1,150,2|0,0:0|0:0,0:0:0:0:
354,225,54521,1,2,0:0:0:0:
279,315,54854,2,0,L|166:324,1,112.5,2|0,0:0|0:0,0:0:0:0:
129,327,55521,2,0,L|122:252,1,75,2|0,0:0|0:0,0:0:0:0:
277,40,56188,5,8,0:0:0:0:
400,259,56521,2,0,P|405:199|388:142,1,120,8|0,0:0|0:0,0:0:0:0:
333,91,57021,1,8,0:0:0:0:
439,86,57188,2,0,L|498:91,1,60,8|0,0:0|0:0,0:0:0:0:
383,35,57521,5,8,0:0:0:0:
163,157,57854,2,0,L|282:146,1,120,8|0,0:0|0:0,0:0:0:0:
333,91,58354,1,8,0:0:0:0:
305,217,58521,1,8,0:0:0:0:
103,110,58854,101,8,0:0:0:0:
140,345,59188,2,0,P|157:288|152:229,1,120,8|0,0:0|0:0,0:0:0:0:
86,186,59688,1,8,0:0:0:0:
173,81,59854,1,8,0:0:0:0:
316,302,60188,5,8,0:0:0:0:
351,82,60521,2,0,P|301:49|242:51,1,120,8|0,0:0|0:0,0:0:0:0:
234,127,61021,1,8,0:0:0:0:
342,157,61188,2,0,P|370:164|400:162,1,60,8|0,0:0|0:0,0:0:0:0:
424,157,61438,1,8,0:0:0:0:
424,157,61521,6,0,L|418:224,1,67.4999979400635,8|0,0:0|0:0,0:0:0:0:
357,350,61854,2,0,L|352:283,1,67.4999979400635,8|0,0:0|0:0,0:0:0:0:
444,148,62188,2,0,L|438:215,1,67.4999979400635,8|0,0:0|0:0,0:0:0:0:
338,362,62521,2,0,L|332:294,1,67.4999979400635,8|0,0:0|0:0,0:0:0:0:
232,148,62854,2,0,L|226:216,1,67.4999979400635,8|0,0:0|0:0,0:0:0:0:
126,362,63188,2,0,L|120:294,1,67.4999979400635,8|0,0:0|0:0,0:0:0:0:
252,139,63521,2,0,L|246:206,1,67.4999979400635,8|0,0:0|0:0,0:0:0:0:
107,374,63854,2,0,L|101:306,1,67.4999979400635,8|0,0:0|0:0,0:0:0:0:
145,83,64187,5,0,0:3:0:0:
75,207,64354,1,0,0:0:0:0:
48,110,64522,1,0,0:0:0:0:
172,180,64688,1,0,0:0:0:0:
30,99,64854,1,0,0:0:0:0:
189,190,65021,1,0,0:0:0:0:
155,65,65188,1,0,0:0:0:0:
64,224,65354,1,0,0:0:0:0:
165,47,65521,102,0,L|174:83,3,37.5,0|0|0|0,0:0|0:0|0:0|0:0,0:0:0:0:
273,90,65854,2,0,L|263:126,3,37.5,0|0|0|0,0:0|0:0|0:0|0:0,0:0:0:0:
364,36,66188,2,0,L|373:72,3,37.5,0|0|0|0,0:0|0:0|0:3|0:0,0:0:0:0:
472,79,66521,2,0,B|495:109|495:109|494:146,1,75,0|0,0:0|0:0,0:0:0:0:
486,253,66854,6,0,B|454:284|454:284|364:276,1,134.999995880127,4|0,3:2|0:0,0:0:0:0:
329,254,67188,2,0,L|149:269,1,179.999994506836,8|0,0:0|0:0,0:0:0:0:
8,335,67688,1,8,0:0:0:0:
110,187,67854,2,0,P|112:142|103:98,2,89.9999972534181,8|0|0,0:0|0:0|0:0,0:0:0:0:
97,341,68354,1,8,0:0:0:0:
21,180,68521,2,0,P|11:136|14:91,2,89.9999972534181,8|0|0,0:0|0:0|0:0,0:0:0:0:
8,335,69021,1,8,0:0:0:0:
180,270,69188,2,0,L|269:277,1,89.9999972534181,8|0,0:0|0:0,0:0:0:0:
429,372,69521,102,0,L|340:365,1,89.9999972534181,8|0,0:0|0:0,0:0:0:0:
310,172,69854,2,0,B|367:195|379:260|379:260|402:224|453:220,1,179.999994506836,8|0,0:0|0:0,0:0:0:0:
269,277,70354,1,8,0:0:0:0:
412,147,70521,2,0,P|421:104|408:61,1,89.9999972534181,8|0,0:0|0:0,0:0:0:0:
257,99,70854,1,0,0:0:0:0:
408,62,71021,1,8,0:0:0:0:
235,12,71188,2,0,P|190:6|149:23,2,89.9999972534181,8|0|0,0:0|0:0|0:0,0:0:0:0:
321,36,71688,1,8,0:0:0:0:
279,187,71854,1,8,0:0:0:0:
321,36,72021,1,8,0:0:0:0:
366,212,72188,6,0,P|325:264|259:275,1,134.999995880127,4|0,3:2|0:0,0:0:0:0:
223,259,72521,2,0,P|188:179|235:107,1,179.999994506836,8|0,0:0|0:0,0:0:0:0:
389,132,73021,1,8,0:0:0:0:
249,18,73188,2,0,L|159:25,2,89.9999972534181,8|0|0,0:0|0:0|0:0,0:0:0:0:
404,43,73687,1,8,0:0:0:0:
235,107,73854,2,0,L|145:114,2,89.9999972534181,8|0|0,0:0|0:0|0:0,0:0:0:0:
389,132,74354,1,8,0:0:0:0:
220,196,74521,2,0,L|130:203,1,89.9999972534181,8|0,0:0|0:0,0:0:0:0:
374,221,74854,102,0,L|464:228,1,89.9999972534181,8|0,0:0|0:0,0:0:0:0:
329,328,75188,2,0,B|218:348|271:283|157:303,1,179.999994506836,8|0,0:0|0:0,0:0:0:0:
196,384,75688,1,8,0:0:0:0:
289,246,75854,2,0,P|291:201|283:158,1,89.9999972534181,8|0,0:0|0:0,0:0:0:0:
273,137,76104,1,0,0:0:0:0:
273,137,76188,1,0,0:0:0:0:
374,221,76354,1,8,0:0:0:0:
180,140,76521,2,0,P|135:137|91:146,2,89.9999972534181,8|0|0,0:0|0:0|0:0,0:0:0:0:
353,133,77021,1,8,0:0:0:0:
201,228,77188,1,8,0:0:0:0:
262,50,77354,1,8,0:0:0:0:
262,50,77438,1,8,0:0:0:0:
262,50,77521,6,0,P|327:34|393:45,1,134.999995880127,4|0,3:2|0:0,0:0:0:0:
427,67,77854,2,0,L|442:246,1,179.999994506836,8|0,3:0|0:0,0:0:0:0:
438,365,78354,1,8,0:0:0:0:
323,255,78521,2,0,P|309:213|315:169,2,89.9999972534181,8|0|0,0:0|0:0|0:0,0:0:0:0:
347,370,79021,1,8,0:0:0:0:
442,246,79188,2,0,P|448:201|433:159,2,89.9999972534181,8|0|0,0:0|0:0|0:0,0:0:0:0:
438,365,79688,1,8,0:0:0:0:
268,328,79854,2,0,L|178:335,1,89.9999972534181,8|0,0:0|0:0,0:0:0:0:
32,255,80188,102,0,L|122:263,1,89.9999972534181,8|0,0:0|0:0,0:0:0:0:
296,225,80521,2,0,B|252:212|211:244|211:244|201:199|152:177,1,179.999994506836,8|0,0:0|0:0,0:0:0:0:
116,262,81021,1,8,0:0:0:0:
242,136,81188,2,0,L|234:46,1,89.9999972534181,8|0,0:0|0:0,0:0:0:0:
225,25,81438,1,0,0:0:0:0:
225,25,81521,1,0,0:0:0:0:
335,144,81688,1,8,0:0:0:0:
149,128,81854,2,0,P|105:128|61:140,2,89.9999972534181,8|0|0,0:0|0:0|0:0,0:0:0:0:
281,220,82354,1,8,0:0:0:0:
201,53,82521,1,8,0:0:0:0:
191,212,82688,1,8,0:0:0:0:
290,61,82854,6,0,P|356:50|411:86,1,134.999995880127,4|0,3:2|0:0,0:0:0:0:
433,122,83188,2,0,B|442:171|413:208|413:208|383:246|394:293,1,179.999994506836,8|0,0:0|0:0,0:0:0:0:
496,270,83688,1,8,0:0:0:0:
335,144,83854,2,0,L|342:54,2,89.9999972534181,8|0|0,0:0|0:0|0:0,0:0:0:0:
393,291,84354,1,8,0:0:0:0:
232,165,84521,2,0,L|239:75,2,89.9999972534181,8|0|0,0:0|0:0|0:0,0:0:0:0:
290,312,85021,1,8,0:0:0:0:
129,186,85188,2,0,L|136:96,1,89.9999972534181,8|0,0:0|0:0,0:0:0:0:
199,265,85521,102,0,L|192:355,1,89.9999972534181,8|0,0:0|0:0,0:0:0:0:
19,296,85854,2,0,L|32:116,1,179.999994506836,8|0,0:0|0:0,0:0:0:0:
65,32,86354,1,8,0:0:0:0:
179,172,86521,2,0,P|223:178|265:164,1,89.9999972534181,8|0,0:0|0:0,0:0:0:0:
331,0,86854,2,0,P|303:35|294:78,1,89.9999972534181,0|8,0:0|0:0,0:0:0:0:
402,220,87188,2,0,P|385:178|351:148,1,89.9999972534181,8|0,0:0|0:0,0:0:0:0:
207,93,87521,1,8,0:0:0:0:
381,64,87688,2,0,B|479:72|479:72|461:76|447:88,1,134.999995880127,8|0,0:0|0:0,0:0:0:0:
447,88,88021,1,8,0:0:0:0:
265,164,88188,22,0,P|258:208|272:250,1,89.9999972534181,8|0,0:0|0:0,0:0:0:0:
382,373,88521,2,0,P|388:328|374:286,1,89.9999972534181,8|2,0:0|0:0,0:0:0:0:
359,271,88771,1,2,0:0:0:0:
359,271,88854,1,2,0:0:0:0:
297,337,89021,1,8,0:0:0:0:
380,184,89188,2,0,P|363:98|291:49,1,179.999994506836,8|0,0:0|2:0,0:0:0:0:
175,21,89688,1,8,3:0:0:0:
265,164,89854,5,8,0:3:0:0:
195,108,90021,1,0,0:0:0:0:
276,172,90188,1,0,0:0:0:0:
185,100,90355,1,8,0:3:0:0:
287,180,90521,1,8,0:3:0:0:
175,92,90688,1,0,0:0:0:0:
226,247,90854,102,0,B|233:291|233:291|218:334,1,89.9999972534181,8|0,0:0|0:0,0:0:0:0:
96,261,91188,2,0,B|89:217|89:217|104:174,1,89.9999972534181,8|2,0:0|0:0,0:0:0:0:
114,159,91438,1,2,0:0:0:0:
97,153,91521,1,2,0:0:0:0:
80,147,91604,1,2,0:0:0:0:
63,141,91688,1,8,0:3:0:0:
257,106,91854,2,0,P|302:103|342:121,1,89.9999972534181,8|0,0:0|0:0,0:0:0:0:
263,314,92188,86,0,L|173:306,1,89.9999972534181,0|8,0:0|3:0,0:0:0:0:
6,268,92521,2,0,L|95:260,1,89.9999972534181,8|0,0:3|0:0,0:0:0:0:
262,221,92854,1,2,0:0:0:0:
173,306,93021,1,8,0:0:0:0:
185,176,93188,1,8,0:0:0:0:
95,260,93355,1,8,0:0:0:0:
273,229,93521,22,0,P|318:226|358:244,1,89.9999972534181,8|0,0:0|0:0,0:0:0:0:
494,363,93854,1,8,0:0:0:0:
511,274,94021,1,2,0:0:0:0:
511,274,94104,1,2,0:0:0:0:
511,274,94188,1,2,0:0:0:0:
405,346,94354,1,8,0:0:0:0:
442,214,94521,2,0,L|426:34,1,179.999994506836,8|0,0:0|0:0,0:0:0:0:
281,143,95021,1,8,3:0:0:0:
358,244,95188,5,8,0:3:0:0:
269,232,95354,1,0,0:0:0:0:
371,246,95521,1,0,0:0:0:0:
256,230,95687,1,8,0:3:0:0:
384,248,95854,1,8,0:3:0:0:
243,228,96021,1,0,0:0:0:0:
396,159,96188,102,0,P|437:175|465:209,1,89.9999972534181,8|0,0:0|0:0,0:0:0:0:
371,336,96521,2,0,P|329:319|301:285,1,89.9999972534181,8|2,0:0|0:0,0:0:0:0:
304,267,96771,1,2,0:0:0:0:
306,249,96854,1,2,0:0:0:0:
309,231,96938,1,2,0:0:0:0:
311,217,97021,1,8,0:3:0:0:
405,73,97188,2,0,P|411:117|395:158,1,89.9999972534181,8|0,0:0|0:0,0:0:0:0:
209,255,97521,86,0,P|209:209|220:166,1,89.9999972534181,0|8,0:0|3:0,0:0:0:0:
278,0,97854,2,0,P|278:45|267:89,1,89.9999972534181,8|0,0:3|0:0,0:0:0:0:
132,146,98188,1,2,0:0:0:0:
267,88,98354,1,8,0:0:0:0:
149,1,98521,1,8,0:0:0:0:
220,166,98688,1,8,0:0:0:0:
220,166,98771,1,8,0:0:0:0:
220,166,98854,22,0,L|310:174,1,89.9999972534181,8|0,0:0|0:0,0:0:0:0:
506,129,99188,2,0,L|416:137,1,89.9999972534181,8|2,0:0|0:0,0:0:0:0:
394,141,99438,1,2,0:0:0:0:
394,141,99521,1,2,0:0:0:0:
301,25,99688,1,8,0:0:0:0:
309,173,99854,2,0,B|301:261|301:261|231:319,1,179.999994506836,8|0,0:0|0:0,0:0:0:0:
151,361,100354,1,8,3:0:0:0:
221,220,100521,5,8,0:3:0:0:
301,262,100688,1,0,0:0:0:0:
209,214,100854,1,0,0:0:0:0:
313,268,101021,1,8,0:3:0:0:
197,208,101188,1,8,0:3:0:0:
325,274,101354,1,0,0:0:0:0:
174,285,101521,102,0,P|128:285|85:274,1,89.9999972534181,8|0,0:0|0:0,0:0:0:0:
220,131,101854,2,0,P|266:131|309:142,1,89.9999972534181,8|2,0:0|0:0,0:0:0:0:
313,124,102104,1,2,0:0:0:0:
318,106,102188,1,2,0:0:0:0:
323,88,102271,1,2,0:0:0:0:
328,70,102354,1,8,0:3:0:0:
373,228,102521,2,0,P|328:228|284:217,1,89.9999972534181,8|0,0:0|0:0,0:0:0:0:
418,65,102854,86,0,L|426:155,1,89.9999972534181,0|8,0:0|3:0,0:0:0:0:
365,318,103188,2,0,L|372:228,1,89.9999972534181,8|0,0:3|0:0,0:0:0:0:
431,47,103521,1,2,0:0:0:0:
356,161,103688,1,8,0:0:0:0:
443,28,103854,1,8,0:0:0:0:
451,187,104021,1,8,0:0:0:0:
332,66,104188,22,0,P|288:60|247:76,1,89.9999972534181,8|0,0:0|0:0,0:0:0:0:
235,267,104521,2,0,P|262:231|268:187,1,89.9999972534181,8|2,0:0|0:0,0:0:0:0:
265,164,104771,1,2,0:0:0:0:
265,164,104854,1,2,0:0:0:0:
325,276,105021,1,8,0:0:0:0:
178,196,105188,2,0,P|133:188|88:192,1,89.9999972534181,8|0,0:0|0:0,0:0:0:0:
69,204,105438,1,0,0:0:0:0:
69,204,105521,6,0,L|76:293,1,89.9999972534181,0|8,0:0|0:0,0:0:0:0:
0,146,105854,1,8,0:0:0:0:
85,116,106021,1,0,0:0:0:0:
85,116,106104,1,0,0:0:0:0:
85,116,106188,2,0,L|174:123,1,89.9999972534181,0|8,0:0|0:0,0:0:0:0:
345,153,106521,2,0,L|256:161,1,89.9999972534181,8|0,0:0|0:0,0:0:0:0:
134,284,106854,6,0,L|125:328,3,44.999998626709,8|0|0|0,0:3|0:0|0:0|0:0,0:0:0:0:
226,314,107188,2,0,L|234:358,3,44.999998626709,8|0|0|0,0:0|0:0|0:0|0:0,0:0:0:0:
206,220,107521,2,0,L|214:175,3,44.999998626709,0|0|8|0,0:0|0:0|0:3|0:0,0:0:0:0:
114,190,107854,2,0,L|105:145,3,44.999998626709,8|0|0|0,0:0|0:0|0:0|0:0,0:0:0:0:
152,61,108188,37,0,0:0:0:0:
178,53,108271,1,0,0:0:0:0:
205,49,108354,1,8,0:3:0:0:
232,48,108437,1,0,0:0:0:0:
259,50,108521,2,0,P|281:50|302:57,3,44.999998626709,8|0|0|0,0:0|0:0|0:0|0:0,0:0:0:0:
270,141,108854,1,0,0:0:0:0:
261,173,108937,1,0,0:0:0:0:
256,206,109020,1,8,0:3:0:0:
255,240,109103,1,0,0:0:0:0:
258,273,109188,2,0,P|263:318|277:360,1,89.9999972534181,8|0,0:0|0:0,0:0:0:0:
449,267,109521,5,8,0:3:0:0:
184,308,119521,53,8,0:0:0:0:
90,372,119688,1,8,0:0:0:0:
198,316,119854,1,8,0:0:0:0:
64,295,120021,1,8,0:0:0:0:
213,324,120188,22,0,P|272:329|330:315,1,120,8|0,2:3|0:0,0:0:0:0:
190,191,120854,2,0,P|183:219|185:249,2,60,10|2|2,0:0|0:0|0:0,0:0:0:0:
244,134,121354,1,2,0:0:0:0:
244,134,121521,2,0,L|363:123,2,120,2|10|10,0:0|0:0|0:0,0:0:0:0:
431,228,122521,2,0,P|434:199|426:169,1,60,2|2,0:0|0:0,0:0:0:0:
372,44,122854,5,8,2:3:0:0:
295,212,123188,2,0,P|287:183|290:153,1,60,2|2,0:0|0:0,0:0:0:0:
363,122,123521,1,10,0:0:0:0:
426,169,123688,2,0,P|433:197|430:227,1,60,2|0,0:0|0:0,0:0:0:0:
358,259,124021,1,10,0:0:0:0:
494,274,124188,2,0,L|499:333,1,60,10|8,0:0|0:0,0:0:0:0:
363,319,124521,2,0,L|357:259,1,60,10|0,0:0|0:0,0:0:0:0:
417,119,124854,2,0,L|426:208,1,90,10|0,0:0|0:0,0:0:0:0:
429,227,125188,1,2,0:0:0:0:
492,97,125354,1,2,0:0:0:0:
332,172,125521,102,0,B|271:180|271:180|215:161,1,120,10|2,0:0|0:0,0:0:0:0:
168,98,126021,1,2,0:0:0:0:
152,208,126188,1,8,0:0:0:0:
251,28,126521,2,0,P|253:57|245:86,1,60,2|2,0:0|0:0,0:0:0:0:
168,98,126854,2,0,L|48:87,1,120,2|10,0:0|0:0,0:0:0:0:
0,26,127354,1,2,0:0:0:0:
19,160,127521,2,0,P|26:219|20:278,1,120,8|2,0:0|0:0,0:0:0:0:
233,10,128188,5,10,0:0:0:0:
254,105,128410,2,0,L|240:26,1,80,2|2,0:0|0:0,0:0:0:0:
161,129,128854,1,10,0:0:0:0:
140,224,129076,2,0,L|154:145,1,80,2|2,0:0|0:0,0:0:0:0:
233,248,129521,1,2,0:0:0:0:
254,343,129743,2,0,L|240:264,1,80,2|2,0:0|0:0,0:0:0:0:
161,367,130188,2,0,P|131:369|102:362,1,60,10|0,0:0|0:0,0:0:0:0:
54,299,130521,2,0,P|52:269|59:240,1,60,0|0,0:0|0:0,0:0:0:0:
125,69,130854,102,0,P|128:128|115:186,1,120,8|0,2:3|0:0,0:0:0:0:
245,26,131521,2,0,L|185:20,2,60,10|2|2,0:0|0:0|0:0,0:0:0:0:
314,62,132021,1,2,0:0:0:0:
314,62,132188,2,0,B|319:123|319:123|307:181,2,120,2|10|10,0:0|0:0|0:0,0:0:0:0:
340,250,133188,2,0,P|310:257|281:253,1,60,2|2,0:0|0:0,0:0:0:0:
234,155,133521,5,8,2:3:0:0:
123,297,133854,2,0,P|152:303|181:299,1,60,2|2,0:0|0:0,0:0:0:0:
208,227,134187,1,10,0:0:0:0:
135,201,134355,2,0,P|105:194|76:198,1,60,2|0,0:0|0:0,0:0:0:0:
50,271,134688,1,10,0:0:0:0:
26,139,134854,2,0,L|31:80,1,60,10|8,0:0|0:0,0:0:0:0:
150,9,135188,2,0,L|160:128,1,120,10|8,0:0|0:0,0:0:0:0:
126,311,135854,2,0,L|133:220,1,90,2|0,0:0|0:0,0:0:0:0:
135,201,136188,101,8,2:3:0:0:
327,357,136521,2,0,P|297:363|268:359,1,60,2|2,0:0|0:0,0:0:0:0:
203,317,136854,2,0,L|213:197,1,120,10|0,0:0|0:0,0:0:0:0:
256,132,137354,1,2,0:0:0:0:
207,71,137521,2,0,P|177:64|148:68,1,60,2|2,0:0|0:0,0:0:0:0:
97,127,137854,2,0,B|85:185|85:185|90:246,2,120,10|8|0,0:0|3:0|0:0,0:0:0:0:
148,68,138688,1,0,0:0:0:0:
176,266,138854,6,0,L|168:182,1,80,10|2,0:0|0:0,0:0:0:0:
258,330,139299,1,2,0:0:0:0:
354,318,139521,2,0,L|274:325,1,80,10|0,0:0|0:0,0:0:0:0:
418,236,139966,1,0,0:0:0:0:
406,140,140188,2,0,L|413:219,1,80,2|2,0:0|0:0,0:0:0:0:
324,76,140632,1,2,0:0:0:0:
260,158,140854,2,0,L|200:163,1,60,8|8,3:0|3:0,0:0:0:0:
134,206,141188,2,0,L|74:200,1,60,8|8,3:0|3:0,0:0:0:0:
203,241,141521,70,0,P|220:313|194:382,1,150,2|0,0:0|0:0,0:0:0:0:
84,356,142521,1,2,0:0:0:0:
50,247,142854,2,0,L|56:172,1,75,2|0,0:0|0:0,0:0:0:0:
108,71,143521,1,2,0:0:0:0:
344,250,144188,6,0,P|271:266|202:240,1,150,2|0,0:0|0:0,0:0:0:0:
128,150,145188,1,2,0:0:0:0:
218,75,145521,2,0,P|290:58|359:84,1,150,2|2,0:0|0:0,0:0:0:0:
282,314,146854,102,0,L|295:164,1,150,2|0,0:0|0:0,0:0:0:0:
218,75,147854,1,2,0:0:0:0:
128,150,148187,2,0,L|115:299,1,150,2|2,0:0|0:0,0:0:0:0:
308,15,149521,6,0,L|295:164,1,150,2|0,0:0|0:0,0:0:0:0:
203,239,150521,1,2,0:0:0:0:
127,149,150854,2,0,L|137:36,1,112.5,2|0,0:0|0:0,0:0:0:0:
143,0,151521,2,0,L|217:7,1,75,2|0,0:0|0:0,0:0:0:0:
399,100,152188,6,0,B|433:157|399:214|399:214|433:275|406:329,1,240,8|8,0:0|0:0,0:0:0:0:
261,384,153188,1,0,0:0:0:0:
178,249,153521,2,0,P|172:190|189:133,1,120,0|8,0:0|0:0,0:0:0:0:
295,16,154188,1,8,0:0:0:0:
64,257,154854,6,0,B|118:283|179:249|179:249|237:218|293:249,1,240,8|8,0:0|0:0,0:0:0:0:
415,346,155854,1,0,0:0:0:0:
512,224,156188,2,0,P|518:164|501:107,1,120,0|8,0:0|0:0,0:0:0:0:
385,4,156854,1,8,0:0:0:0:
179,244,157521,5,8,0:0:0:0:
254,107,157854,1,8,0:0:0:0:
335,240,158188,1,8,0:0:0:0:
197,164,158521,1,8,0:0:0:0:
197,164,158688,2,0,P|139:153|82:168,1,120,0|0,0:0|0:0,0:0:0:0:
32,228,159188,1,8,0:0:0:0:
168,303,159521,2,0,P|226:314|283:299,1,120,8|8,0:0|0:0,0:0:0:0:
335,240,160021,1,0,0:0:0:0:
335,240,160188,70,0,B|352:168|325:123|325:123|302:89|246:93|271:146|325:123|325:123|388:95|457:125,1,360,0|0,0:0|0:0,0:0:0:0:
356,351,161521,38,0,L|365:315,3,37.5,0|0|0|0,0:0|0:0|0:0|0:0,0:0:0:0:
265,297,161855,2,0,L|255:261,3,37.5,0|0|0|0,0:0|0:0|0:0|0:0,0:0:0:0:
157,340,162188,2,0,L|166:304,3,37.5,0|0|0|0,0:0|0:0|0:0|0:0,0:0:0:0:
49,383,162521,2,0,B|28:351|28:351|24:304,1,75,0|0,0:0|0:0,0:0:0:0:
37,172,162854,6,0,P|118:142|193:187,1,179.999994506836,8|0,0:0|0:0,0:0:0:0:
419,114,163521,2,0,P|337:84|263:130,1,179.999994506836,8|0,0:0|0:0,0:0:0:0:
278,304,164021,2,0,P|289:261|276:218,2,89.9999972534181,8|0|0,0:0|0:0|0:0,0:0:0:0:
122,216,164521,2,0,P|109:173|119:129,1,89.9999972534181,8|0,0:0|0:0,0:0:0:0:
200,260,164854,1,8,0:0:0:0:
122,306,165021,1,0,0:0:0:0:
200,170,165188,2,0,B|215:104|215:104|169:54,1,134.999995880127,0|0,0:0|0:0,0:0:0:0:
126,40,165521,102,0,L|305:24,1,179.999994506836,8|0,0:0|0:0,0:0:0:0:
419,133,166021,1,0,0:0:0:0:
238,135,166188,2,0,L|148:127,2,89.9999972534181,8|0|0,0:0|0:0|0:0,0:0:0:0:
419,133,166688,2,0,P|427:89|425:44,1,89.9999972534181,8|0,0:0|0:0,0:0:0:0:
374,211,167021,1,8,0:0:0:0:
238,135,167188,2,0,L|148:143,1,89.9999972534181,8|0,0:0|0:0,0:0:0:0:
28,242,167521,1,8,0:0:0:0:
173,296,167688,2,0,L|263:288,1,89.9999972534181,8|0,0:0|0:0,0:0:0:0:
374,211,168021,1,8,0:0:0:0:
165,206,168188,6,0,B|138:208|116:227|116:227|101:158|25:151,1,179.999994506836,8|0,0:0|0:0,0:0:0:0:
235,0,168854,2,0,L|250:179,1,179.999994506836,8|0,0:0|0:0,0:0:0:0:
223,356,169354,2,0,L|230:266,2,89.9999972534181,8|0|0,0:0|0:0|0:0,0:0:0:0:
381,292,169854,2,0,L|374:203,1,89.9999972534181,8|0,0:0|0:0,0:0:0:0:
302,50,170188,1,8,0:0:0:0:
391,66,170354,1,0,0:0:0:0:
258,129,170521,2,0,P|213:131|168:123,1,89.9999972534181,0|0,0:0|0:0,0:0:0:0:
14,38,170854,102,0,P|79:92|61:176,1,179.999994506836,8|0,0:0|0:0,0:0:0:0:
164,384,171521,2,0,P|98:329|117:246,1,179.999994506836,8|0,0:0|0:0,0:0:0:0:
285,202,172021,2,0,P|243:218|199:212,1,89.9999972534181,8|0,0:0|0:0,0:0:0:0:
60,176,172354,1,0,0:0:0:0:
181,60,172521,2,0,P|215:87|233:128,1,89.9999972534181,8|0,0:0|0:0,0:0:0:0:
265,306,172854,1,8,0:0:0:0:
374,193,173021,2,0,P|376:148|368:103,1,89.9999972534181,8|0,0:0|0:0,0:0:0:0:
249,1,173354,1,8,0:0:0:0:
285,202,173521,6,0,B|242:218|242:218|205:151|227:88,1,179.999994506836,8|0,0:0|0:0,0:0:0:0:
43,302,174188,2,0,B|27:259|27:259|94:222|156:244,1,179.999994506836,8|0,0:0|0:0,0:0:0:0:
310,298,174688,2,0,P|265:306|220:304,2,89.9999972534181,8|0|0,0:0|0:0|0:0,0:0:0:0:
448,225,175188,2,0,P|449:180|441:135,1,89.9999972534181,8|0,0:0|0:0,0:0:0:0:
339,18,175521,1,8,0:0:0:0:
424,48,175688,1,0,0:0:0:0:
271,76,175854,2,0,P|204:76|144:45,1,134.999995880127,0|0,0:0|0:0,0:0:0:0:
101,34,176188,102,0,B|131:119|131:119|103:205,1,179.999994506836,8|0,0:0|0:0,0:0:0:0:
0,322,176688,1,0,0:0:0:0:
170,265,176854,2,0,L|259:272,2,89.9999972534181,8|0|0,0:0|0:0|0:0,0:0:0:0:
16,231,177354,2,0,P|10:186|26:145,1,89.9999972534181,8|0,0:0|0:0,0:0:0:0:
85,294,177688,1,8,0:0:0:0:
190,173,177854,2,0,P|195:128|179:87,1,89.9999972534181,8|0,0:0|0:0,0:0:0:0:
5,40,178188,1,8,0:0:0:0:
156,0,178354,2,0,L|245:7,1,89.9999972534181,8|0,0:0|0:0,0:0:0:0:
93,60,178688,1,8,0:0:0:0:
296,77,178854,6,0,B|315:65|325:44|325:44|311:112|335:177,1,179.999994506836,8|0,0:0|0:0,0:0:0:0:
80,221,179521,2,0,P|156:176|244:183,1,179.999994506836,8|0,0:0|0:0,0:0:0:0:
381,254,180021,2,0,P|338:267|295:259,2,89.9999972534181,8|0|0,0:0|0:0|0:0,0:0:0:0:
244,183,180521,2,0,P|201:173|156:176,1,89.9999972534181,8|0,0:0|0:0,0:0:0:0:
48,242,180854,1,8,0:0:0:0:
135,263,181021,1,0,0:0:0:0:
69,155,181188,2,0,P|65:110|76:66,1,89.9999972534181,0|0,0:0|0:0,0:0:0:0:
249,28,181521,38,0,B|210:54|163:38|163:38|215:73|272:53|272:53|328:32|393:56,1,314.999990386963,4|0,0:0|0:0,0:0:0:0:
447,112,182854,6,0,P|451:157|440:201,1,89.9999972534181,0|0,0:0|0:0,0:0:0:0:
361,343,183188,2,0,P|357:298|368:255,1,89.9999972534181,0|0,0:0|0:0,0:0:0:0:
460,94,183521,1,8,0:0:0:0:
451,290,183688,1,8,0:0:0:0:
451,290,184021,1,8,0:0:0:0:
286,185,184188,70,0,L|196:192,1,89.9999972534181,8|0,0:0|0:0,0:0:0:0:
43,222,184521,1,8,0:0:0:0:
128,250,184688,1,2,0:0:0:0:
128,250,184771,1,2,0:0:0:0:
128,250,184854,1,2,0:0:0:0:
25,134,185021,1,8,0:0:0:0:
59,308,185188,2,0,P|140:339|209:286,1,179.999994506836,8|0,0:0|0:0,0:0:0:0:
243,145,185688,1,8,0:3:0:0:
128,250,185854,5,8,0:3:0:0:
110,162,186021,1,0,0:0:0:0:
131,263,186188,1,0,0:0:0:0:
107,149,186355,1,8,0:3:0:0:
134,276,186521,1,8,0:3:0:0:
104,136,186688,1,0,0:0:0:0:
223,262,186854,102,0,P|266:272|311:268,1,89.9999972534181,8|0,0:0|0:0,0:0:0:0:
298,122,187188,2,0,P|254:111|209:115,1,89.9999972534181,8|2,0:0|0:0,0:0:0:0:
193,122,187438,1,2,0:0:0:0:
195,104,187521,1,2,0:0:0:0:
197,86,187604,1,2,0:0:0:0:
199,68,187688,1,8,0:3:0:0:
22,101,187854,2,0,B|15:145|15:145|30:188,1,89.9999972534181,8|0,0:0|0:0,0:0:0:0:
116,367,188188,86,0,L|124:278,1,89.9999972534181,0|8,0:0|3:0,0:0:0:0:
193,122,188521,2,0,L|200:211,1,89.9999972534181,8|0,0:3|0:0,0:0:0:0:
269,367,188854,1,2,0:0:0:0:
288,230,189021,1,8,0:0:0:0:
359,368,189188,1,8,0:0:0:0:
221,291,189354,1,8,0:0:0:0:
380,380,189521,22,0,B|424:387|424:387|467:372,1,89.9999972534181,8|0,0:0|0:0,0:0:0:0:
402,188,189854,2,0,B|373:222|373:222|365:267,1,89.9999972534181,8|2,0:0|0:0,0:0:0:0:
363,290,190104,1,2,0:0:0:0:
363,290,190188,1,2,0:0:0:0:
491,203,190354,1,8,0:0:0:0:
313,173,190521,2,0,L|133:188,1,179.999994506836,8|0,0:0|0:0,0:0:0:0:
193,271,191021,1,8,0:3:0:0:
141,98,191188,5,8,0:3:0:0:
60,137,191355,1,0,0:0:0:0:
153,92,191521,1,0,0:0:0:0:
48,143,191688,1,8,0:3:0:0:
165,86,191854,1,8,0:3:0:0:
36,149,192021,1,0,0:0:0:0:
210,164,192188,102,0,P|254:169|295:153,1,89.9999972534181,8|0,0:0|0:0,0:0:0:0:
465,90,192521,2,0,P|420:84|379:100,1,89.9999972534181,8|2,0:0|0:0,0:0:0:0:
379,119,192771,1,2,0:0:0:0:
378,137,192854,1,2,0:0:0:0:
377,155,192938,1,2,0:0:0:0:
376,173,193021,1,8,0:3:0:0:
418,337,193188,2,0,L|426:248,1,89.9999972534181,8|0,0:0|0:0,0:0:0:0:
240,323,193521,86,0,P|283:333|328:328,1,89.9999972534181,0|8,0:0|3:0,0:0:0:0:
206,239,193854,2,0,P|162:228|117:233,1,89.9999972534181,8|0,0:3|0:0,0:0:0:0:
21,345,194188,1,2,0:0:0:0:
117,233,194354,1,8,0:0:0:0:
104,380,194521,1,8,0:0:0:0:
34,198,194688,1,8,0:0:0:0:
34,198,194771,1,8,0:0:0:0:
34,198,194854,22,0,P|29:154|45:113,1,89.9999972534181,8|0,0:0|0:0,0:0:0:0:
215,34,195188,2,0,L|125:41,1,89.9999972534181,8|2,0:0|0:0,0:0:0:0:
103,45,195438,1,2,0:0:0:0:
103,45,195521,1,2,0:0:0:0:
146,155,195688,1,8,0:0:0:0:
283,93,195854,2,0,B|371:101|371:101|429:171,1,179.999994506836,8|0,0:0|0:0,0:0:0:0:
471,251,196354,1,8,0:3:0:0:
330,181,196521,5,8,0:3:0:0:
372,101,196688,1,0,0:0:0:0:
324,193,196854,1,0,0:0:0:0:
378,89,197021,1,8,0:3:0:0:
318,205,197188,1,8,0:3:0:0:
384,77,197354,1,0,0:0:0:0:
383,267,197521,102,0,P|388:311|378:355,1,89.9999972534181,8|0,0:0|0:0,0:0:0:0:
224,296,197854,2,0,P|218:251|228:207,1,89.9999972534181,8|2,0:0|0:0,0:0:0:0:
236,191,198104,1,2,0:0:0:0:
243,174,198188,1,2,0:0:0:0:
250,157,198271,1,2,0:0:0:0:
257,140,198354,1,8,0:3:0:0:
129,273,198521,2,0,P|85:278|44:262,1,89.9999972534181,8|0,0:0|0:0,0:0:0:0:
137,94,198854,86,0,L|144:183,1,89.9999972534181,0|8,0:0|3:0,0:0:0:0:
210,378,199188,2,0,L|217:288,1,89.9999972534181,8|0,0:3|0:0,0:0:0:0:
257,140,199521,1,2,0:0:0:0:
340,257,199688,1,8,0:0:0:0:
264,123,199854,1,8,0:0:0:0:
217,288,200021,1,8,0:0:0:0:
343,167,200188,22,0,P|354:123|343:80,1,89.9999972534181,8|0,0:0|0:0,0:0:0:0:
185,79,200521,2,0,P|173:122|184:165,1,89.9999972534181,8|2,0:0|0:0,0:0:0:0:
197,184,200771,1,2,0:0:0:0:
197,184,200854,1,2,0:0:0:0:
66,233,201021,1,8,0:0:0:0:
217,288,201188,2,0,L|306:280,1,89.9999972534181,8|0,0:0|0:0,0:0:0:0:
329,276,201438,1,0,0:0:0:0:
329,276,201521,6,0,P|339:232|333:187,1,89.9999972534181,0|8,0:0|0:0,0:0:0:0:
254,25,201854,2,0,P|243:68|249:113,1,89.9999972534181,8|0,0:0|0:0,0:0:0:0:
264,130,202104,1,0,0:0:0:0:
264,130,202188,1,0,0:0:0:0:
344,32,202354,1,8,0:0:0:0:
162,92,202521,2,0,L|72:84,1,89.9999972534181,8|0,0:0|0:0,0:0:0:0:
60,215,202854,6,0,L|51:171,3,44.999998626709,8|0|0|0,0:0|0:0|0:0|0:0,0:0:0:0:
133,267,203188,2,0,L|124:311,1,44.999998626709,0|0,0:0|0:0,0:0:0:0:
206,215,203354,2,0,L|197:171,3,44.999998626709,8|0|0|0,0:0|0:0|0:0|0:0,0:0:0:0:
279,267,203688,2,0,L|270:311,1,44.999998626709,0|0,0:0|0:0,0:0:0:0:
352,215,203854,2,0,L|343:171,3,44.999998626709,8|0|0|0,0:0|0:0|0:0|0:0,0:0:0:0:
441,152,204188,37,0,0:0:0:0:
433,124,204271,1,0,0:0:0:0:
423,100,204354,1,8,0:3:0:0:
409,77,204438,1,0,0:0:0:0:
391,56,204521,2,0,P|376:38|357:27,3,44.999998626709,0|0|8|0,0:0|0:0|0:3|0:0,0:0:0:0:
316,108,204855,1,8,0:0:0:0:
283,112,204938,1,0,0:0:0:0:
250,111,205021,1,8,0:3:0:0:
216,107,205105,1,0,0:0:0:0:
185,95,205188,2,0,P|142:84|97:90,1,89.9999972534181,8|0,3:0|0:0,0:0:0:0:
158,280,205521,70,0,B|180:252|175:209|175:209|235:267|322:241,1,225,2|0,0:0|0:0,0:0:0:0:
400,171,206854,1,2,0:0:0:0:
400,171,207521,2,0,P|421:108|356:92,1,150,2|0,0:0|0:0,0:0:0:0:
252,134,208521,2,0,B|112:98|175:178|34:146|34:146|101:198|68:294,1,375,2|0,0:0|0:0,0:0:0:0:
72,280,210854,6,0,B|159:264|159:264|200:284|200:284|288:268,1,225,2|0,0:0|0:0,0:0:0:0:
377,197,212188,1,2,0:0:0:0:
377,197,212854,2,0,P|304:211|234:188,1,150,2|0,0:0|0:0,0:0:0:0:
151,111,213854,2,0,B|156:70|180:43|180:43|309:86|255:13|398:52|398:52|356:63|323:100,1,375,2|0,0:0|0:0,0:0:0:0:
332,90,216188,102,0,B|303:146|325:199|325:199|305:254|339:305,1,225,2|0,0:0|0:0,0:0:0:0:
430,239,217521,1,2,0:0:0:0:
430,239,218188,2,0,L|434:90,1,150,2|0,0:0|0:0,0:0:0:0:
365,0,219188,2,0,B|270:75|157:5|157:5|175:45|157:80|157:80|202:85|220:126,1,375,2|0,0:0|0:0,0:0:0:0:
216,118,221521,6,0,P|280:169|182:185,1,225,2|0,0:0|0:0,0:0:0:0:
103,115,222854,1,2,0:0:0:0:
103,115,223521,2,0,P|81:186|107:254,1,150,2|0,0:0|0:0,0:0:0:0:
202,314,224521,2,0,B|283:359|339:301|332:210|254:222|269:281,1,225,2|2,0:0|0:0,0:0:0:0:
