osu file format v14

[General]
AudioFilename: audio.mp3
AudioLeadIn: 0
PreviewTime: 65521
Countdown: 0
SampleSet: Soft
StackLeniency: 0.4
Mode: 0
LetterboxInBreaks: 0
WidescreenStoryboard: 1

[Editor]
DistanceSpacing: 1.5
BeatDivisor: 4
GridSize: 4
TimelineZoom: 1.900001

[Metadata]
Title:Nothing More
TitleUnicode:Nothing More
Artist:Mazare & Luma
ArtistUnicode:Mazare & Luma
Creator:Flowziee
Version:HOS' Hard
Source:
Tags:dnb drum and n & bass dance english electronic monstercat instinct vol. 3 'n' HOS HootOwlStar JayBone
BeatmapID:2338724
BeatmapSetID:1097424

[Difficulty]
HPDrainRate:4
CircleSize:4
OverallDifficulty:6
ApproachRate:7.5
SliderMultiplier:1.4
SliderTickRate:1

[Events]
//Background and Video events
0,0,"bg.jpg",0,0
//Break Periods
2,109721,118321
//Storyboard Layer 0 (Background)
//Storyboard Layer 1 (Fail)
//Storyboard Layer 2 (Pass)
//Storyboard Layer 3 (Foreground)
//Storyboard Layer 4 (Overlay)
//Storyboard Sound Samples

[TimingPoints]
2855,333.333333333333,4,2,0,30,1,0
2855,-250,4,2,6,30,0,0
7563,-250,4,2,6,10,0,0
8188,-250,4,2,6,30,0,0
13229,-250,4,2,6,10,0,0
13521,-250,4,2,6,30,0,0
18229,-250,4,2,6,10,0,0
18854,-250,4,2,6,30,0,0
23521,-111.111111111111,4,3,0,60,0,0
24188,-111.111111111111,4,3,1,40,0,0
24854,-111.111111111111,4,3,2,40,0,0
25854,-111.111111111111,4,3,1,40,0,0
26188,-111.111111111111,4,3,2,40,0,0
26854,-111.111111111111,4,3,1,40,0,0
27521,-111.111111111111,4,3,2,40,0,0
28021,-111.111111111111,4,3,1,40,0,0
28354,-111.111111111111,4,3,2,40,0,0
28521,-111.111111111111,4,3,1,40,0,0
28854,-111.111111111111,4,3,2,40,0,0
29521,-111.111111111111,4,3,1,40,0,0
30188,-111.111111111111,4,3,2,40,0,0
31188,-111.111111111111,4,3,1,40,0,0
31521,-111.111111111111,4,3,2,40,0,0
32188,-111.111111111111,4,3,1,40,0,0
32854,-111.111111111111,4,3,2,40,0,0
33521,-111.111111111111,4,3,1,40,0,0
34188,-111.111111111111,4,3,2,40,0,0
34854,-111.111111111111,4,3,1,40,0,0
35521,-111.111111111111,4,3,2,40,0,0
36521,-111.111111111111,4,3,1,40,0,0
36854,-111.111111111111,4,3,2,40,0,0
37521,-111.111111111111,4,3,1,40,0,0
38188,-111.111111111111,4,3,2,40,0,0
38688,-111.111111111111,4,3,1,40,0,0
39021,-111.111111111111,4,3,2,40,0,0
39188,-111.111111111111,4,3,1,40,0,0
39521,-111.111111111111,4,3,2,40,0,0
40188,-111.111111111111,4,3,1,40,0,0
40854,-111.111111111111,4,3,2,40,0,0
41854,-111.111111111111,4,3,1,40,0,0
42188,-111.111111111111,4,3,2,40,0,0
42854,-111.111111111111,4,3,1,40,0,0
43521,-111.111111111111,4,3,2,40,0,0
44021,-111.111111111111,4,3,1,40,0,0
44854,-111.111111111111,4,3,0,50,0,0
45521,-133.333333333333,4,3,1,60,0,0
56188,-111.111111111111,4,3,1,60,0,0
56521,-111.111111111111,4,3,2,60,0,0
57021,-111.111111111111,4,3,1,60,0,0
57188,-111.111111111111,4,3,2,60,0,0
57521,-111.111111111111,4,3,1,65,0,0
57854,-111.111111111111,4,3,2,65,0,0
58354,-111.111111111111,4,3,1,65,0,0
58521,-111.111111111111,4,3,2,65,0,0
58854,-111.111111111111,4,3,1,70,0,0
59188,-111.111111111111,4,3,2,70,0,0
59688,-111.111111111111,4,3,1,70,0,0
59854,-111.111111111111,4,3,2,70,0,0
60188,-111.111111111111,4,3,1,75,0,0
60521,-111.111111111111,4,3,2,75,0,0
61021,-111.111111111111,4,3,1,75,0,0
61188,-111.111111111111,4,3,2,75,0,0
61521,-111.111111111111,4,3,1,80,0,0
62188,-111.111111111111,4,3,1,80,0,0
62521,-111.111111111111,4,3,1,80,0,0
63521,-111.111111111111,4,3,1,80,0,0
63854,-111.111111111111,4,3,1,80,0,0
64188,-111.111111111111,4,2,5,70,0,0
64854,-111.111111111111,4,2,3,75,0,0
65021,-111.111111111111,4,2,5,75,0,0
65521,-111.111111111111,4,2,3,80,0,0
65688,-111.111111111111,4,2,5,80,0,0
65854,-111.111111111111,4,2,5,85,0,0
66188,-111.111111111111,4,2,3,90,0,0
66354,-111.111111111111,4,2,5,90,0,0
66771,-111.111111111111,4,2,5,10,0,0
66854,-100,4,3,1,80,0,0
67188,-100,4,3,2,80,0,0
67688,-100,4,3,1,80,0,0
67854,-100,4,3,2,80,0,0
68354,-100,4,3,1,80,0,0
68438,-100,4,3,1,10,0,0
68521,-100,4,3,2,80,0,0
69021,-100,4,3,1,80,0,0
69188,-100,4,3,2,80,0,0
69521,-100,4,3,1,80,0,0
69854,-100,4,3,2,80,0,0
70354,-100,4,3,1,80,0,0
70438,-100,4,3,1,10,0,0
70521,-100,4,3,2,80,0,0
71021,-100,4,3,1,80,0,0
71104,-100,4,3,1,10,0,0
71188,-100,4,3,2,80,0,0
71688,-100,4,3,1,80,0,0
71771,-100,4,3,1,10,0,0
71854,-100,4,3,2,80,0,0
71938,-100,4,3,1,10,0,0
72021,-100,4,3,1,80,0,0
72104,-100,4,3,1,20,0,0
72188,-100,4,3,1,80,0,0
72521,-100,4,3,2,80,0,0
73021,-100,4,3,1,80,0,0
73188,-100,4,3,2,80,0,0
73688,-100,4,3,1,80,0,0
73771,-100,4,3,1,10,0,0
73854,-100,4,3,2,80,0,0
74354,-100,4,3,1,80,0,0
74521,-100,4,3,2,80,0,0
74854,-100,4,3,1,80,0,0
75188,-100,4,3,2,80,0,0
75688,-100,4,3,1,80,0,0
75771,-100,4,3,1,10,0,0
75854,-100,4,3,2,80,0,0
76354,-100,4,3,1,80,0,0
76438,-100,4,3,1,10,0,0
76521,-100,4,3,2,80,0,0
77021,-100,4,3,1,80,0,0
77104,-100,4,3,1,10,0,0
77188,-100,4,3,2,80,0,0
77271,-100,4,3,1,10,0,0
77354,-100,4,3,1,80,0,0
77854,-100,4,3,2,80,0,0
78354,-100,4,3,1,80,0,0
78521,-100,4,3,2,80,0,0
79021,-100,4,3,1,80,0,0
79104,-100,4,3,1,10,0,0
79188,-100,4,3,2,80,0,0
79688,-100,4,3,1,80,0,0
79854,-100,4,3,2,80,0,0
80188,-100,4,3,1,80,0,0
80521,-100,4,3,2,80,0,0
81021,-100,4,3,1,80,0,0
81104,-100,4,3,1,10,0,0
81188,-100,4,3,2,80,0,0
81688,-100,4,3,1,80,0,0
81771,-100,4,3,1,10,0,0
81854,-100,4,3,2,80,0,0
82354,-100,4,3,1,80,0,0
82438,-100,4,3,1,10,0,0
82521,-100,4,3,2,80,0,0
82604,-100,4,3,1,10,0,0
82688,-100,4,3,1,80,0,0
82771,-100,4,3,1,10,0,0
82854,-100,4,3,1,80,0,0
83188,-100,4,3,2,80,0,0
83688,-100,4,3,1,80,0,0
83854,-100,4,3,2,80,0,0
84354,-100,4,3,1,80,0,0
84438,-100,4,3,1,10,0,0
84521,-100,4,3,2,80,0,0
85021,-100,4,3,1,80,0,0
85188,-100,4,3,2,80,0,0
85521,-100,4,3,1,80,0,0
85854,-100,4,3,2,80,0,0
86354,-100,4,3,1,80,0,0
86438,-100,4,3,1,10,0,0
86521,-100,4,3,2,80,0,0
87021,-100,4,3,1,80,0,0
87104,-100,4,3,1,10,0,0
87188,-100,4,3,2,80,0,0
87521,-100,4,3,1,80,0,0
87604,-100,4,3,1,10,0,0
87688,-100,4,3,2,80,0,0
88021,-100,4,3,1,80,0,0
88104,-100,4,3,1,10,0,0
88188,-90.9090909090909,4,3,1,90,0,1
88521,-90.9090909090909,4,3,2,90,0,1
88688,-90.9090909090909,4,2,1,90,0,1
89021,-90.9090909090909,4,3,1,90,0,1
89188,-90.9090909090909,4,3,2,90,0,1
89521,-90.9090909090909,4,2,1,90,0,1
89854,-90.9090909090909,4,2,2,90,0,1
89938,-90.9090909090909,4,2,1,10,0,1
90021,-90.9090909090909,4,2,2,90,0,1
90104,-90.9090909090909,4,2,1,10,0,1
90188,-90.9090909090909,4,2,2,90,0,1
90271,-90.9090909090909,4,2,1,10,0,1
90354,-90.9090909090909,4,2,4,90,0,1
90438,-90.9090909090909,4,2,1,10,0,1
90521,-90.9090909090909,4,2,2,90,0,1
90604,-90.9090909090909,4,2,1,10,0,1
90688,-90.9090909090909,4,2,2,90,0,1
90771,-90.9090909090909,4,2,1,10,0,1
90854,-90.9090909090909,4,3,1,90,0,1
91188,-90.9090909090909,4,3,2,90,0,1
91354,-90.9090909090909,4,2,1,90,0,1
91854,-90.9090909090909,4,3,2,90,0,1
92188,-90.9090909090909,4,2,6,90,0,1
92521,-90.9090909090909,4,2,7,90,0,1
92688,-90.9090909090909,4,2,1,90,0,1
92854,-90.9090909090909,4,2,1,90,0,1
93021,-90.9090909090909,4,3,1,90,0,1
93188,-90.9090909090909,4,3,2,90,0,1
93354,-90.9090909090909,4,3,1,90,0,1
93854,-90.9090909090909,4,3,2,90,0,1
94021,-90.9090909090909,4,2,1,90,0,1
94354,-90.9090909090909,4,3,1,90,0,1
94521,-90.9090909090909,4,3,2,90,0,1
94854,-90.9090909090909,4,2,1,90,0,1
95188,-90.9090909090909,4,2,2,90,0,1
95271,-90.9090909090909,4,2,1,10,0,1
95354,-90.9090909090909,4,2,2,90,0,1
95438,-90.9090909090909,4,2,1,10,0,1
95521,-90.9090909090909,4,2,2,90,0,1
95604,-90.9090909090909,4,2,1,10,0,1
95688,-90.9090909090909,4,2,4,90,0,1
95771,-90.9090909090909,4,2,1,10,0,1
95854,-90.9090909090909,4,2,2,90,0,1
95938,-90.9090909090909,4,2,1,10,0,1
96021,-90.9090909090909,4,2,2,90,0,1
96104,-90.9090909090909,4,2,1,10,0,1
96188,-90.9090909090909,4,3,1,90,0,1
96521,-90.9090909090909,4,3,2,90,0,1
96688,-90.9090909090909,4,2,1,90,0,1
97188,-90.9090909090909,4,3,2,90,0,1
97521,-90.9090909090909,4,2,6,90,0,1
97854,-90.9090909090909,4,2,7,90,0,1
98021,-90.9090909090909,4,2,1,90,0,1
98188,-90.9090909090909,4,2,1,90,0,1
98354,-90.9090909090909,4,3,1,90,0,1
98521,-90.9090909090909,4,3,2,90,0,1
98688,-90.9090909090909,4,3,1,90,0,1
99188,-90.9090909090909,4,3,2,90,0,1
99354,-90.9090909090909,4,2,1,90,0,1
99688,-90.9090909090909,4,3,1,90,0,1
99854,-90.9090909090909,4,3,2,90,0,1
100188,-90.9090909090909,4,2,1,90,0,1
100521,-90.9090909090909,4,2,2,90,0,1
100604,-90.9090909090909,4,2,1,10,0,1
100688,-90.9090909090909,4,2,2,90,0,1
100771,-90.9090909090909,4,2,1,10,0,1
100854,-90.9090909090909,4,2,2,90,0,1
100938,-90.9090909090909,4,2,1,10,0,1
101021,-90.9090909090909,4,2,4,90,0,1
101104,-90.9090909090909,4,2,1,10,0,1
101188,-90.9090909090909,4,2,2,90,0,1
101271,-90.9090909090909,4,2,1,10,0,1
101354,-90.9090909090909,4,2,2,90,0,1
101438,-90.9090909090909,4,2,1,10,0,1
101521,-90.9090909090909,4,3,1,90,0,1
101854,-90.9090909090909,4,3,2,90,0,1
102021,-90.9090909090909,4,2,1,90,0,1
102521,-90.9090909090909,4,3,2,90,0,1
102854,-90.9090909090909,4,2,6,90,0,1
103188,-90.9090909090909,4,2,7,90,0,1
103354,-90.9090909090909,4,2,1,90,0,1
103521,-90.9090909090909,4,2,1,90,0,1
103688,-90.9090909090909,4,3,1,90,0,1
103854,-90.9090909090909,4,3,2,90,0,1
104021,-90.9090909090909,4,3,1,90,0,1
104521,-90.9090909090909,4,3,2,90,0,1
104688,-90.9090909090909,4,2,1,90,0,1
105021,-90.9090909090909,4,3,1,90,0,1
105188,-90.9090909090909,4,3,2,90,0,1
105688,-90.9090909090909,4,3,1,90,0,1
105854,-90.9090909090909,4,3,2,90,0,1
106354,-90.9090909090909,4,3,1,90,0,1
106521,-90.9090909090909,4,3,2,90,0,1
106854,-100,4,2,5,70,0,1
107521,-100,4,2,3,75,0,1
107688,-100,4,2,5,75,0,1
108188,-100,4,2,3,80,0,1
108354,-100,4,2,5,80,0,1
108521,-100,4,2,5,85,0,1
108854,-100,4,2,3,90,0,1
109021,-100,4,2,5,90,0,1
109521,-111.111111111111,4,2,5,60,0,0
119521,-111.111111111111,4,3,0,60,0,0
120188,-111.111111111111,4,3,1,40,0,0
120854,-111.111111111111,4,3,2,40,0,0
121854,-111.111111111111,4,3,1,40,0,0
122188,-111.111111111111,4,3,2,40,0,0
122854,-111.111111111111,4,3,1,40,0,0
123521,-111.111111111111,4,3,2,40,0,0
124021,-111.111111111111,4,3,1,40,0,0
124354,-111.111111111111,4,3,2,40,0,0
124521,-111.111111111111,4,3,1,40,0,0
124854,-111.111111111111,4,3,2,40,0,0
125521,-111.111111111111,4,3,1,40,0,0
126188,-111.111111111111,4,3,2,40,0,0
127188,-111.111111111111,4,3,1,40,0,0
127521,-111.111111111111,4,3,2,40,0,0
128188,-111.111111111111,4,3,1,40,0,0
128854,-111.111111111111,4,3,2,40,0,0
129521,-111.111111111111,4,3,1,40,0,0
130188,-111.111111111111,4,3,2,40,0,0
130854,-111.111111111111,4,3,1,40,0,0
131521,-111.111111111111,4,3,2,40,0,0
132521,-111.111111111111,4,3,1,40,0,0
132854,-111.111111111111,4,3,2,40,0,0
133521,-111.111111111111,4,3,1,40,0,0
134188,-111.111111111111,4,3,2,40,0,0
134688,-111.111111111111,4,3,1,40,0,0
135021,-111.111111111111,4,3,2,40,0,0
135188,-111.111111111111,4,3,1,40,0,0
135521,-111.111111111111,4,3,2,40,0,0
136188,-111.111111111111,4,3,1,40,0,0
136854,-111.111111111111,4,3,2,40,0,0
137854,-111.111111111111,4,3,1,40,0,0
138188,-111.111111111111,4,3,2,40,0,0
138854,-111.111111111111,4,3,1,40,0,0
139521,-111.111111111111,4,3,2,40,0,0
140021,-111.111111111111,4,3,1,40,0,0
140854,-111.111111111111,4,3,0,40,0,0
141521,-133.333333333333,4,3,1,50,0,0
152188,-111.111111111111,4,3,1,60,0,0
152854,-111.111111111111,4,3,2,60,0,0
153854,-111.111111111111,4,3,1,60,0,0
154188,-111.111111111111,4,3,2,60,0,0
154854,-111.111111111111,4,3,1,60,0,0
155521,-111.111111111111,4,3,2,60,0,0
156521,-111.111111111111,4,3,1,60,0,0
156854,-111.111111111111,4,3,2,60,0,0
157521,-111.111111111111,4,3,1,60,0,0
158188,-111.111111111111,4,3,2,60,0,0
158521,-111.111111111111,4,3,1,60,0,0
159521,-111.111111111111,4,3,2,60,0,0
159854,-111.111111111111,4,3,1,60,0,0
160188,-111.111111111111,4,2,5,70,0,0
160854,-111.111111111111,4,2,5,75,0,0
161521,-111.111111111111,4,2,3,80,0,0
161854,-111.111111111111,4,2,3,85,0,0
162188,-111.111111111111,4,2,5,90,0,0
162354,-250,4,2,5,90,0,0
162771,-250,4,2,5,10,0,0
162854,-100,4,3,1,80,0,0
163104,-100,4,3,1,10,0,0
163188,-100,4,3,1,80,0,0
163521,-100,4,3,2,80,0,0
163771,-100,4,3,2,10,0,0
163854,-100,4,3,2,80,0,0
164021,-100,4,3,1,80,0,0
164854,-100,4,3,2,80,0,0
165521,-100,4,3,1,80,0,0
166188,-100,4,3,2,80,0,0
166438,-100,4,3,2,10,0,0
166521,-100,4,3,2,80,0,0
166688,-100,4,3,1,80,0,0
167104,-100,4,3,1,10,0,0
167188,-100,4,3,1,80,0,0
167521,-100,4,3,2,80,0,0
167604,-100,4,3,1,10,0,0
167688,-100,4,3,1,80,0,0
168104,-100,4,3,1,10,0,0
168188,-100,4,3,1,80,0,0
168438,-100,4,3,1,10,0,0
168521,-100,4,3,1,80,0,0
168854,-100,4,3,2,80,0,0
169104,-100,4,3,2,10,0,0
169188,-100,4,3,2,80,0,0
169354,-100,4,3,1,80,0,0
170188,-100,4,3,2,80,0,0
170854,-100,4,3,1,80,0,0
171521,-100,4,3,2,80,0,0
171771,-100,4,3,2,10,0,0
171854,-100,4,3,2,80,0,0
172021,-100,4,3,1,80,0,0
172854,-100,4,3,2,80,0,0
172938,-100,4,3,1,10,0,0
173021,-100,4,3,1,80,0,0
173438,-100,4,3,1,10,0,0
173521,-100,4,3,1,80,0,0
173771,-100,4,3,1,10,0,0
173854,-100,4,3,1,80,0,0
174188,-100,4,3,2,80,0,0
174438,-100,4,3,2,10,0,0
174521,-100,4,3,2,80,0,0
174688,-100,4,3,1,80,0,0
175521,-100,4,3,2,80,0,0
176188,-100,4,3,1,80,0,0
176854,-100,4,3,2,80,0,0
177104,-100,4,3,2,10,0,0
177188,-100,4,3,2,80,0,0
177354,-100,4,3,1,80,0,0
177771,-100,4,3,1,10,0,0
177854,-100,4,3,1,80,0,0
178188,-100,4,3,2,80,0,0
178271,-100,4,3,1,10,0,0
178354,-100,4,3,1,80,0,0
178771,-100,4,3,1,10,0,0
178854,-100,4,3,1,80,0,0
179104,-100,4,3,1,10,0,0
179188,-100,4,3,1,80,0,0
179521,-100,4,3,2,80,0,0
179771,-100,4,3,2,10,0,0
179854,-100,4,3,2,80,0,0
180021,-100,4,3,1,80,0,0
180854,-100,4,3,2,80,0,0
181521,-100,4,3,1,80,0,0
182521,-100,4,2,3,80,0,0
183521,-100,4,3,2,80,0,0
183688,-100,4,3,1,80,0,0
184188,-90.9090909090909,4,3,1,90,0,1
184521,-90.9090909090909,4,3,2,90,0,1
184688,-90.9090909090909,4,2,1,90,0,1
185021,-90.9090909090909,4,3,1,90,0,1
185188,-90.9090909090909,4,3,2,90,0,1
185521,-90.9090909090909,4,2,1,90,0,1
185854,-90.9090909090909,4,2,2,90,0,1
185938,-90.9090909090909,4,2,1,10,0,1
186021,-90.9090909090909,4,2,2,90,0,1
186104,-90.9090909090909,4,2,1,10,0,1
186188,-90.9090909090909,4,2,2,90,0,1
186271,-90.9090909090909,4,2,1,10,0,1
186354,-90.9090909090909,4,2,4,90,0,1
186438,-90.9090909090909,4,2,1,10,0,1
186521,-90.9090909090909,4,2,2,90,0,1
186604,-90.9090909090909,4,2,1,10,0,1
186688,-90.9090909090909,4,2,2,90,0,1
186771,-90.9090909090909,4,2,1,10,0,1
186854,-90.9090909090909,4,3,1,90,0,1
187188,-90.9090909090909,4,3,2,90,0,1
187354,-90.9090909090909,4,2,1,90,0,1
187854,-90.9090909090909,4,3,2,90,0,1
188188,-90.9090909090909,4,2,6,90,0,1
188521,-90.9090909090909,4,2,7,90,0,1
188688,-90.9090909090909,4,2,1,90,0,1
188854,-90.9090909090909,4,2,1,90,0,1
189021,-90.9090909090909,4,3,1,90,0,1
189188,-90.9090909090909,4,3,2,90,0,1
189354,-90.9090909090909,4,3,1,90,0,1
189854,-90.9090909090909,4,3,2,90,0,1
190021,-90.9090909090909,4,2,1,90,0,1
190354,-90.9090909090909,4,3,1,90,0,1
190521,-90.9090909090909,4,3,2,90,0,1
190854,-90.9090909090909,4,2,1,90,0,1
191188,-90.9090909090909,4,2,2,90,0,1
191271,-90.9090909090909,4,2,1,10,0,1
191354,-90.9090909090909,4,2,2,90,0,1
191438,-90.9090909090909,4,2,1,10,0,1
191521,-90.9090909090909,4,2,2,90,0,1
191604,-90.9090909090909,4,2,1,10,0,1
191688,-90.9090909090909,4,2,4,90,0,1
191771,-90.9090909090909,4,2,1,10,0,1
191854,-90.9090909090909,4,2,2,90,0,1
191938,-90.9090909090909,4,2,1,10,0,1
192021,-90.9090909090909,4,2,2,90,0,1
192104,-90.9090909090909,4,2,1,10,0,1
192188,-90.9090909090909,4,3,1,90,0,1
192521,-90.9090909090909,4,3,2,90,0,1
192688,-90.9090909090909,4,2,1,90,0,1
193188,-90.9090909090909,4,3,2,90,0,1
193521,-90.9090909090909,4,2,6,90,0,1
193854,-90.9090909090909,4,2,7,90,0,1
194021,-90.9090909090909,4,2,1,90,0,1
194188,-90.9090909090909,4,2,1,90,0,1
194354,-90.9090909090909,4,3,1,90,0,1
194521,-90.9090909090909,4,3,2,90,0,1
194688,-90.9090909090909,4,3,1,90,0,1
195188,-90.9090909090909,4,3,2,90,0,1
195354,-90.9090909090909,4,2,1,90,0,1
195688,-90.9090909090909,4,3,1,90,0,1
195854,-90.9090909090909,4,3,2,90,0,1
196188,-90.9090909090909,4,2,1,90,0,1
196521,-90.9090909090909,4,2,2,90,0,1
196604,-90.9090909090909,4,2,1,10,0,1
196688,-90.9090909090909,4,2,2,90,0,1
196771,-90.9090909090909,4,2,1,10,0,1
196854,-90.9090909090909,4,2,2,90,0,1
196938,-90.9090909090909,4,2,1,10,0,1
197021,-90.9090909090909,4,2,4,90,0,1
197104,-90.9090909090909,4,2,1,10,0,1
197188,-90.9090909090909,4,2,2,90,0,1
197271,-90.9090909090909,4,2,1,10,0,1
197354,-90.9090909090909,4,2,2,90,0,1
197438,-90.9090909090909,4,2,1,10,0,1
197521,-90.9090909090909,4,3,1,90,0,1
197854,-90.9090909090909,4,3,2,90,0,1
198021,-90.9090909090909,4,2,1,90,0,1
198521,-90.9090909090909,4,3,2,90,0,1
198854,-90.9090909090909,4,2,6,90,0,1
199188,-90.9090909090909,4,2,7,90,0,1
199354,-90.9090909090909,4,2,1,90,0,1
199521,-90.9090909090909,4,2,1,90,0,1
199688,-90.9090909090909,4,3,1,90,0,1
199854,-90.9090909090909,4,3,2,90,0,1
200021,-90.9090909090909,4,3,1,90,0,1
200521,-90.9090909090909,4,3,2,90,0,1
200688,-90.9090909090909,4,2,1,90,0,1
201021,-90.9090909090909,4,3,1,90,0,1
201188,-90.9090909090909,4,3,2,90,0,1
201688,-90.9090909090909,4,3,1,90,0,1
201854,-90.9090909090909,4,3,2,90,0,1
202354,-90.9090909090909,4,3,1,90,0,1
202521,-90.9090909090909,4,3,2,90,0,1
202854,-90.9090909090909,4,3,1,80,0,1
202938,-90.9090909090909,4,2,3,70,0,1
203021,-90.9090909090909,4,2,3,75,0,1
203188,-90.9090909090909,4,3,1,80,0,1
203271,-90.9090909090909,4,2,3,70,0,1
203354,-90.9090909090909,4,3,2,90,0,1
203438,-90.9090909090909,4,2,3,75,0,1
203688,-90.9090909090909,4,3,2,75,0,1
203771,-90.9090909090909,4,2,3,75,0,1
203854,-90.9090909090909,4,3,2,90,0,1
203938,-90.9090909090909,4,2,3,75,0,1
204188,-111.111111111111,4,2,3,80,0,1
204521,-111.111111111111,4,2,3,85,0,1
204854,-111.111111111111,4,3,2,90,0,1
204938,-111.111111111111,4,2,3,100,0,1
205438,-111.111111111111,4,2,3,10,0,1
205521,-111.111111111111,4,2,0,30,0,0

[Colours]
Combo1 : 182,219,250
Combo2 : 124,124,124
Combo3 : 170,170,170
Combo4 : 197,153,20
Combo5 : 36,124,157
Combo6 : 226,200,50
Combo7 : 29,167,233
Combo8 : 241,255,140
SliderBorder : 255,255,255

[HitObjects]
40,304,2855,6,0,B|52:352|124:370|124:370|224:244|88:240|170:143|170:143|248:188|344:108|280:-8|196:20,1,644,2|0,0:0|0:0,0:0:0:0:
92,28,6854,2,0,L|0:20,1,84,0|0,0:0|0:0,0:0:0:0:
0,104,7521,2,0,L|83:111,1,84,0|0,0:0|0:0,0:0:0:0:
176,64,8188,6,0,B|244:76|276:152|276:152|284:60|344:24|344:24|408:152|498:86|498:86|435:144|484:227,1,644,2|0,0:0|0:0,0:0:0:0:
412,272,12188,2,0,P|356:252|360:356,1,196,0|0,0:0|0:0,0:0:0:0:
485,369,13521,102,0,B|353:205|577:205|465:71|465:71|429:177|297:181|253:53|325:5,1,644,2|0,0:0|0:0,0:0:0:0:
204,48,17521,2,0,B|168:64|168:64|120:40,1,84,0|0,0:0|0:0,0:0:0:0:
68,100,18188,2,0,B|84:136|84:136|60:184,1,84,0|0,0:0|0:0,0:0:0:0:
8,256,18854,6,0,B|24:184|144:200|136:288|88:328|88:328|152:312|192:348|192:348|180:208|316:156|436:276|348:376,1,728,2|0,0:0|0:0,0:0:0:0:
454,151,23521,6,0,P|484:162|509:181,1,62.9999980773926,8|8,0:0|0:0,0:0:0:0:
332,100,23854,2,0,P|360:87|392:83,1,62.9999980773926,8|8,0:0|0:0,0:0:0:0:
320,196,24188,6,0,B|228:156|228:236|136:196,1,188.999994232178,8|0,0:3|0:0,0:0:0:0:
18,138,24854,2,0,P|7:108|2:77,1,62.9999980773926,10|2,0:0|0:0,0:0:0:0:
123,47,25188,2,0,P|118:78|107:108,1,62.9999980773926,2|2,0:0|0:0,0:0:0:0:
48,227,25521,2,0,P|16:232|-12:242,2,62.9999980773926,2|0|10,0:0|0:0|0:0,0:0:0:0:
204,336,26188,2,0,P|172:330|143:320,2,62.9999980773926,10|0|2,0:0|0:0|0:0,0:0:0:0:
292,372,26688,1,2,0:0:0:0:
280,278,26854,102,0,P|328:236|396:252,1,125.999996154785,8|2,2:3|0:0,0:0:0:0:
456,308,27354,2,0,L|450:370,1,62.9999980773926,2|10,0:0|0:0,0:0:0:0:
512,232,27688,2,0,L|500:100,1,125.999996154785,2|10,0:0|0:0,0:0:0:0:
424,52,28188,2,0,P|441:26|465:5,1,62.9999980773926,10|8,0:0|0:0,0:0:0:0:
340,91,28521,2,0,P|326:62|320:31,1,62.9999980773926,10|0,0:0|0:0,0:0:0:0:
292,172,28854,2,0,L|160:160,1,125.999996154785,10|2,0:0|0:0,0:0:0:0:
104,232,29354,1,2,0:0:0:0:
0,172,29521,6,0,B|24:132|24:132|3:55,1,125.999996154785,10|2,0:0|0:0,0:0:0:0:
84,8,30021,1,2,0:0:0:0:
84,8,30188,1,8,0:0:0:0:
255,87,30521,2,0,P|287:84|315:71,1,62.9999980773926,2|2,0:0|0:0,0:0:0:0:
384,4,30854,2,0,P|452:16|488:60,1,125.999996154785,2|10,0:0|0:0,0:0:0:0:
420,124,31354,1,2,0:0:0:0:
504,164,31521,2,0,B|488:228|488:228|512:280|512:280|496:348,1,188.999994232178,8|2,0:0|0:0,0:0:0:0:
408,304,32188,102,0,P|356:264|320:360,1,188.999994232178,10|0,0:0|0:0,0:0:0:0:
220,376,32854,2,0,P|186:350|146:340,2,83.9999974365235,10|0|2,0:0|0:0|0:0,0:0:0:0:
84,268,33521,2,0,P|36:279|0:310,2,83.9999974365235,2|2|2,0:0|0:0|0:0,0:0:0:0:
124,180,34188,2,0,L|108:56,1,125.999996154785,10|0,0:0|0:0,0:0:0:0:
296,48,34854,6,0,B|322:11|378:19|378:19|410:59|386:111,1,188.999994232178,8|0,3:0|0:0,0:0:0:0:
456,176,35521,2,0,P|480:164|524:152,2,62.9999980773926,10|2|2,0:0|0:0|0:0,0:0:0:0:
364,203,36021,1,2,0:0:0:0:
434,270,36188,2,0,P|459:278|499:301,1,62.9999980773926,2|0,0:0|0:0,0:0:0:0:
351,320,36521,2,0,P|363:343|375:387,1,62.9999980773926,10|0,0:0|0:0,0:0:0:0:
256,296,36854,2,0,B|224:332|224:332|144:320,1,125.999996154785,10|2,0:0|0:0,0:0:0:0:
0,164,37521,102,0,B|76:152|76:152|108:188,1,125.999996154785,8|2,3:0|0:0,0:0:0:0:
168,116,38021,2,0,L|160:53,1,62.9999980773926,2|10,0:0|0:0,0:0:0:0:
248,16,38354,2,0,P|276:44|360:36,1,125.999996154785,2|10,0:0|0:0,0:0:0:0:
467,9,38854,2,0,P|452:36|448:68,1,62.9999980773926,10|8,0:0|0:0,0:0:0:0:
376,132,39188,2,0,P|385:161|404:187,1,62.9999980773926,10|0,0:0|0:0,0:0:0:0:
496,216,39521,1,8,0:0:0:0:
372,360,39854,2,0,L|268:352,1,94.499997116089,2|0,0:0|0:0,0:0:0:0:
264,372,40188,6,0,P|267:310|232:259,1,125.999996154785,8|2,3:0|0:0,0:0:0:0:
148,304,40688,1,2,0:0:0:0:
148,304,40854,2,0,L|9:316,1,125.999996154785,10|0,0:0|0:0,0:0:0:0:
0,224,41354,1,2,0:0:0:0:
0,224,41521,2,0,P|18:198|30:169,1,62.9999980773926,2|2,0:0|0:0,0:0:0:0:
112,124,41854,2,0,P|76:73|80:11,2,125.999996154785,10|8|0,0:0|3:0|0:0,0:0:0:0:
196,172,42688,1,0,0:0:0:0:
224,56,42854,102,0,B|316:16|316:96|408:56,1,188.999994232178,10|0,0:0|0:0,0:0:0:0:
492,12,43521,2,0,L|504:151,1,125.999996154785,10|0,0:0|0:0,0:0:0:0:
512,232,44021,1,10,0:0:0:0:
512,232,44188,2,0,P|471:237|441:264,2,83.9999974365235,2|2|2,0:0|0:0|0:0,0:0:0:0:
359,311,44854,6,0,P|372:340|379:371,1,62.9999980773926,8|8,0:0|0:0,0:0:0:0:
280,264,45188,2,0,P|286:233|299:204,1,62.9999980773926,8|8,0:0|0:0,0:0:0:0:
244,352,45521,70,0,B|184:364|144:296|144:296|144:348|108:372,1,210.000008010865,2|0,0:0|0:0,0:0:0:0:
0,208,46521,2,0,L|52:200,1,52.5000020027161,2|0,0:0|0:0,0:0:0:0:
68,212,46854,2,0,B|56:156|56:156|76:116|76:116|64:52,1,157.500006008148,2|0,0:0|0:0,0:0:0:0:
80,48,47521,2,0,B|133:60|133:60|181:31,1,105.000004005432,2|0,0:0|0:0,0:0:0:0:
300,8,48188,6,0,P|280:56|380:36,1,210.000008010865,2|0,0:0|0:0,0:0:0:0:
484,108,49188,2,0,L|480:168,1,52.5000020027161,2|0,0:0|0:0,0:0:0:0:
492,176,49521,2,0,P|420:176|400:248,1,157.500006008148,2|0,0:0|0:0,0:0:0:0:
384,260,50188,2,0,B|412:300|412:300|400:356,1,105.000004005432,2|0,0:0|0:0,0:0:0:0:
244,364,50854,102,0,B|196:348|196:348|148:368|148:368|104:332|40:356,1,210.000008010865,2|0,0:0|0:0,0:0:0:0:
4,244,51854,2,0,P|32:232|56:216,1,52.5000020027161,2|0,0:0|0:0,0:0:0:0:
68,232,52188,2,0,P|56:168|120:108,1,157.500006008148,2|0,0:0|0:0,0:0:0:0:
132,124,52854,2,0,L|120:20,1,105.000004005432,2|0,0:0|0:0,0:0:0:0:
236,40,53521,6,0,B|276:52|312:24|312:24|352:52|352:52|384:28|432:36,1,210.000008010865,2|0,0:0|0:0,0:0:0:0:
508,148,54521,2,0,P|476:144|456:136,1,52.5000020027161,2|0,0:0|0:0,0:0:0:0:
440,148,54854,2,0,B|408:180|408:180|432:292,1,157.500006008148,2|0,0:0|0:0,0:0:0:0:
416,300,55521,2,0,P|368:296|332:340,1,105.000004005432,2|0,0:0|0:0,0:0:0:0:
164,252,56188,6,0,L|148:384,2,125.999996154785,8|8|0,0:0|0:0|0:0,0:0:0:0:
156,156,57021,1,8,0:0:0:0:
80,216,57188,2,0,P|44:204|16:200,1,62.9999980773926,8|0,0:0|0:0,0:0:0:0:
156,156,57521,2,0,P|217:160|255:113,2,125.999996154785,8|8|0,0:0|0:0|0:0,0:0:0:0:
104,76,58354,1,8,0:0:0:0:
40,144,58521,2,0,P|52:180|56:208,1,62.9999980773926,8|0,0:0|0:0,0:0:0:0:
120,292,58854,6,0,B|92:324|92:324|0:308,2,125.999996154785,8|8|0,0:0|0:0|0:0,0:0:0:0:
200,244,59688,1,8,0:0:0:0:
260,315,59854,2,0,P|248:345|243:376,1,62.9999980773926,8|0,0:0|0:0,0:0:0:0:
200,244,60188,2,0,L|184:119,1,125.999996154785,8|8,0:0|0:0,0:0:0:0:
172,24,60688,1,0,0:0:0:0:
260,60,60854,2,0,B|324:36|324:84|388:60,1,125.999996154785,0|8,0:0|0:0,0:0:0:0:
512,200,61521,6,0,P|480:208|452:224,1,62.9999980773926,8|0,0:0|0:0,0:0:0:0:
364,256,61854,2,0,P|392:296|392:376,2,125.999996154785,8|8|8,0:0|0:0|0:0,0:0:0:0:
288,196,62688,1,0,0:0:0:0:
216,256,62854,2,0,L|148:248,1,62.9999980773926,8|0,0:0|0:0,0:0:0:0:
120,336,63188,2,0,B|76:344|76:344|44:328|44:328|-4:336,2,125.999996154785,8|8|8,0:0|0:0|0:0,0:0:0:0:
208,372,64021,1,0,0:0:0:0:
153,248,64188,6,0,P|142:218|136:187,1,62.9999980773926,0|0,0:3|0:0,0:0:0:0:
240,215,64521,2,0,P|245:184|256:154,1,62.9999980773926,0|0,0:0|0:0,0:0:0:0:
332,231,64854,2,0,P|352:207|376:186,1,62.9999980773926,0|0,0:0|0:0,0:0:0:0:
403,290,65188,2,0,P|432:279|463:273,1,62.9999980773926,0|0,0:0|0:0,0:0:0:0:
336,356,65521,38,0,L|208:344,1,125.999996154785,0|0,0:0|0:0,0:0:0:0:
120,316,66021,2,0,P|109:345|103:376,1,62.9999980773926,0|0,0:0|0:0,0:0:0:0:
147,222,66354,2,0,L|22:234,1,125.999996154785,0|0,0:3|0:0,0:0:0:0:
0,105,66854,54,0,P|33:115|64:132,1,70,4|0,3:2|0:0,0:0:0:0:
123,55,67188,2,0,P|191:58|234:6,1,140,8|0,0:0|0:0,0:0:0:0:
320,56,67688,2,0,L|328:136,1,70,8|8,0:0|0:0,0:0:0:0:
236,164,68021,2,0,P|180:196|180:272,1,140,0|8,0:0|0:0,0:0:0:0:
232,348,68521,2,0,B|272:320|272:320|364:332,1,140,8|0,0:0|0:0,0:0:0:0:
452,376,69021,1,8,0:0:0:0:
508,296,69188,2,0,P|492:264|484:224,1,70,8|0,0:0|0:0,0:0:0:0:
404,176,69521,6,0,P|415:142|437:108,1,70,8|0,0:0|0:0,0:0:0:0:
380,32,69854,2,0,B|328:44|328:44|296:28|296:28|244:36,1,140,8|0,0:0|0:0,0:0:0:0:
152,8,70354,1,8,0:0:0:0:
175,103,70521,2,0,P|136:104|84:76,1,70,8|0,0:0|0:0,0:0:0:0:
2,241,70854,2,0,P|43:188|108:204,1,140,0|8,0:0|0:0,0:0:0:0:
136,300,71354,2,0,L|124:380,1,70,0|0,0:0|0:0,0:0:0:0:
233,271,71688,2,0,L|221:191,1,70,8|8,0:0|0:0,0:0:0:0:
300,140,72021,1,8,0:0:0:0:
256,24,72188,102,0,P|220:36|184:40,1,70,4|0,3:2|0:0,0:0:0:0:
96,8,72521,2,0,L|118:151,1,140,8|0,0:0|0:0,0:0:0:0:
68,231,73021,2,0,P|34:220|0:216,1,70,8|8,0:0|0:0,0:0:0:0:
104,324,73354,2,0,P|156:280|232:296,1,140,0|8,0:0|0:0,0:0:0:0:
288,216,73854,2,0,B|324:252|324:252|308:340,1,140,8|0,0:0|0:0,0:0:0:0:
400,372,74354,1,8,0:0:0:0:
440,284,74521,2,0,L|520:272,1,70,8|0,0:0|0:0,0:0:0:0:
460,160,74854,6,0,P|460:104|524:56,2,140,8|8|0,0:0|0:0|0:0,0:0:0:0:
368,192,75688,1,8,0:0:0:0:
328,104,75854,2,0,P|286:99|252:84,1,70,8|0,0:0|0:0,0:0:0:0:
130,44,76188,1,0,0:0:0:0:
218,2,76354,1,8,0:0:0:0:
173,132,76521,2,0,B|132:160|132:160|36:140,1,140,8|0,0:0|0:0,0:0:0:0:
0,228,77021,2,0,L|16:296,1,70,8|8,0:0|0:0,0:0:0:0:
112,304,77354,1,8,0:0:0:0:
112,304,77438,1,8,0:0:0:0:
112,304,77521,102,0,L|96:372,1,70,4|0,3:2|0:0,0:0:0:0:
208,312,77854,2,0,B|240:300|256:264|256:264|280:292|320:292,1,140,8|0,3:0|0:0,0:0:0:0:
376,372,78354,2,0,P|420:348|448:344,1,70,8|8,0:0|0:0,0:0:0:0:
508,259,78688,2,0,P|440:254|399:199,1,140,0|8,0:0|0:0,0:0:0:0:
476,140,79188,2,0,B|484:104|484:104|469:74,1,70,8|0,0:0|0:0,0:0:0:0:
400,8,79521,1,0,0:0:0:0:
328,76,79688,1,8,0:0:0:0:
328,76,79854,2,0,L|258:65,1,70,8|0,0:0|0:0,0:0:0:0:
152,8,80188,6,0,L|82:19,1,70,8|0,0:0|0:0,0:0:0:0:
0,76,80522,2,0,P|40:116|48:200,1,140,8|0,0:0|0:0,0:0:0:0:
128,256,81021,2,0,P|108:284|96:320,1,70,8|8,0:0|0:0,0:0:0:0:
184,360,81354,2,0,B|280:348|280:348|312:376,1,140,0|8,0:0|0:0,0:0:0:0:
408,360,81854,2,0,B|440:368|440:368|472:344,1,70,8|0,0:0|0:0,0:0:0:0:
508,256,82188,2,0,L|496:184,1,70,0|8,0:0|0:0,0:0:0:0:
484,88,82521,1,8,0:0:0:0:
406,148,82688,1,8,0:0:0:0:
406,148,82854,102,0,B|374:156|374:156|342:132,1,70,4|0,3:2|0:0,0:0:0:0:
256,88,83188,2,0,L|108:100,1,140,8|0,0:0|0:0,0:0:0:0:
20,76,83688,2,0,P|3:45|0:10,1,70,8|8,0:0|0:0,0:0:0:0:
116,99,84021,2,0,P|108:176|60:219,1,140,0|8,0:0|0:0,0:0:0:0:
67,315,84521,2,0,P|35:302|1:296,2,70,8|0|0,0:0|0:0|0:0,0:0:0:0:
156,268,85021,1,8,0:0:0:0:
240,316,85188,2,0,P|226:348|220:382,1,70,8|0,0:0|0:0,0:0:0:0:
324,268,85521,6,0,P|317:233|304:201,1,70,8|0,0:0|0:0,0:0:0:0:
396,164,85854,2,0,P|472:176|508:124,1,140,8|0,0:0|0:0,0:0:0:0:
484,36,86354,1,8,0:0:0:0:
484,36,86521,2,0,P|419:19|373:68,1,140,8|0,0:0|0:0,0:0:0:0:
301,135,87021,1,8,0:0:0:0:
232,68,87188,2,0,B|180:60|180:60|152:80|152:80|96:72,1,140,8|8,0:0|0:0,0:0:0:0:
24,136,87688,2,0,P|48:172|52:208,1,70,8|0,0:0|0:0,0:0:0:0:
0,308,88021,1,8,0:0:0:0:
0,308,88188,6,0,L|80:296,1,77.0000023498536,8|0,0:0|0:0,0:0:0:0:
188,372,88521,2,0,B|192:344|168:316|168:316|212:288|220:236,1,154.000004699707,8|2,0:0|0:0,0:0:0:0:
124,192,89021,1,8,0:0:0:0:
214,134,89188,2,0,L|290:145,1,77.0000023498536,8|0,0:0|0:0,0:0:0:0:
376,80,89521,2,0,P|358:46|355:8,1,77.0000023498536,0|8,2:0|3:0,0:0:0:0:
468,132,89854,2,0,P|465:170|447:203,1,77.0000023498536,8|0,0:3|0:0,0:0:0:0:
480,144,90188,2,0,P|477:182|459:215,1,77.0000023498536,0|8,0:0|0:3,0:0:0:0:
491,155,90521,2,0,P|488:194|470:227,1,77.0000023498536,8|0,0:3|0:0,0:0:0:0:
372,300,90854,6,0,B|396:332|396:332|516:320,2,154.000004699707,8|8|2,0:0|0:0|0:0,0:0:0:0:
292,376,91688,1,8,0:3:0:0:
267,269,91854,2,0,P|220:280|192:304,1,77.0000023498536,8|0,0:0|0:0,0:0:0:0:
88,300,92188,2,0,L|96:376,1,77.0000023498536,0|8,0:0|3:0,0:0:0:0:
140,203,92521,2,0,B|80:192|80:192|48:212|48:212|-8:204,1,154.000004699707,8|2,0:3|0:0,0:0:0:0:
36,104,93021,2,0,P|20:69|17:30,1,77.0000023498536,8|8,0:0|0:0,0:0:0:0:
158,2,93354,1,8,0:0:0:0:
158,2,93521,102,0,P|155:41|140:76,1,77.0000023498536,8|0,0:0|0:0,0:0:0:0:
244,104,93854,2,0,P|288:56|368:72,1,154.000004699707,8|2,0:0|0:0,0:0:0:0:
452,4,94354,1,8,0:0:0:0:
469,110,94521,2,0,L|477:186,1,77.0000023498536,8|0,0:0|0:0,0:0:0:0:
368,192,94854,2,0,L|360:268,1,77.0000023498536,0|8,0:0|3:0,0:0:0:0:
444,380,95188,2,0,P|480:356|524:352,1,77.0000023498536,8|0,0:3|0:0,0:0:0:0:
432,368,95521,2,0,P|468:344|512:340,1,77.0000023498536,0|8,0:0|0:3,0:0:0:0:
420,356,95854,2,0,P|456:332|500:328,1,77.0000023498536,8|0,0:3|0:0,0:0:0:0:
359,268,96188,6,0,B|308:256|308:256|264:276|264:276|208:264,2,154.000004699707,8|8|2,0:0|0:0|0:0,0:0:0:0:
452,212,97021,1,8,0:3:0:0:
512,300,97188,2,0,L|500:376,1,77.0000023498536,8|0,0:0|0:0,0:0:0:0:
452,212,97521,2,0,L|440:136,1,77.0000023498536,0|8,0:0|3:0,0:0:0:0:
512,56,97854,2,0,B|476:28|476:28|360:44,1,154.000004699707,8|2,0:3|0:0,0:0:0:0:
268,8,98354,1,8,0:0:0:0:
203,92,98521,1,8,0:0:0:0:
262,179,98687,1,8,0:0:0:0:
262,179,98771,1,8,0:0:0:0:
262,179,98854,102,0,L|338:191,1,77.0000023498536,8|0,0:0|0:0,0:0:0:0:
424,124,99188,2,0,B|452:160|452:160|436:276,1,154.000004699707,8|2,0:0|0:0,0:0:0:0:
512,344,99688,1,8,0:0:0:0:
408,370,99854,2,0,B|376:348|376:348|332:358,1,77.0000023498536,8|0,0:0|0:0,0:0:0:0:
244,296,100188,2,0,L|232:372,1,77.0000023498536,0|8,0:0|3:0,0:0:0:0:
136,312,100521,2,0,L|124:236,1,77.0000023498536,8|0,0:3|0:0,0:0:0:0:
124,324,100854,2,0,L|112:248,1,77.0000023498536,0|8,0:0|0:3,0:0:0:0:
112,336,101188,2,0,L|100:260,1,77.0000023498536,8|0,0:3|0:0,0:0:0:0:
144,128,101521,6,0,B|112:100|112:100|0:116,2,154.000004699707,8|8|2,0:0|0:0|0:0,0:0:0:0:
208,40,102354,1,8,0:3:0:0:
268,127,102521,2,0,P|250:161|243:199,1,77.0000023498536,8|0,0:0|0:0,0:0:0:0:
364,80,102854,2,0,P|357:42|339:7,1,77.0000023498536,0|8,0:0|3:0,0:0:0:0:
356,186,103188,2,0,L|512:172,1,154.000004699707,8|2,0:3|0:0,0:0:0:0:
496,311,103688,2,0,P|459:301|428:280,1,77.0000023498536,8|8,0:0|0:0,0:0:0:0:
349,374,104021,1,8,0:0:0:0:
349,374,104188,102,0,P|330:341|324:303,1,77.0000023498536,8|0,0:0|0:0,0:0:0:0:
223,339,104521,2,0,P|153:320|104:374,1,154.000004699707,8|2,0:0|0:0,0:0:0:0:
8,324,105021,1,8,0:0:0:0:
76,240,105188,2,0,P|95:206|101:169,1,77.0000023498536,8|0,0:0|0:0,0:0:0:0:
72,64,105521,2,0,B|34:74|34:74|2:54,1,77.0000023498536,0|8,0:0|0:0,0:0:0:0:
172,28,105854,2,0,B|248:-4|248:60|324:28,1,154.000004699707,8|0,0:0|0:0,0:0:0:0:
428,8,106354,1,8,0:0:0:0:
392,111,106521,2,0,L|404:188,1,77.0000023498536,8|0,0:0|0:0,0:0:0:0:
384,292,106854,6,0,P|464:292|500:344,2,140,8|8|0,0:3|0:0|0:0,0:0:0:0:
300,244,107688,1,8,0:3:0:0:
224,304,107854,2,0,P|228:344|240:372,2,70,8|0|0,0:0|0:0|0:0,0:0:0:0:
148,244,108354,1,8,0:3:0:0:
148,244,108521,2,0,P|160:211|163:176,2,70,8|0|0,0:0|0:0|0:0,0:0:0:0:
72,304,109021,2,0,L|0:292,1,70,8|8,0:3|0:0,0:0:0:0:
256,192,109521,5,8,0:3:0:0:
256,192,119521,6,0,L|265:254,1,62.9999980773926,8|8,0:0|0:0,0:0:0:0:
185,81,119854,2,0,L|176:144,1,62.9999980773926,8|8,0:0|0:0,0:0:0:0:
256,20,120188,6,0,B|320:8|320:8|376:36|376:36|440:24,1,188.999994232178,8|0,2:3|0:0,0:0:0:0:
512,112,120854,2,0,P|500:156|488:172,1,62.9999980773926,10|2,0:0|0:0,0:0:0:0:
412,224,121188,2,0,P|395:197|390:166,1,62.9999980773926,2|2,0:0|0:0,0:0:0:0:
452,308,121521,2,0,P|496:320|512:332,2,62.9999980773926,2|0|10,0:0|0:0|0:0,0:0:0:0:
276,376,122188,2,0,B|316:376|336:332|336:332|300:276|232:304,1,188.999994232178,10|2,0:0|0:0,0:0:0:0:
168,224,122854,6,0,B|136:256|136:256|44:240,1,125.999996154785,8|2,2:3|0:0,0:0:0:0:
0,320,123354,2,0,P|16:340|28:376,1,62.9999980773926,2|10,0:0|0:0,0:0:0:0:
56,242,123688,2,0,L|70:116,1,125.999996154785,2|10,0:0|0:0,0:0:0:0:
80,24,124188,2,0,P|48:25|20:38,1,62.9999980773926,10|8,0:0|0:0,0:0:0:0:
155,78,124521,2,0,P|183:90|214:92,1,62.9999980773926,10|0,0:0|0:0,0:0:0:0:
296,24,124854,2,0,L|310:149,1,125.999996154785,10|2,0:0|0:0,0:0:0:0:
256,228,125354,1,2,0:0:0:0:
352,236,125521,102,0,B|416:212|416:260|480:236,1,125.999996154785,10|2,0:0|0:0,0:0:0:0:
512,324,126021,1,2,0:0:0:0:
512,324,126188,1,8,0:0:0:0:
328,372,126521,2,0,P|296:364|272:348,1,62.9999980773926,2|2,0:0|0:0,0:0:0:0:
180,372,126854,2,0,L|196:220,1,125.999996154785,2|10,0:0|0:0,0:0:0:0:
276,196,127354,1,2,0:0:0:0:
191,149,127521,2,0,B|131:141|131:141|83:169|83:169|7:161,1,188.999994232178,8|2,0:0|0:0,0:0:0:0:
56,80,128188,6,0,B|48:60|8:48|8:48|144:28,1,188.999994232178,10|0,0:0|0:0,0:0:0:0:
224,63,128854,2,0,P|252:34|292:20,2,83.9999974365235,10|2|2,0:0|0:0|0:0,0:0:0:0:
375,64,129521,2,0,P|416:74|447:101,2,83.9999974365235,2|2|2,0:0|0:0|0:0,0:0:0:0:
386,191,130188,2,0,L|512:180,1,125.999996154785,10|0,0:0|0:0,0:0:0:0:
408,352,130854,102,0,B|353:367|321:311|321:311|313:363|273:375,1,188.999994232178,8|0,2:3|0:0,0:0:0:0:
189,331,131521,2,0,P|194:299|205:270,1,62.9999980773926,10|2,0:0|0:0,0:0:0:0:
105,375,131854,2,0,P|97:335|85:307,1,62.9999980773926,2|2,0:0|0:0,0:0:0:0:
69,223,132188,2,0,P|39:233|8:239,1,62.9999980773926,2|0,0:0|0:0,0:0:0:0:
137,159,132521,2,0,P|168:164|197:175,1,62.9999980773926,10|0,0:0|0:0,0:0:0:0:
47,132,132854,2,0,P|36:68|32:8,1,125.999996154785,10|2,0:0|0:0,0:0:0:0:
197,175,133521,6,0,P|192:237|181:299,1,125.999996154785,8|2,2:3|0:0,0:0:0:0:
99,373,134021,2,0,P|92:343|88:312,1,62.9999980773926,2|10,0:0|0:0,0:0:0:0:
240,372,134354,2,0,L|372:360,1,125.999996154785,2|10,0:0|0:0,0:0:0:0:
451,320,134854,2,0,P|470:345|481:374,1,62.9999980773926,10|8,0:0|0:0,0:0:0:0:
372,264,135188,2,0,P|384:235|402:209,1,62.9999980773926,10|0,0:0|0:0,0:0:0:0:
480,156,135521,1,8,0:0:0:0:
276,28,135854,2,0,L|176:36,1,94.499997116089,2|0,0:0|0:0,0:0:0:0:
164,20,136188,102,0,L|176:148,1,125.999996154785,8|2,2:3|0:0,0:0:0:0:
116,216,136688,1,2,0:0:0:0:
116,216,136854,2,0,P|68:176|4:200,1,125.999996154785,10|0,0:0|0:0,0:0:0:0:
0,288,137354,2,0,P|16:324|20:348,1,62.9999980773926,2|2,0:0|0:0,0:0:0:0:
112,372,137688,1,2,0:0:0:0:
112,372,137854,2,0,P|160:332|224:356,2,125.999996154785,10|8|0,0:0|3:0|0:0,0:0:0:0:
19,347,138688,1,0,0:0:0:0:
40,232,138854,6,0,B|48:164|48:164|20:132|20:132|28:44,1,188.999994232178,10|0,0:0|0:0,0:0:0:0:
112,16,139521,2,0,B|132:44|132:44|222:32,1,125.999996154785,10|0,0:0|0:0,0:0:0:0:
304,84,140021,1,10,0:0:0:0:
372,16,140188,2,0,L|460:28,2,83.9999974365235,2|2|2,0:0|0:0|0:0,0:0:0:0:
304,84,140854,2,0,P|312:112|332:140,1,62.9999980773926,8|8,3:0|3:0,0:0:0:0:
391,227,141188,2,0,P|410:201|419:171,1,62.9999980773926,8|8,3:0|3:0,0:0:0:0:
304,304,141521,70,0,B|272:328|272:372|272:372|224:304|148:332,1,210.000008010865,2|0,0:0|0:0,0:0:0:0:
48,372,142521,2,0,P|44:344|32:316,1,52.5000020027161,2|0,0:0|0:0,0:0:0:0:
16,312,142854,2,0,L|28:144,1,157.500006008148,2|0,0:0|0:0,0:0:0:0:
16,136,143521,2,0,P|72:140|108:108,1,105.000004005432,2|0,0:0|0:0,0:0:0:0:
180,16,144188,6,0,B|232:24|232:24|256:60|256:60|296:16|360:40,1,210.000008010865,2|0,0:0|0:0,0:0:0:0:
472,8,145188,2,0,P|488:40|492:56,1,52.5000020027161,2|0,0:0|0:0,0:0:0:0:
512,64,145521,2,0,P|448:84|448:172,1,157.500006008148,2|0,0:0|0:0,0:0:0:0:
460,172,146188,2,0,L|452:280,1,105.000004005432,2|0,0:0|0:0,0:0:0:0:
352,340,146854,102,0,B|396:372|396:372|240:356,1,210.000008010865,2|0,0:0|0:0,0:0:0:0:
128,328,147854,2,0,P|100:340|80:356,1,52.5000020027161,2|0,0:0|0:0,0:0:0:0:
76,372,148188,2,0,L|60:204,1,157.500006008148,2|0,0:0|0:0,0:0:0:0:
76,204,148854,2,0,P|24:204|0:156,1,105.000004005432,2|0,0:0|0:0,0:0:0:0:
24,44,149521,6,0,B|88:36|88:36|120:60|120:60|228:44,1,210.000008010865,2|0,0:0|0:0,0:0:0:0:
336,8,150521,2,0,L|344:60,1,52.5000020027161,2|0,0:0|0:0,0:0:0:0:
332,76,150854,2,0,P|408:64|448:124,1,157.500006008148,2|0,0:0|0:0,0:0:0:0:
464,136,151521,2,0,B|428:180|428:180|444:236,1,105.000004005432,2|0,0:0|0:0,0:0:0:0:
512,348,152188,6,0,B|420:308|420:388|328:348,1,188.999994232178,8|0,0:0|0:0,0:0:0:0:
240,376,152854,2,0,B|228:248|228:248|220:280|196:304,1,188.999994232178,8|0,0:0|0:0,0:0:0:0:
116,348,153521,2,0,P|76:312|8:332,1,125.999996154785,0|8,0:0|0:0,0:0:0:0:
60,144,154188,2,0,P|96:168|96:72,1,188.999994232178,8|0,0:0|0:0,0:0:0:0:
192,20,154854,6,0,B|256:16|256:16|296:44|296:44|384:36,1,188.999994232178,8|0,0:0|0:0,0:0:0:0:
464,8,155521,2,0,B|440:148|440:148|472:196,1,188.999994232178,8|0,0:0|0:0,0:0:0:0:
512,272,156188,2,0,P|452:280|424:340,1,125.999996154785,0|8,0:0|0:0,0:0:0:0:
252,252,156854,2,0,B|284:308|256:372|256:372|204:364|188:324,1,188.999994232178,8|0,0:0|0:0,0:0:0:0:
132,276,157521,6,0,P|92:292|76:304,1,62.9999980773926,8|0,0:0|0:0,0:0:0:0:
32,220,157854,2,0,P|0:196|0:116,2,125.999996154785,8|8|8,0:0|0:0|0:0,0:0:0:0:
108,164,158688,2,0,L|248:172,1,125.999996154785,0|0,0:0|0:0,0:0:0:0:
273,59,159188,2,0,P|242:63|216:80,1,62.9999980773926,8|0,0:0|0:0,0:0:0:0:
344,120,159521,2,0,P|388:132|436:68,1,125.999996154785,8|8,0:0|0:0,0:0:0:0:
512,20,160021,1,0,0:0:0:0:
512,20,160188,5,0,0:0:0:0:
464,204,160521,2,0,P|484:236|492:268,1,62.9999980773926,0|0,0:0|0:0,0:0:0:0:
428,332,160854,2,0,P|376:292|328:376,1,188.999994232178,0|0,0:0|0:0,0:0:0:0:
231,332,161521,102,0,P|172:339|139:289,1,125.999996154785,0|0,0:0|0:0,0:0:0:0:
48,312,162021,2,0,L|39:374,1,62.9999980773926,0|0,0:0|0:0,0:0:0:0:
75,223,162354,54,0,P|60:192|28:164,1,70,0|0,0:0|0:0,0:0:0:0:
0,144,162854,70,0,P|80:144|116:88,1,140,8|0,0:0|0:0,0:0:0:0:
140,8,163354,1,0,0:0:0:0:
209,77,163521,2,0,P|242:87|271:107,2,70,8|0|0,0:0|0:0|0:0,0:0:0:0:
340,36,164021,2,0,P|373:26|402:6,2,70,8|0|0,0:0|0:0|0:0,0:0:0:0:
472,76,164521,2,0,L|482:145,1,70,8|0,0:0|0:0,0:0:0:0:
388,176,164854,2,0,L|377:245,1,70,8|0,0:0|0:0,0:0:0:0:
472,280,165188,2,0,L|482:349,1,70,0|0,0:0|0:0,0:0:0:0:
364,376,165521,102,0,B|332:344|332:344|236:356,1,140,8|0,0:0|0:0,0:0:0:0:
192,268,166021,1,0,0:0:0:0:
103,307,166188,2,0,P|116:340|120:375,2,70,8|0|0,0:0|0:0|0:0,0:0:0:0:
20,256,166688,2,0,P|7:288|3:323,1,70,8|0,0:0|0:0,0:0:0:0:
108,216,167021,1,8,0:0:0:0:
107,215,167188,2,0,P|175:218|215:164,1,140,8|8,0:0|0:0,0:0:0:0:
148,96,167688,2,0,B|132:64|132:64|144:28,1,70,8|0,0:0|0:0,0:0:0:0:
252,8,168021,1,8,0:0:0:0:
252,8,168188,6,0,B|284:36|284:36|384:20,1,140,8|0,0:0|0:0,0:0:0:0:
472,60,168688,1,0,0:0:0:0:
416,140,168854,2,0,P|384:124|350:119,2,70,8|0|0,0:0|0:0|0:0,0:0:0:0:
444,232,169354,2,0,P|475:216|509:211,2,70,8|0|0,0:0|0:0|0:0,0:0:0:0:
384,308,169854,2,0,L|395:377,1,70,8|0,0:0|0:0,0:0:0:0:
320,232,170188,2,0,B|248:200|248:264|176:232,1,140,8|0,0:0|0:0,0:0:0:0:
156,140,170688,1,0,0:0:0:0:
48,160,170854,102,0,B|15:192|15:192|31:284,1,140,8|0,0:0|0:0,0:0:0:0:
0,380,171354,1,0,0:0:0:0:
98,359,171521,2,0,P|156:368|204:300,1,140,8|0,0:0|0:0,0:0:0:0:
300,316,172021,2,0,P|316:346|324:380,1,70,8|0,0:0|0:0,0:0:0:0:
257,230,172355,1,0,0:0:0:0:
352,235,172521,2,0,L|432:240,1,70,8|0,0:0|0:0,0:0:0:0:
484,316,172854,1,8,0:0:0:0:
512,200,173021,2,0,P|512:128|460:92,1,140,8|8,0:0|0:0,0:0:0:0:
368,8,173521,6,0,B|340:40|340:40|244:28,1,140,8|0,0:0|0:0,0:0:0:0:
148,8,174021,1,0,0:0:0:0:
99,92,174188,2,0,P|67:76|31:72,2,70,8|0|0,0:0|0:0|0:0,0:0:0:0:
163,164,174688,2,0,P|137:189|122:222,2,70,8|0|0,0:0|0:0|0:0,0:0:0:0:
251,125,175188,2,0,P|267:156|294:181,1,70,8|0,0:0|0:0,0:0:0:0:
344,96,175521,2,0,B|380:76|384:28|384:28|432:92|496:76,1,210,8|0,0:0|0:0,0:0:0:0:
444,176,176188,102,0,L|432:320,1,140,8|0,0:0|0:0,0:0:0:0:
512,372,176688,1,0,0:0:0:0:
432,315,176854,2,0,P|368:304|332:360,1,140,8|0,0:0|0:0,0:0:0:0:
244,316,177354,2,0,P|179:327|143:271,1,140,8|8,0:0|0:0,0:0:0:0:
56,316,177854,2,0,P|44:352|20:376,1,70,8|0,0:0|0:0,0:0:0:0:
62,218,178188,1,8,0:0:0:0:
62,218,178354,2,0,L|36:60,1,140,8|8,0:0|0:0,0:0:0:0:
180,8,178854,6,0,B|156:28|124:32|124:32|292:56,1,210,8|0,0:0|0:0,0:0:0:0:
368,72,179521,2,0,P|404:24|484:44,1,140,8|0,0:0|0:0,0:0:0:0:
508,128,180021,2,0,P|472:176|392:156,1,140,8|0,0:0|0:0,0:0:0:0:
302,145,180521,2,0,L|228:156,1,70,8|0,0:0|0:0,0:0:0:0:
80,107,180854,2,0,P|85:141|100:172,1,70,8|0,0:0|0:0,0:0:0:0:
172,76,181187,2,0,P|187:44|192:10,1,70,0|0,0:0|0:0,0:0:0:0:
20,28,181521,37,4,0:0:0:0:
80,107,181854,5,0,0:0:0:0:
172,76,182188,101,0,0:0:0:0:
232,155,182521,5,0,0:0:0:0:
324,124,182854,101,0,0:0:0:0:
324,124,183021,2,0,B|360:84|360:84|448:100,1,140,0|0,0:0|0:0,0:0:0:0:
512,172,183521,1,8,0:0:0:0:
512,172,183688,2,0,B|476:212|476:212|388:196,1,140,8|8,0:0|0:0,0:0:0:0:
324,300,184188,86,0,P|342:333|348:371,1,77.0000023498536,8|0,0:0|0:0,0:0:0:0:
220,324,184521,2,0,L|64:336,1,154.000004699707,8|2,0:0|0:0,0:0:0:0:
0,252,185021,1,8,0:0:0:0:
92,196,185188,2,0,P|129:201|163:220,1,77.0000023498536,8|0,0:0|0:0,0:0:0:0:
256,164,185521,2,0,L|244:80,1,77.0000023498536,0|8,0:0|0:3,0:0:0:0:
362,11,185854,2,0,L|352:88,1,77.0000023498536,8|0,0:3|0:0,0:0:0:0:
376,24,186188,2,0,L|365:100,1,77.0000023498536,0|8,0:0|0:3,0:0:0:0:
388,36,186521,2,0,L|377:112,1,77.0000023498536,8|0,0:3|0:0,0:0:0:0:
364,248,186854,6,0,B|416:240|416:240|452:260|452:260|512:252,2,154.000004699707,8|8|2,0:0|0:0|0:0,0:0:0:0:
268,192,187688,1,8,0:3:0:0:
267,303,187854,2,0,P|287:336|295:374,1,77.0000023498536,8|0,0:0|0:0,0:0:0:0:
171,248,188188,2,0,P|151:280|143:318,1,77.0000023498536,0|8,0:0|3:0,0:0:0:0:
171,135,188521,2,0,B|68:156|68:156|16:120,1,154.000004699707,8|2,0:3|0:0,0:0:0:0:
64,28,189021,2,0,L|152:36,1,77.0000023498536,8|8,0:0|0:0,0:0:0:0:
244,8,189354,1,8,0:0:0:0:
244,8,189521,102,0,P|264:44|272:84,1,77.0000023498536,8|0,0:0|0:0,0:0:0:0:
332,168,189854,2,0,P|384:116|456:140,1,154.000004699707,8|2,0:0|0:0,0:0:0:0:
512,228,190354,1,8,0:0:0:0:
512,227,190521,2,0,P|493:261|484:298,1,77.0000023498536,8|0,0:0|0:0,0:0:0:0:
404,372,190854,2,0,B|372:352|372:352|324:364,1,77.0000023498536,0|8,0:0|0:3,0:0:0:0:
173,310,191188,2,0,B|212:320|212:320|244:300,1,77.0000023498536,8|0,0:3|0:0,0:0:0:0:
160,300,191521,2,0,B|198:309|198:309|230:289,1,77.0000023498536,0|8,0:0|0:3,0:0:0:0:
148,288,191854,2,0,B|186:297|186:297|218:277,1,77.0000023498536,8|0,0:3|0:0,0:0:0:0:
52,236,192188,6,0,B|12:268|12:268|28:372,2,154.000004699707,8|8|2,0:0|0:0|0:0,0:0:0:0:
145,178,193021,1,8,0:3:0:0:
48,126,193188,2,0,P|41:92|20:52,1,77.0000023498536,8|0,0:0|0:0,0:0:0:0:
145,178,193521,2,0,P|151:144|173:104,1,77.0000023498536,0|8,0:0|3:0,0:0:0:0:
256,40,193854,2,0,B|304:52|304:52|348:32|348:32|404:44,1,154.000004699707,8|2,0:3|0:0,0:0:0:0:
502,8,194354,1,8,0:0:0:0:
482,112,194521,1,8,0:0:0:0:
462,216,194688,1,8,0:0:0:0:
462,216,194771,1,8,0:0:0:0:
462,216,194854,102,0,L|480:300,1,77.0000023498536,8|0,0:0|0:0,0:0:0:0:
380,340,195188,2,0,P|296:324|264:376,1,154.000004699707,8|2,0:0|0:0,0:0:0:0:
160,340,195688,1,8,0:0:0:0:
160,340,195854,2,0,P|116:332|88:316,1,77.0000023498536,8|0,0:0|0:0,0:0:0:0:
0,231,196188,2,0,P|34:213|72:208,1,77.0000023498536,0|8,0:0|0:3,0:0:0:0:
128,116,196521,2,0,L|108:28,1,77.0000023498536,8|0,0:3|0:0,0:0:0:0:
140,104,196854,2,0,L|120:16,1,77.0000023498536,0|8,0:0|0:3,0:0:0:0:
152,92,197188,2,0,L|134:16,1,77.0000023498536,8|0,0:3|0:0,0:0:0:0:
256,156,197521,6,0,P|208:196|208:284,2,154.000004699707,8|8|2,0:0|0:0|0:0,0:0:0:0:
256,48,198354,1,8,0:3:0:0:
349,102,198521,2,0,P|380:116|424:119,1,77.0000023498536,8|0,0:0|0:0,0:0:0:0:
512,220,198854,2,0,P|473:222|438:237,1,77.0000023498536,0|8,0:0|3:0,0:0:0:0:
330,221,199188,2,0,L|355:372,1,154.000004699707,8|2,0:3|0:0,0:0:0:0:
248,356,199688,2,0,L|235:280,1,77.0000023498536,8|8,0:0|0:0,0:0:0:0:
140,372,200021,1,8,0:0:0:0:
140,372,200188,102,0,P|104:356|66:354,1,77.0000023498536,8|0,0:0|0:0,0:0:0:0:
0,252,200521,2,0,P|72:252|112:172,1,154.000004699707,8|2,0:0|0:0,0:0:0:0:
76,88,201021,1,8,0:0:0:0:
76,88,201188,2,0,L|0:100,1,77.0000023498536,8|0,0:0|0:0,0:0:0:0:
160,20,201521,2,0,B|192:44|192:44|232:36,1,77.0000023498536,0|8,0:0|0:0,0:0:0:0:
332,8,201854,2,0,L|320:164,1,154.000004699707,8|0,0:0|0:0,0:0:0:0:
424,192,202354,1,8,0:0:0:0:
424,192,202521,2,0,B|456:168|456:168|492:175,1,77.0000023498536,8|0,0:0|0:0,0:0:0:0:
455,307,202854,6,0,P|379:296|303:291,1,154.000004699707,8|0,0:0|0:0,0:0:0:0:
220,372,203354,2,0,L|208:216,1,154.000004699707,8|0,0:0|0:0,0:0:0:0:
300,176,203854,2,0,B|308:140|308:140|281:94,1,77.0000023498536,8|0,0:0|0:0,0:0:0:0:
180,20,204188,1,0,0:0:0:0:
180,20,204354,2,0,B|144:48|144:48|60:32,1,125.999996154785,8|8,0:3|0:3,0:0:0:0:
8,160,204854,1,8,0:0:0:0:
8,160,205020,2,0,B|44:132|44:132|128:148,1,125.999996154785,8|0,0:3|0:0,0:0:0:0:
256,192,205521,5,2,0:0:0:0:
