osu file format v14

[General]
AudioFilename: audio.mp3
AudioLeadIn: 0
PreviewTime: 86711
Countdown: 0
SampleSet: Soft
StackLeniency: 0.7
Mode: 0
LetterboxInBreaks: 0
WidescreenStoryboard: 1

[Editor]
DistanceSpacing: 1.4
BeatDivisor: 4
GridSize: 32
TimelineZoom: 2

[Metadata]
Title:Nothing More
TitleUnicode:Nothing More
Artist:Mazare & Luma
ArtistUnicode:Mazare & Luma
Creator:Dayno
Version:Hard
Source:
Tags:dancefloor dnb drum & and 'n' bass melodic drumstep electronic dance music edm monstercat instinct vol. volume 3 female vocals vocalist english
BeatmapID:2442528
BeatmapSetID:1170304

[Difficulty]
HPDrainRate:5
CircleSize:4
OverallDifficulty:6
ApproachRate:7.5
SliderMultiplier:1.4
SliderTickRate:1

[Events]
//Background and Video events
0,0,"qwq.jpg",0,0
//Break Periods
2,109661,118636
//Storyboard Layer 0 (Background)
//Storyboard Layer 1 (Fail)
//Storyboard Layer 2 (Pass)
//Storyboard Layer 3 (Foreground)
//Storyboard Layer 4 (Overlay)
//Storyboard Sound Samples

[TimingPoints]
2795,333.333333333333,4,2,1,70,1,0
23461,-125,4,2,1,70,0,0
45461,-222.222222222221,4,2,1,60,0,0
56128,-125,4,2,1,70,0,0
65461,-125,4,2,1,70,0,0
66794,-111.111111111111,4,2,1,80,0,1
88128,-100,4,2,1,85,0,1
106794,-125,4,2,1,70,0,0
141461,-222.222222222222,4,2,1,60,0,0
152128,-125,4,2,1,70,0,0
162794,-111.111111111111,4,2,1,80,0,1
182794,-111.111111111111,4,2,1,70,0,0
184128,-100,4,2,1,85,0,1
202794,-125,4,2,1,70,0,0
205128,-200,4,2,1,70,0,0

[Colours]
Combo1 : 0,99,198
Combo2 : 210,0,0
Combo3 : 255,102,28
Combo4 : 0,73,147

[HitObjects]
28,67,23461,6,0,L|98:59,1,56,0|0,3:0|3:0,0:0:0:0:
142,103,23794,2,0,L|207:113,1,56,0|0,3:0|3:0,0:0:0:0:
252,62,24128,6,0,P|234:102|260:182,1,112,0|0,3:0|0:0,0:0:0:0:
281,308,24794,2,0,P|248:296|207:297,1,56,10|0,0:0|0:0,0:0:0:0:
153,303,25128,1,2,0:0:0:0:
100,253,25294,1,0,0:0:0:0:
51,306,25461,6,0,L|70:176,2,112,2|2|8,0:0|3:0|0:0,0:0:0:0:
51,306,26794,5,0,3:0:0:0:
159,208,27128,1,2,0:0:0:0:
203,265,27294,1,2,0:0:0:0:
154,319,27461,2,0,P|199:338|259:314,1,112,10|0,0:0|0:0,0:0:0:0:
323,344,27961,6,0,L|336:276,1,56,2|2,3:0|0:0,0:0:0:0:
398,252,28294,1,8,0:0:0:0:
398,252,28461,2,0,L|387:187,1,56,2|0,3:0|0:0,0:0:0:0:
358,130,28794,2,0,P|324:119|295:120,1,56,10|0,0:0|0:0,0:0:0:0:
248,166,29128,1,2,0:0:0:0:
184,111,29294,1,2,0:0:0:0:
131,176,29461,6,0,L|121:245,1,56,2|0,3:0|0:0,0:0:0:0:
65,276,29794,2,0,P|99:302|132:302,1,56,2|0,0:0|0:0,0:0:0:0:
150,365,30128,2,0,P|194:338|216:335,1,56,8|0,0:0|0:0,0:0:0:0:
269,348,30461,1,2,0:0:0:0:
329,307,30628,1,2,0:0:0:0:
373,364,30794,6,0,L|385:239,2,112,2|2|8,0:0|3:0|0:0,0:0:0:0:
219,115,32128,6,0,L|152:107,2,65.3333333333333,2|2|2,3:0|0:0|0:0,0:0:0:0:
323,176,32794,2,0,L|413:167,2,74.6666666666667,10|2|2,0:0|0:0|0:0,0:0:0:0:
236,220,33461,6,0,B|208:230|208:230|141:208,2,84,2|2|2,0:0|0:0|0:0,0:0:0:0:
303,249,34128,2,0,P|308:275|325:306,1,56,10|0,0:0|3:0,0:0:0:0:
383,339,34461,2,0,L|458:335,1,56,2|0,3:0|3:0,0:0:0:0:
476,273,34794,6,0,P|479:222|416:187,1,112,0|0,3:0|0:0,0:0:0:0:
388,48,35461,2,0,L|373:110,1,56,10|0,0:0|0:0,0:0:0:0:
305,125,35794,1,2,0:0:0:0:
269,188,35961,1,0,0:0:0:0:
219,134,36128,6,0,P|207:191|144:210,2,112,2|2|8,0:0|3:0|0:0,0:0:0:0:
219,134,37461,5,0,3:0:0:0:
138,27,37794,1,2,0:0:0:0:
65,38,37961,1,2,0:0:0:0:
107,100,38128,2,0,L|85:225,1,112,10|0,0:0|0:0,0:0:0:0:
48,271,38628,6,0,P|75:279|103:282,1,56,2|2,3:0|0:0,0:0:0:0:
164,329,38961,1,8,0:0:0:0:
164,329,39128,2,0,P|191:322|219:321,1,56,2|0,3:0|0:0,0:0:0:0:
270,269,39461,2,0,L|254:403,1,112,8|2,0:0|0:0,0:0:0:0:
394,333,40128,6,0,L|388:255,1,56,0|0,3:0|0:0,0:0:0:0:
380,204,40461,1,2,0:0:0:0:
316,240,40628,1,2,0:0:0:0:
308,167,40794,2,0,P|247:149|182:171,1,112,10|0,0:0|0:0,0:0:0:0:
138,197,41294,1,2,0:0:0:0:
97,136,41461,6,0,L|80:266,2,112,2|0|8,0:0|3:0|0:0,0:0:0:0:
115,354,42628,1,2,0:0:0:0:
115,354,42711,1,0,0:0:0:0:
115,354,42794,6,0,P|156:333|185:332,2,70,2|2|2,3:0|0:0|0:0,0:0:0:0:
275,373,43461,2,0,P|258:328|337:289,1,149.333333333333,10|2,0:0|0:0,0:0:0:0:
421,246,44128,6,0,P|457:208|463:174,2,84,2|2|2,0:0|0:0|0:0,0:0:0:0:
387,181,44794,2,0,P|336:174|308:178,1,56,10|0,0:0|3:0,0:0:0:0:
282,120,45128,2,0,P|231:127|204:120,1,56,0|0,3:0|3:0,0:0:0:0:
167,84,45461,6,0,B|147:235|241:171|216:333,1,251.999992309571,2|2,0:0|0:0,0:0:0:0:
429,53,48128,6,0,B|452:204|358:140|378:291,1,251.999992309571,2|2,0:0|0:0,0:0:0:0:
128,77,50794,6,0,P|232:122|210:35,1,251.999992309571,2|2,0:0|0:0,0:0:0:0:
363,330,53461,6,0,P|467:285|445:372,1,251.999992309571,2|2,0:0|0:0,0:0:0:0:
450,368,56128,6,0,L|391:359,1,56,2|0,3:0|0:0,0:0:0:0:
334,317,56461,2,0,L|207:328,1,112,8|0,0:0|0:0,0:0:0:0:
160,297,56961,1,0,3:0:0:0:
160,297,57128,1,10,0:0:0:0:
26,353,57461,6,0,P|40:304|35:279,1,56,2|0,3:0|0:0,0:0:0:0:
10,233,57794,2,0,P|65:249|128:214,1,112,8|2,0:0|0:0,0:0:0:0:
134,161,58294,1,0,3:0:0:0:
134,161,58461,1,8,0:0:0:0:
246,68,58794,6,0,B|238:97|238:97|241:131,1,56,2|0,3:0|0:0,0:0:0:0:
278,185,59128,2,0,B|332:157|332:157|390:167,1,112,8|0,0:0|0:0,0:0:0:0:
451,137,59628,1,0,3:0:0:0:
451,137,59794,1,10,0:0:0:0:
367,256,60128,6,0,L|358:311,1,56,2|0,3:0|0:0,0:0:0:0:
289,336,60461,2,0,P|239:311|186:324,1,112,8|2,0:0|0:0,0:0:0:0:
124,296,60961,1,0,3:0:0:0:
124,296,61128,1,8,0:0:0:0:
85,247,61294,1,0,0:0:0:0:
85,247,61378,1,0,0:0:0:0:
85,247,61461,6,0,L|90:375,2,112,2|2|2,3:0|3:0|3:0,0:0:0:0:
177,134,62461,1,2,3:0:0:0:
48,65,62794,6,0,L|38:183,2,112,2|2|2,3:0|3:0|3:0,0:0:0:0:
177,134,63794,1,2,3:0:0:0:
177,134,64128,6,0,P|202:125|234:124,1,56,0|0,3:0|3:0,0:0:0:0:
279,178,64461,2,0,P|312:185|346:178,1,56,0|0,3:0|3:0,0:0:0:0:
400,212,64794,2,0,L|406:156,1,56,0|0,3:0|3:0,0:0:0:0:
464,112,65128,2,0,L|455:52,1,56,0|0,3:0|3:0,0:0:0:0:
386,32,65461,5,2,3:0:0:0:
241,49,65794,2,0,P|201:40|168:39,1,56,0|2,3:0|3:0,0:0:0:0:
196,111,66128,2,0,P|162:119|138:133,1,56,2|2,3:0|3:0,0:0:0:0:
187,187,66461,2,0,P|169:217|160:246,1,56,0|0,3:0|3:0,0:0:0:0:
107,305,66794,6,0,L|191:314,1,62.9999980773926,0|0,3:0|0:0,0:0:0:0:
252,278,67128,2,0,L|389:266,1,125.999996154785,10|0,0:0|0:0,0:0:0:0:
433,198,67628,1,0,3:0:0:0:
367,147,67794,1,8,0:0:0:0:
367,147,67961,6,0,P|325:140|282:141,1,62.9999980773926,0|0,0:0|0:0,0:0:0:0:
230,187,68294,1,0,3:0:0:0:
184,111,68461,2,0,P|152:112|121:118,1,62.9999980773926,8|0,0:0|0:0,0:0:0:0:
60,181,68794,2,0,L|50:259,2,62.9999980773926,0|0|8,0:0|3:0|0:0,0:0:0:0:
152,331,69461,6,0,L|143:268,1,62.9999980773926,0|0,3:0|0:0,0:0:0:0:
224,302,69794,2,0,P|280:318|354:302,1,125.999996154785,8|0,0:0|0:0,0:0:0:0:
409,245,70294,1,0,3:0:0:0:
345,183,70461,6,0,P|340:144|350:111,2,62.9999980773926,8|0|2,0:0|0:0|0:0,0:0:0:0:
268,226,70961,1,0,3:0:0:0:
212,157,71128,2,0,L|126:151,1,62.9999980773926,8|2,0:0|0:0,0:0:0:0:
88,216,71461,1,2,0:0:0:0:
35,151,71628,1,2,3:0:0:0:
35,151,71794,1,8,0:0:0:0:
88,81,71961,1,0,3:0:0:0:
88,81,72128,6,0,P|138:69|168:69,1,62.9999980773926,0|0,3:0|0:0,0:0:0:0:
224,115,72461,2,0,B|268:137|268:137|365:112,1,125.999996154785,10|0,0:0|0:0,0:0:0:0:
416,69,72961,1,0,3:0:0:0:
475,140,73128,1,8,0:0:0:0:
475,140,73294,6,0,L|462:213,1,62.9999980773926,0|0,0:0|0:0,0:0:0:0:
375,207,73628,1,0,3:0:0:0:
317,273,73794,2,0,P|270:281|247:295,1,62.9999980773926,8|0,0:0|0:0,0:0:0:0:
178,329,74128,2,0,P|131:321|108:307,2,62.9999980773926,0|0|8,0:0|3:0|0:0,0:0:0:0:
176,152,74794,6,0,L|171:222,1,62.9999980773926,0|0,3:0|0:0,0:0:0:0:
254,182,75128,2,0,B|313:168|313:168|373:194,1,125.999996154785,8|0,0:0|0:0,0:0:0:0:
451,233,75628,1,0,3:0:0:0:
391,297,75794,6,0,P|392:335|407:372,2,62.9999980773926,8|0|2,0:0|0:0|0:0,0:0:0:0:
316,249,76294,1,0,3:0:0:0:
255,313,76461,2,0,L|182:298,1,62.9999980773926,8|2,0:0|0:0,0:0:0:0:
109,273,76794,1,2,0:0:0:0:
176,215,76961,1,2,3:0:0:0:
176,215,77128,1,8,0:0:0:0:
113,169,77294,1,0,3:0:0:0:
113,169,77378,1,0,3:0:0:0:
113,169,77461,6,0,L|104:93,1,62.9999980773926,0|0,3:0|0:0,0:0:0:0:
193,105,77794,2,0,P|250:136|328:119,1,125.999996154785,10|0,0:0|0:0,0:0:0:0:
378,75,78294,1,0,3:0:0:0:
450,131,78461,1,8,0:0:0:0:
450,131,78628,6,0,P|453:166|444:202,1,62.9999980773926,0|0,0:0|0:0,0:0:0:0:
393,263,78961,1,0,3:0:0:0:
393,263,79128,2,0,P|393:308|402:334,1,62.9999980773926,8|0,0:0|0:0,0:0:0:0:
312,303,79461,2,0,L|236:312,2,62.9999980773926,0|0|8,0:0|3:0|0:0,0:0:0:0:
136,327,80128,6,0,P|136:295|149:266,1,62.9999980773926,0|0,3:0|0:0,0:0:0:0:
77,213,80461,2,0,B|128:222|128:222|219:189,1,125.999996154785,8|0,0:0|0:0,0:0:0:0:
250,125,80961,1,0,3:0:0:0:
316,183,81128,6,0,L|397:208,2,62.9999980773926,8|0|0,0:0|0:0|0:0,0:0:0:0:
377,119,81628,1,0,3:0:0:0:
452,163,81794,2,0,P|464:191|465:223,1,62.9999980773926,8|0,0:0|0:0,0:0:0:0:
427,303,82128,1,0,0:0:0:0:
348,275,82294,1,0,3:0:0:0:
348,275,82461,1,8,0:0:0:0:
281,325,82628,1,0,3:0:0:0:
281,325,82794,6,0,L|193:341,1,62.9999980773926,0|0,3:0|0:0,0:0:0:0:
132,355,83128,2,0,P|106:315|130:234,1,125.999996154785,8|0,0:0|0:0,0:0:0:0:
174,171,83628,1,0,3:0:0:0:
240,228,83794,1,8,0:0:0:0:
265,143,83961,6,0,L|338:129,1,62.9999980773926,0|0,0:0|0:0,0:0:0:0:
386,196,84294,1,0,3:0:0:0:
417,113,84461,2,0,P|449:125|469:152,1,62.9999980773926,8|0,0:0|0:0,0:0:0:0:
455,234,84794,2,0,P|475:257|504:267,2,62.9999980773926,0|0|8,0:0|3:0|0:0,0:0:0:0:
354,358,85461,6,0,L|275:352,1,62.9999980773926,0|0,3:0|0:0,0:0:0:0:
204,314,85794,2,0,P|190:263|219:190,1,125.999996154785,8|0,0:0|0:0,0:0:0:0:
271,129,86294,1,0,3:0:0:0:
323,202,86461,1,8,0:0:0:0:
323,202,86628,1,0,0:0:0:0:
376,132,86794,6,0,P|413:117|451:111,1,62.9999980773926,2|0,0:0|3:0,0:0:0:0:
439,192,87128,2,0,P|498:211|524:216,1,62.9999980773926,10|0,0:0|0:0,0:0:0:0:
433,279,87461,1,2,3:0:0:0:
433,279,87628,2,0,P|436:310|456:352,1,62.9999980773926,8|2,0:0|0:0,0:0:0:0:
369,338,87961,1,2,0:0:0:0:
369,338,88128,6,0,P|322:317|286:314,2,70,0|0|8,3:0|0:0|0:0,0:0:0:0:
361,251,88628,1,2,0:0:0:0:
361,251,88794,1,2,0:0:0:0:
279,221,88961,1,0,3:0:0:0:
279,221,89128,2,0,L|264:132,1,70,8|0,0:0|0:0,0:0:0:0:
298,55,89461,6,0,P|344:45|377:53,2,70,0|0|8,0:0|3:0|0:0,0:0:0:0:
342,133,89961,1,2,0:0:0:0:
341,132,90044,1,2,0:0:0:0:
341,132,90128,1,2,0:0:0:0:
434,121,90294,1,0,3:0:0:0:
434,121,90461,2,0,L|513:129,1,70,8|0,0:0|0:0,0:0:0:0:
420,202,90794,6,0,B|405:235|405:235|412:274,2,70,0|0|8,3:0|0:0|0:0,0:0:0:0:
508,249,91294,1,2,0:0:0:0:
508,249,91461,1,2,0:0:0:0:
464,328,91628,1,0,3:0:0:0:
371,334,91794,1,8,0:0:0:0:
371,334,91961,1,0,0:0:0:0:
289,382,92128,6,0,P|260:344|244:314,1,70,2|0,0:0|3:0,0:0:0:0:
166,271,92461,2,0,P|181:241|204:212,1,70,10|0,0:0|0:0,0:0:0:0:
222,116,92794,2,0,P|257:106|290:103,1,70,2|0,0:0|3:0,0:0:0:0:
364,167,93128,1,10,0:0:0:0:
431,96,93294,1,2,3:0:0:0:
480,181,93461,6,0,P|479:211|469:267,2,70,0|0|8,3:0|0:0|0:0,0:0:0:0:
431,96,93961,1,2,0:0:0:0:
431,96,94128,1,2,0:0:0:0:
364,167,94294,1,0,3:0:0:0:
364,167,94461,2,0,P|313:163|279:145,1,70,8|0,0:0|0:0,0:0:0:0:
219,94,94794,6,0,P|168:98|134:116,2,70,0|0|8,0:0|3:0|0:0,0:0:0:0:
162,27,95294,1,2,0:0:0:0:
162,27,95378,1,2,0:0:0:0:
162,27,95461,1,2,0:0:0:0:
80,79,95628,1,0,3:0:0:0:
80,79,95794,2,0,L|73:152,1,70,8|0,0:0|0:0,0:0:0:0:
94,245,96128,6,0,P|56:249|22:233,2,70,0|0|8,3:0|0:0|0:0,0:0:0:0:
184,203,96628,1,2,0:0:0:0:
184,203,96794,1,2,0:0:0:0:
228,290,96961,1,0,3:0:0:0:
299,222,97128,1,8,0:0:0:0:
299,222,97294,1,0,0:0:0:0:
364,149,97461,6,0,P|334:136|289:129,1,70,2|0,0:0|3:0,0:0:0:0:
298,31,97794,2,0,P|261:36|223:51,1,70,10|0,0:0|0:0,0:0:0:0:
139,9,98128,2,0,P|113:32|88:67,1,70,2|0,0:0|3:0,0:0:0:0:
157,133,98461,1,10,0:0:0:0:
102,216,98628,1,2,3:0:0:0:
102,216,98711,1,2,3:0:0:0:
102,216,98794,6,0,P|147:215|174:229,2,70,0|0|8,3:0|0:0|0:0,0:0:0:0:
23,273,99294,1,2,0:0:0:0:
23,273,99461,1,2,0:0:0:0:
26,178,99628,1,0,3:0:0:0:
26,178,99794,2,0,B|29:136|29:136|41:111,1,70,8|0,0:0|0:0,0:0:0:0:
108,57,100128,6,0,P|155:52|183:32,2,70,0|0|8,0:0|3:0|0:0,0:0:0:0:
183,134,100628,1,2,0:0:0:0:
183,134,100711,1,2,0:0:0:0:
183,134,100794,1,2,0:0:0:0:
273,92,100961,1,0,3:0:0:0:
273,92,101128,2,0,L|263:164,1,70,8|0,0:0|0:0,0:0:0:0:
331,231,101461,6,0,B|369:236|369:236|403:212,2,70,0|0|8,3:0|0:0|0:0,0:0:0:0:
395,311,101961,1,2,0:0:0:0:
395,311,102128,1,2,0:0:0:0:
306,352,102294,1,0,3:0:0:0:
237,289,102461,1,8,0:0:0:0:
237,289,102628,1,0,0:0:0:0:
139,282,102794,6,0,P|156:247|173:220,1,70,2|0,0:0|3:0,0:0:0:0:
165,122,103128,2,0,P|202:110|254:105,1,70,10|0,0:0|0:0,0:0:0:0:
309,44,103461,2,0,P|355:51|381:63,1,70,2|0,0:0|3:0,0:0:0:0:
459,112,103794,1,10,0:0:0:0:
385,176,103961,1,2,3:0:0:0:
452,246,104128,6,0,L|458:320,2,70,0|0|8,3:0|0:0|0:0,0:0:0:0:
360,274,104628,1,2,0:0:0:0:
360,274,104794,1,2,0:0:0:0:
282,332,104961,1,0,3:0:0:0:
282,332,105128,2,0,P|245:332|195:320,1,70,8|0,0:0|0:0,0:0:0:0:
153,247,105461,6,0,P|153:212|146:177,2,70,0|0|8,0:0|3:0|0:0,0:0:0:0:
67,223,105961,1,2,0:0:0:0:
67,223,106044,1,2,0:0:0:0:
67,223,106128,1,2,0:0:0:0:
26,139,106294,1,0,3:0:0:0:
26,139,106461,2,0,L|103:133,1,70,8|0,0:0|0:0,0:0:0:0:
161,164,106794,6,0,P|165:136|161:108,1,56,0|0,3:0|0:0,0:0:0:0:
182,38,107128,2,0,P|232:46|231:97,1,112,8|0,0:0|0:0,0:0:0:0:
295,131,107628,1,0,3:0:0:0:
351,85,107794,6,0,P|405:75|456:96,1,112,8|0,0:0|0:0,0:0:0:0:
493,158,108294,1,0,3:0:0:0:
451,217,108461,2,0,P|399:238|345:228,1,112,8|0,0:0|0:0,0:0:0:0:
291,277,108961,1,0,3:0:0:0:
291,277,109128,6,0,L|306:330,2,56,8|0|4,0:0|0:0|0:0,0:0:0:0:
104,66,119461,6,0,L|86:129,1,56,0|0,3:0|3:0,0:0:0:0:
44,177,119794,2,0,L|59:230,1,56,0|0,3:0|3:0,0:0:0:0:
32,299,120128,6,0,B|68:309|68:309|161:278,1,112,0|0,3:0|0:0,0:0:0:0:
272,341,120794,2,0,P|322:349|350:340,1,56,10|0,0:0|0:0,0:0:0:0:
359,283,121128,1,2,0:0:0:0:
411,332,121294,1,0,0:0:0:0:
444,267,121461,6,0,P|442:323|484:362,2,112,2|2|8,0:0|3:0|0:0,0:0:0:0:
444,267,122794,5,0,3:0:0:0:
439,121,123128,1,2,0:0:0:0:
377,159,123294,1,2,0:0:0:0:
320,112,123461,2,0,B|282:99|282:99|193:119,1,112,10|0,0:0|0:0,0:0:0:0:
148,77,123961,6,0,P|137:102|137:130,1,56,2|2,3:0|0:0,0:0:0:0:
98,193,124294,1,8,0:0:0:0:
98,193,124461,2,0,P|134:209|149:231,1,56,2|0,3:0|0:0,0:0:0:0:
203,263,124794,2,0,L|263:254,1,56,10|0,0:0|0:0,0:0:0:0:
317,211,125128,1,2,0:0:0:0:
371,259,125294,1,2,0:0:0:0:
409,196,125461,6,0,P|402:165|402:134,1,56,2|0,3:0|0:0,0:0:0:0:
364,78,125794,2,0,P|333:71|302:71,1,56,2|2,0:0|0:0,0:0:0:0:
244,104,126128,2,0,P|213:111|182:111,1,56,8|0,0:0|0:0,0:0:0:0:
122,81,126461,1,2,0:0:0:0:
86,144,126628,1,2,0:0:0:0:
133,198,126794,6,0,L|18:212,2,112,2|2|8,0:0|3:0|0:0,0:0:0:0:
403,312,128128,6,0,P|375:352|371:375,2,70,2|2|2,3:0|0:0|0:0,0:0:0:0:
441,200,128794,2,0,P|482:201|511:220,2,74.6666666666667,8|2|2,0:0|0:0|0:0,0:0:0:0:
370,122,129461,6,0,P|388:90|388:53,2,74.6666666666667,2|2|2,0:0|0:0|0:0,0:0:0:0:
266,142,130128,2,0,P|260:168|264:205,1,56,10|0,0:0|3:0,0:0:0:0:
213,251,130461,2,0,P|234:266|270:276,1,56,2|0,3:0|3:0,0:0:0:0:
317,325,130794,6,0,B|340:267|340:267|321:201,1,112,0|0,3:0|0:0,0:0:0:0:
251,94,131461,2,0,L|325:100,1,56,10|0,0:0|0:0,0:0:0:0:
378,79,131794,1,2,0:0:0:0:
447,101,131961,1,0,0:0:0:0:
421,169,132128,6,0,P|404:209|423:285,2,112,2|2|8,0:0|3:0|0:0,0:0:0:0:
421,169,133461,5,0,3:0:0:0:
357,299,133794,1,2,0:0:0:0:
305,247,133961,1,2,0:0:0:0:
268,310,134128,2,0,L|143:292,1,112,10|0,0:0|0:0,0:0:0:0:
94,331,134628,6,0,P|86:298|90:269,1,56,2|2,3:0|0:0,0:0:0:0:
120,212,134961,1,8,0:0:0:0:
120,212,135128,2,0,L|188:221,1,56,2|0,3:0|0:0,0:0:0:0:
231,172,135461,2,0,P|230:125|177:84,1,112,8|2,0:0|0:0,0:0:0:0:
312,36,136128,6,0,P|327:67|358:83,1,56,0|0,3:0|0:0,0:0:0:0:
414,59,136461,1,2,0:0:0:0:
459,115,136628,1,2,0:0:0:0:
400,157,136794,2,0,P|368:195|379:256,1,112,10|0,0:0|0:0,0:0:0:0:
408,319,137294,1,0,0:0:0:0:
341,350,137461,6,0,L|218:324,2,112,2|2|8,0:0|3:0|0:0,0:0:0:0:
130,335,138627,1,2,0:0:0:0:
130,335,138711,1,0,0:0:0:0:
130,335,138794,6,0,P|138:290|149:265,2,70,2|2|2,3:0|0:0|0:0,0:0:0:0:
62,233,139461,2,0,P|65:177|23:93,1,149.333333333333,10|2,0:0|0:0,0:0:0:0:
87,20,140128,6,0,B|64:7|64:7|3:16,2,84,2|2|2,0:0|0:0|0:0,0:0:0:0:
127,80,140794,2,0,L|183:86,1,56,10|0,0:0|3:0,0:0:0:0:
249,56,141128,2,0,L|305:48,1,56,0|0,3:0|3:0,0:0:0:0:
360,104,141461,6,0,B|377:270|290:202|314:344,1,251.999992309571,2|2,0:0|0:0,0:0:0:0:
102,103,144128,6,0,B|86:269|173:201|149:343,1,251.999992309571,2|2,0:0|0:0,0:0:0:0:
372,107,146794,6,0,B|293:85|293:85|188:112|188:112|131:89,1,251.999992309571,2|2,0:0|0:0,0:0:0:0:
403,273,149461,6,0,B|346:296|346:296|241:269|241:269|162:291,1,251.999992309571,2|2,0:0|0:0,0:0:0:0:
248,114,152128,6,0,P|313:160|410:76,1,224,2|8,3:0|0:0,0:0:0:0:
409,79,153794,2,0,L|417:193,1,112,0|10,3:0|0:0,0:0:0:0:
144,295,154794,6,0,P|209:249|306:333,1,224,2|8,3:0|0:0,0:0:0:0:
305,329,156460,2,0,L|313:215,1,112,0|10,3:0|0:0,0:0:0:0:
58,74,157461,6,0,P|93:77|123:83,1,56,2|0,3:0|0:0,0:0:0:0:
179,111,157794,2,0,P|214:108|244:102,1,56,2|0,0:0|0:0,0:0:0:0:
302,76,158128,2,0,L|308:149,1,56,10|0,0:0|0:0,0:0:0:0:
358,190,158461,1,2,0:0:0:0:
358,190,158628,6,0,P|305:174|229:188,1,112,2|0,0:0|0:0,0:0:0:0:
183,210,159128,2,0,P|148:205|118:189,1,56,2|0,3:0|0:0,0:0:0:0:
116,268,159461,2,0,P|81:273|51:289,1,56,10|0,0:0|0:0,0:0:0:0:
43,215,159794,1,2,0:0:0:0:
43,215,159961,6,0,L|64:38,1,168,2|0,0:0|0:0,0:0:0:0:
175,139,160794,1,8,0:0:0:0:
464,82,161461,5,2,3:0:0:0:
320,108,161794,2,0,P|345:119|373:121,1,56,0|2,3:0|3:0,0:0:0:0:
383,194,162128,2,0,P|410:188|435:175,1,56,2|2,3:0|3:0,0:0:0:0:
474,237,162461,2,0,P|504:200|510:185,1,56,0|0,3:0|3:0,0:0:0:0:
475,110,162794,6,0,P|424:67|349:65,1,125.999996154785,0|2,3:0|0:0,0:0:0:0:
258,199,163461,2,0,L|186:191,1,62.9999980773926,8|0,0:0|0:0,0:0:0:0:
236,275,163794,1,0,0:0:0:0:
236,275,163961,2,0,L|33:255,1,188.999994232178,0|0,3:0|3:0,0:0:0:0:
185,145,164794,1,8,0:0:0:0:
47,256,165461,6,0,P|37:294|97:346,1,125.999996154785,0|0,3:0|0:0,0:0:0:0:
174,303,165961,1,0,3:0:0:0:
174,303,166128,2,0,L|162:379,1,62.9999980773926,8|0,0:0|0:0,0:0:0:0:
244,327,166461,1,0,0:0:0:0:
324,362,166628,6,0,L|312:300,1,62.9999980773926,2|2,3:0|0:0,0:0:0:0:
279,223,166961,1,0,3:0:0:0:
279,223,167128,2,0,L|288:156,1,62.9999980773926,0|2,3:0|0:0,0:0:0:0:
264,79,167461,1,10,0:0:0:0:
264,79,167628,2,0,P|208:73|179:81,1,62.9999980773926,2|0,3:0|0:0,0:0:0:0:
117,49,167961,1,0,3:0:0:0:
112,137,168128,6,0,B|122:175|122:175|99:271,1,125.999996154785,0|2,3:0|0:0,0:0:0:0:
101,259,168794,2,0,L|29:267,1,62.9999980773926,8|0,0:0|0:0,0:0:0:0:
96,339,169128,1,0,0:0:0:0:
96,339,169294,6,0,P|119:261|224:236,1,188.999994232178,0|0,3:0|3:0,0:0:0:0:
366,322,170128,1,8,0:0:0:0:
212,233,170794,6,0,B|227:162|227:162|192:88,1,125.999996154785,0|0,3:0|0:0,0:0:0:0:
268,52,171294,1,0,0:0:0:0:
268,52,171461,2,0,P|307:66|337:60,1,62.9999980773926,8|0,0:0|0:0,0:0:0:0:
411,36,171794,1,0,0:0:0:0:
392,122,171961,6,0,P|381:157|386:200,1,62.9999980773926,0|2,3:0|0:0,0:0:0:0:
420,267,172294,1,0,3:0:0:0:
420,267,172461,2,0,L|343:254,1,62.9999980773926,0|2,3:0|0:0,0:0:0:0:
280,296,172794,1,10,0:0:0:0:
280,296,172961,2,0,L|203:309,1,62.9999980773926,2|0,3:0|0:0,0:0:0:0:
137,268,173294,1,0,3:0:0:0:
49,252,173461,6,0,P|106:255|138:182,1,125.999996154785,0|2,3:0|0:0,0:0:0:0:
317,192,174128,2,0,P|315:154|310:128,1,62.9999980773926,8|0,0:0|0:0,0:0:0:0:
228,109,174461,1,0,0:0:0:0:
228,109,174628,6,0,P|277:56|384:83,1,188.999994232178,0|0,3:0|3:0,0:0:0:0:
473,230,175461,1,8,0:0:0:0:
381,79,176128,6,0,L|255:72,1,125.999996154785,0|0,3:0|0:0,0:0:0:0:
306,150,176628,1,0,3:0:0:0:
306,150,176794,2,0,L|237:145,1,62.9999980773926,8|0,0:0|0:0,0:0:0:0:
184,211,177128,1,0,0:0:0:0:
249,269,177294,6,0,L|311:264,1,62.9999980773926,0|0,3:0|0:0,0:0:0:0:
389,316,177628,1,0,3:0:0:0:
389,316,177794,2,0,P|398:279|394:247,1,62.9999980773926,0|0,3:0|0:0,0:0:0:0:
348,185,178128,1,8,0:0:0:0:
348,185,178294,2,0,P|340:140|350:112,1,62.9999980773926,0|0,3:0|0:0,0:0:0:0:
410,65,178628,1,0,3:0:0:0:
325,42,178794,6,0,L|182:62,1,125.999996154785,0|0,3:0|0:0,0:0:0:0:
200,59,179461,2,0,L|126:49,1,62.9999980773926,8|0,0:0|0:0,0:0:0:0:
67,102,179794,1,0,0:0:0:0:
67,102,179961,6,0,B|84:159|84:159|51:294,1,188.999994232178,0|0,3:0|3:0,0:0:0:0:
209,202,180794,1,8,0:0:0:0:
53,284,181461,6,0,B|128:297|114:246|190:265,3,125.999996154785,0|0|0|0,3:0|0:0|0:0|0:0,0:0:0:0:
216,103,182794,6,0,P|244:127|255:158,1,62.9999980773926,2|0,0:0|0:0,0:0:0:0:
321,197,183128,2,0,P|324:228|314:257,1,62.9999980773926,2|0,0:0|0:0,0:0:0:0:
268,327,183461,1,10,0:0:0:0:
268,327,183628,2,0,L|185:316,1,62.9999980773926,0|2,3:0|0:0,0:0:0:0:
157,250,183961,1,2,3:0:0:0:
157,250,184128,6,0,L|249:241,2,70,0|0|8,3:0|0:0|0:0,0:0:0:0:
66,225,184628,1,2,0:0:0:0:
66,225,184794,1,2,0:0:0:0:
133,153,184961,1,0,3:0:0:0:
133,153,185128,2,0,L|210:156,1,70,8|0,0:0|0:0,0:0:0:0:
288,108,185461,6,0,P|286:73|273:41,2,70,0|0|8,0:0|3:0|0:0,0:0:0:0:
271,210,185961,1,2,0:0:0:0:
271,210,186044,1,2,0:0:0:0:
271,210,186128,1,2,0:0:0:0:
362,171,186294,1,0,3:0:0:0:
362,171,186461,2,0,B|399:162|399:162|443:171,1,70,8|0,0:0|0:0,0:0:0:0:
478,254,186794,6,0,B|446:260|446:260|409:251,2,70,0|0|8,3:0|0:0|0:0,0:0:0:0:
425,338,187294,1,2,0:0:0:0:
425,338,187461,1,2,0:0:0:0:
334,315,187628,1,0,3:0:0:0:
334,315,187794,2,0,P|286:311|255:319,1,70,8|0,0:0|0:0,0:0:0:0:
230,222,188128,6,0,P|185:248|171:270,1,70,2|0,0:0|3:0,0:0:0:0:
81,232,188461,2,0,P|88:272|109:302,1,70,10|0,0:0|0:0,0:0:0:0:
12,332,188794,2,0,P|50:365|87:381,1,70,2|0,0:0|3:0,0:0:0:0:
162,346,189128,1,10,0:0:0:0:
256,372,189294,1,2,3:0:0:0:
327,304,189461,6,0,L|315:221,2,70,0|0|8,3:0|0:0|0:0,0:0:0:0:
235,282,189961,1,2,0:0:0:0:
235,282,190128,1,2,0:0:0:0:
247,188,190294,1,0,3:0:0:0:
247,188,190461,2,0,P|208:189|165:179,1,70,8|0,0:0|0:0,0:0:0:0:
101,120,190794,6,0,P|62:119|19:129,2,70,0|0|8,0:0|3:0|0:0,0:0:0:0:
74,219,191294,1,2,0:0:0:0:
74,219,191378,1,2,0:0:0:0:
74,219,191461,1,2,0:0:0:0:
167,261,191628,1,0,3:0:0:0:
167,261,191794,2,0,L|158:340,1,70,8|0,0:0|0:0,0:0:0:0:
256,345,192128,6,0,P|300:345|335:336,2,70,0|0|8,3:0|0:0|0:0,0:0:0:0:
283,253,192628,1,2,0:0:0:0:
283,253,192794,1,2,0:0:0:0:
379,272,192961,2,0,L|448:261,1,70,0|8,3:0|0:0,0:0:0:0:
391,181,193294,1,0,0:0:0:0:
294,163,193461,6,0,P|258:133|226:128,1,70,2|0,0:0|3:0,0:0:0:0:
198,37,193794,2,0,P|150:63|136:80,1,70,10|0,0:0|3:0,0:0:0:0:
43,54,194128,2,0,P|37:91|51:135,1,70,2|0,0:0|3:0,0:0:0:0:
95,206,194461,1,10,0:0:0:0:
196,185,194628,1,2,3:0:0:0:
196,185,194711,1,2,3:0:0:0:
196,185,194794,6,0,B|236:191|236:191|281:174,2,70,0|0|8,3:0|0:0|0:0,0:0:0:0:
168,281,195294,1,2,0:0:0:0:
168,281,195461,1,2,0:0:0:0:
269,275,195628,1,0,3:0:0:0:
269,275,195794,2,0,L|260:351,1,70,8|0,0:0|0:0,0:0:0:0:
356,318,196128,6,0,L|350:243,2,70,0|0|8,0:0|3:0|0:0,0:0:0:0:
438,262,196628,1,2,0:0:0:0:
438,262,196711,1,2,0:0:0:0:
438,262,196794,1,2,0:0:0:0:
391,181,196961,1,0,3:0:0:0:
391,181,197128,2,0,P|347:171|312:175,1,70,8|0,0:0|0:0,0:0:0:0:
232,211,197461,6,0,B|222:171|222:171|229:132,2,70,0|0|8,3:0|0:0|0:0,0:0:0:0:
149,260,197961,1,2,0:0:0:0:
149,260,198128,1,2,0:0:0:0:
226,327,198294,1,0,3:0:0:0:
226,327,198461,2,0,L|305:314,1,70,8|0,0:0|0:0,0:0:0:0:
389,343,198794,6,0,P|390:295|373:264,1,70,2|0,0:0|3:0,0:0:0:0:
412,181,199128,2,0,P|367:154|336:148,1,70,10|0,0:0|0:0,0:0:0:0:
328,53,199461,2,0,P|272:76|257:99,1,70,2|0,0:0|3:0,0:0:0:0:
241,176,199794,1,10,0:0:0:0:
191,91,199961,1,2,3:0:0:0:
153,181,200128,6,0,L|246:188,2,70,0|0|8,3:0|0:0|0:0,0:0:0:0:
77,242,200628,1,2,0:0:0:0:
77,242,200794,1,2,0:0:0:0:
154,310,200961,1,0,3:0:0:0:
154,310,201128,2,0,L|239:305,1,70,8|0,0:0|0:0,0:0:0:0:
321,295,201461,6,0,P|306:254|312:222,2,70,0|0|8,0:0|3:0|0:0,0:0:0:0:
271,382,201961,1,2,0:0:0:0:
271,382,202044,1,2,0:0:0:0:
271,382,202128,1,2,0:0:0:0:
223,305,202294,1,0,3:0:0:0:
223,305,202461,2,0,P|185:291|131:295,1,70,8|0,0:0|0:0,0:0:0:0:
83,319,202794,6,0,L|103:141,1,168,0|8,3:0|0:0,0:0:0:0:
257,328,203794,1,8,0:0:0:0:
189,102,204294,6,0,L|198:165,1,56,0|0,3:0|0:0,0:0:0:0:
170,231,204628,1,0,3:0:0:0:
235,272,204794,1,8,0:0:0:0:
190,340,204961,1,0,0:0:0:0:
190,340,205128,6,0,P|220:326|264:330,1,70,0|4,0:0|0:0,0:0:0:0:
