osu file format v14

[General]
AudioFilename: audio.mp3
AudioLeadIn: 0
PreviewTime: 86711
Countdown: 0
SampleSet: Soft
StackLeniency: 0.7
Mode: 0
LetterboxInBreaks: 0
WidescreenStoryboard: 0

[Editor]
DistanceSpacing: 1.3
BeatDivisor: 4
GridSize: 32
TimelineZoom: 1.9

[Metadata]
Title:Nothing More
TitleUnicode:Nothing More
Artist:Mazare & Luma
ArtistUnicode:Mazare & Luma
Creator:Dayno
Version:Dreaming
Source:
Tags:dancefloor dnb drum & and 'n' bass melodic drumstep electronic dance music edm monstercat instinct vol. volume 3 female vocals vocalist english
BeatmapID:2441441
BeatmapSetID:1170304

[Difficulty]
HPDrainRate:6
CircleSize:4
OverallDifficulty:9
ApproachRate:9.2
SliderMultiplier:1.4
SliderTickRate:1

[Events]
//Background and Video events
0,0,"qwq.jpg",0,0
//Break Periods
2,109661,118891
//Storyboard Layer 0 (Background)
//Storyboard Layer 1 (Fail)
//Storyboard Layer 2 (Pass)
//Storyboard Layer 3 (Foreground)
//Storyboard Layer 4 (Overlay)
//Storyboard Sound Samples

[TimingPoints]
2795,333.333333333333,4,2,1,70,1,0
23463,-100,4,2,1,70,0,0
45461,-133.333333333333,4,2,1,60,0,0
45463,-133.333333333333,4,2,1,60,0,0
56128,-100,4,2,1,70,0,0
65463,-100,4,2,1,70,0,0
66794,-71.4285714285714,4,2,1,80,0,1
88128,-66.6666666666667,4,2,1,85,0,1
106794,-66.6666666666667,4,2,1,70,0,0
109128,-200,4,2,1,70,0,0
120128,-100,4,2,1,70,0,0
141461,-133.333333333333,4,2,1,60,0,0
152128,-100,4,2,1,70,0,0
162794,-100,4,2,1,80,0,1
182794,-100,4,2,1,70,0,0
184128,-66.6666666666667,4,2,1,85,0,1
201794,-71.4285714285714,4,2,1,85,0,1
202461,-76.9230769230769,4,2,1,85,0,1
202794,-66.6666666666667,4,2,1,70,0,0
205128,-200,4,2,1,70,0,0

[Colours]
Combo1 : 0,99,198
Combo2 : 210,0,0
Combo3 : 255,102,28
Combo4 : 0,73,147

[HitObjects]
143,65,23461,5,0,3:0:0:0:
187,128,23628,1,0,3:0:0:0:
162,200,23794,1,0,3:0:0:0:
89,229,23961,1,0,3:0:0:0:
143,65,24128,6,0,P|221:53|262:106,1,140,0|0,3:0|0:0,0:0:0:0:
295,227,24628,1,0,0:0:0:0:
353,58,24794,2,0,L|358:141,1,70,10|0,0:0|0:0,0:0:0:0:
456,20,25128,2,0,L|451:89,1,70,2|0,0:0|0:0,0:0:0:0:
504,248,25461,6,0,P|475:222|432:213,1,70,2|0,0:0|0:0,0:0:0:0:
319,332,25794,2,0,P|345:303|354:260,1,70,2|0,3:0|0:0,0:0:0:0:
147,240,26128,2,0,B|226:225|211:282|293:262,1,140,8|0,0:0|0:0,0:0:0:0:
161,334,26628,1,0,0:0:0:0:
49,204,26794,6,0,B|40:241|40:241|53:289,1,70,0|0,3:0|0:0,0:0:0:0:
179,164,27128,1,2,0:0:0:0:
62,87,27294,1,2,0:0:0:0:
49,204,27461,1,10,0:0:0:0:
164,21,27628,2,0,L|158:90,1,70,2|0,0:0|0:0,0:0:0:0:
230,231,27961,6,0,L|235:161,1,70,2|2,3:0|0:0,0:0:0:0:
340,64,28294,1,8,0:0:0:0:
340,64,28461,2,0,P|300:54|252:65,1,70,2|0,3:0|0:0,0:0:0:0:
344,174,28794,2,0,P|378:176|412:167,1,70,10|0,0:0|0:0,0:0:0:0:
452,247,29128,1,2,0:0:0:0:
502,139,29294,1,2,0:0:0:0:
465,331,29461,6,0,P|431:321|396:324,1,70,2|0,3:0|0:0,0:0:0:0:
306,358,29794,2,0,B|269:365|269:365|222:350,1,70,2|0,0:0|0:0,0:0:0:0:
172,212,30128,2,0,B|162:242|162:242|169:279,1,70,8|0,0:0|0:0,0:0:0:0:
88,347,30461,1,2,0:0:0:0:
240,255,30628,1,2,0:0:0:0:
113,152,30794,6,0,P|168:137|190:139,1,70,2|0,0:0|0:0,0:0:0:0:
307,269,31128,2,0,P|272:267|239:254,1,70,2|2,3:0|0:0,0:0:0:0:
372,209,31461,2,0,B|397:275|397:275|367:346,1,140,8|0,0:0|0:0,0:0:0:0:
453,209,31961,1,0,0:0:0:0:
297,162,32128,6,0,P|339:136|351:108,2,81.6666666666667,2|2|2,3:0|0:0|0:0,0:0:0:0:
477,108,32794,2,0,P|438:83|418:22,2,93.3333333333333,10|2|2,0:0|0:0|0:0,0:0:0:0:
278,91,33461,6,0,L|172:81,2,105,2|2|2,0:0|0:0|0:0,0:0:0:0:
192,208,34128,1,10,0:0:0:0:
91,104,34294,1,0,3:0:0:0:
43,241,34461,1,2,3:0:0:0:
111,178,34628,1,0,3:0:0:0:
9,308,34794,6,0,P|75:309|120:247,1,140,0|0,3:0|0:0,0:0:0:0:
201,334,35294,1,0,0:0:0:0:
252,252,35461,2,0,P|292:241|325:243,1,70,10|0,0:0|0:0,0:0:0:0:
414,353,35794,2,0,P|403:319|404:284,1,70,2|0,0:0|0:0,0:0:0:0:
442,184,36128,6,0,L|512:177,1,70,2|0,0:0|0:0,0:0:0:0:
408,72,36461,2,0,L|338:64,1,70,2|0,3:0|0:0,0:0:0:0:
259,132,36794,2,0,B|222:137|222:137|183:174|183:174|134:181,1,140,8|0,0:0|0:0,0:0:0:0:
157,98,37294,1,0,0:0:0:0:
91,248,37461,6,0,P|60:212|61:168,1,70,0|0,3:0|0:0,0:0:0:0:
205,267,37794,1,2,0:0:0:0:
134,181,37961,1,2,0:0:0:0:
216,280,38128,2,0,L|356:270,1,140,10|0,0:0|0:0,0:0:0:0:
437,336,38628,6,0,P|431:294|443:262,1,70,2|2,3:0|0:0,0:0:0:0:
512,202,38961,1,8,0:0:0:0:
512,202,39128,2,0,P|469:186|452:170,1,70,2|0,3:0|0:0,0:0:0:0:
339,52,39461,2,0,B|403:44|407:104|473:83,1,140,8|2,0:0|0:0,0:0:0:0:
352,126,39961,1,0,0:0:0:0:
259,26,40128,6,0,L|254:95,1,70,0|0,3:0|0:0,0:0:0:0:
246,201,40461,1,2,0:0:0:0:
152,76,40628,1,2,0:0:0:0:
55,171,40794,2,0,P|107:156|166:222,1,140,10|0,0:0|0:0,0:0:0:0:
81,359,41294,1,2,0:0:0:0:
202,288,41461,5,2,0:0:0:0:
58,258,41628,1,2,0:0:0:0:
179,365,41794,2,0,L|257:356,1,70,0|0,3:0|0:0,0:0:0:0:
394,353,42128,2,0,B|322:322|322:322|302:257,1,140,8|0,0:0|0:0,0:0:0:0:
467,297,42628,1,2,0:0:0:0:
467,297,42711,1,0,0:0:0:0:
467,297,42794,6,0,L|376:264,2,87.5,2|2|2,3:0|0:0|0:0,0:0:0:0:
465,149,43461,2,0,L|325:173,1,140,10|0,0:0|0:0,0:0:0:0:
328,173,43906,1,2,0:0:0:0:
245,326,44128,6,0,P|249:272|180:205,1,140,2|2,0:0|3:0,0:0:0:0:
92,182,44628,1,2,0:0:0:0:
188,71,44794,1,10,0:0:0:0:
157,143,44961,1,0,3:0:0:0:
196,210,45128,1,0,3:0:0:0:
273,221,45294,1,0,3:0:0:0:
188,71,45461,6,0,L|163:287,1,210.000008010865,2|0,0:0|0:0,0:0:0:0:
98,197,46461,2,0,L|109:128,1,52.5000020027161,2|0,0:0|0:0,0:0:0:0:
242,266,46794,2,0,L|267:58,1,210.000008010865,2|2,0:0|0:0,0:0:0:0:
435,357,48128,6,0,P|427:313|287:308,1,210.000008010865,2|0,0:0|0:0,0:0:0:0:
462,223,49128,2,0,P|462:196|458:171,1,52.5000020027161,2|0,0:0|0:0,0:0:0:0:
428,371,49461,2,0,P|420:327|280:322,1,210.000008010865,2|2,0:0|0:0,0:0:0:0:
103,185,50794,6,0,B|224:195|181:116|315:136,1,210.000008010865,2|0,0:0|0:0,0:0:0:0:
154,16,51794,2,0,L|143:70,1,52.5000020027161,2|0,0:0|0:0,0:0:0:0:
78,194,52128,2,0,B|199:204|156:125|290:145,1,210.000008010865,2|2,0:0|0:0,0:0:0:0:
301,288,53461,6,0,P|251:323|269:230,1,210.000008010865,2|0,0:0|0:0,0:0:0:0:
464,290,54461,2,0,P|426:291|402:282,1,52.5000020027161,2|0,0:0|0:0,0:0:0:0:
490,112,54794,2,0,P|465:145|404:183,1,105.000004005432,2|0,0:0|0:0,0:0:0:0:
339,89,55294,1,2,0:0:0:0:
409,286,55461,2,0,P|384:253|323:215,1,105.000004005432,2|0,0:0|0:0,0:0:0:0:
331,218,56128,6,0,L|338:293,1,70,2|0,3:0|0:0,0:0:0:0:
270,362,56461,2,0,P|241:304|165:321,1,140,8|0,0:0|0:0,0:0:0:0:
101,216,56961,1,0,3:0:0:0:
0,297,57128,2,0,L|103:285,1,70,10|0,0:0|0:0,0:0:0:0:
225,164,57461,6,0,L|155:155,1,70,2|0,3:0|0:0,0:0:0:0:
331,218,57794,2,0,B|408:213|384:177|461:174,1,140,8|2,0:0|0:0,0:0:0:0:
335,137,58294,1,0,3:0:0:0:
447,27,58461,2,0,P|400:66|395:93,1,70,8|0,0:0|0:0,0:0:0:0:
209,65,58794,6,0,P|248:112|275:117,1,70,2|0,3:0|0:0,0:0:0:0:
85,22,59128,2,0,B|107:88|107:88|69:152,1,140,8|0,0:0|0:0,0:0:0:0:
168,183,59628,1,0,3:0:0:0:
8,249,59794,2,0,L|84:231,1,70,10|0,0:0|0:0,0:0:0:0:
186,277,60128,6,0,L|262:295,1,70,2|0,3:0|0:0,0:0:0:0:
354,383,60461,2,0,P|325:338|360:255,1,140,8|2,0:0|0:0,0:0:0:0:
487,150,60961,1,0,3:0:0:0:
221,224,61128,1,8,0:0:0:0:
405,327,61294,1,0,0:0:0:0:
405,327,61378,1,0,0:0:0:0:
405,327,61461,6,0,L|490:333,1,70,2|0,3:0|0:0,0:0:0:0:
290,219,61794,2,0,L|205:225,1,70,2|0,3:0|0:0,0:0:0:0:
417,145,62128,2,0,L|502:151,1,70,2|0,3:0|0:0,0:0:0:0:
256,96,62461,2,0,L|186:100,1,70,2|0,3:0|0:0,0:0:0:0:
67,147,62794,6,0,P|95:177|108:217,1,70,2|0,3:0|0:0,0:0:0:0:
204,306,63128,2,0,P|179:330|147:344,1,70,2|0,3:0|0:0,0:0:0:0:
187,63,63461,2,0,P|159:93|146:133,1,70,2|0,3:0|0:0,0:0:0:0:
255,243,63795,2,0,P|279:267|311:281,1,70,2|0,3:0|0:0,0:0:0:0:
223,128,64128,5,0,3:0:0:0:
424,63,64294,1,0,3:0:0:0:
187,63,64461,1,0,3:0:0:0:
311,281,64628,1,0,3:0:0:0:
320,28,64794,1,0,3:0:0:0:
204,306,64961,1,0,3:0:0:0:
413,161,65128,1,0,3:0:0:0:
144,127,65294,1,0,3:0:0:0:
460,226,65461,6,0,P|490:163|476:114,1,105,2|0,3:0|0:0,0:0:0:0:
459,82,65794,5,0,3:0:0:0:
294,175,65961,1,2,3:0:0:0:
361,1,66128,1,2,3:0:0:0:
379,155,66294,5,2,3:0:0:0:
296,92,66461,1,0,3:0:0:0:
377,72,66628,1,0,3:0:0:0:
234,244,66794,6,0,L|331:256,1,97.9999970092774,0|0,3:0|0:0,0:0:0:0:
474,60,67128,2,0,L|376:72,1,97.9999970092774,10|0,0:0|0:0,0:0:0:0:
421,317,67461,1,0,0:0:0:0:
297,159,67628,1,0,3:0:0:0:
490,219,67794,1,8,0:0:0:0:
197,311,67961,6,0,P|161:263|167:214,1,97.9999970092774
297,159,68294,1,0,3:0:0:0:
100,79,68461,2,0,L|197:69,1,97.9999970092774,8|0,0:0|0:0,0:0:0:0:
418,47,68794,1,0,0:0:0:0:
264,0,68961,1,0,3:0:0:0:
446,133,69128,2,0,L|428:240,1,97.9999970092774,8|0,0:0|0:0,0:0:0:0:
264,0,69461,6,0,L|282:107,1,97.9999970092774,0|0,3:0|0:0,0:0:0:0:
113,283,69794,2,0,L|141:127,1,146.999995513916,8|0,0:0|0:0,0:0:0:0:
145,109,70128,1,0,0:0:0:0:
265,225,70294,1,0,3:0:0:0:
78,352,70461,2,0,P|153:347|181:318,1,97.9999970092774,8|0,0:0|0:0,0:0:0:0:
234,121,70794,5,2,0:0:0:0:
310,346,70961,1,0,3:0:0:0:
431,195,71128,2,0,L|325:186,1,97.9999970092774,8|2,0:0|0:0,0:0:0:0:
459,50,71461,1,2,0:0:0:0:
178,167,71628,1,2,3:0:0:0:
506,134,71794,1,8,0:0:0:0:
262,55,71961,1,0,3:0:0:0:
420,289,72128,6,0,P|435:229|427:183,1,97.9999970092774,0|0,3:0|0:0,0:0:0:0:
195,2,72461,2,0,P|180:48|184:97,1,97.9999970092774,10|0,0:0|0:0,0:0:0:0:
272,293,72794,1,0,0:0:0:0:
108,140,72961,1,0,3:0:0:0:
310,191,73128,1,8,0:0:0:0:
88,314,73294,6,0,B|141:324|141:324|191:313,1,97.9999970092774
263,113,73628,1,0,3:0:0:0:
344,367,73794,2,0,L|351:265,1,97.9999970092774,8|0,0:0|0:0,0:0:0:0:
471,76,74128,1,0,0:0:0:0:
263,113,74294,1,0,3:0:0:0:
512,224,74461,2,0,P|463:228|417:213,1,97.9999970092774,8|0,0:0|0:0,0:0:0:0:
226,39,74794,6,0,P|274:34|320:49,1,97.9999970092774,0|0,3:0|0:0,0:0:0:0:
198,283,75128,2,0,L|176:114,1,146.999995513916,8|0,0:0|0:0,0:0:0:0:
174,101,75461,1,0,0:0:0:0:
47,216,75628,1,0,3:0:0:0:
242,348,75794,2,0,P|196:362|150:347,1,97.9999970092774,8|0,0:0|0:0,0:0:0:0:
70,109,76128,5,2,0:0:0:0:
263,263,76294,1,0,3:0:0:0:
179,36,76461,1,8,0:0:0:0:
70,303,76628,1,2,0:0:0:0:
282,31,76794,1,2,0:0:0:0:
161,247,76961,1,2,3:0:0:0:
84,12,77128,1,8,0:0:0:0:
347,216,77294,1,0,3:0:0:0:
347,216,77378,1,0,3:0:0:0:
347,216,77461,6,0,L|450:212,1,97.9999970092774,0|0,3:0|0:0,0:0:0:0:
282,31,77794,2,0,L|379:34,1,97.9999970092774,10|0,0:0|0:0,0:0:0:0:
260,261,78128,1,0,0:0:0:0:
338,110,78294,1,0,3:0:0:0:
378,336,78461,1,8,0:0:0:0:
164,151,78628,6,0,P|212:146|260:157,1,97.9999970092774
34,280,78961,1,0,3:0:0:0:
54,63,79128,2,0,L|43:187,1,97.9999970092774,8|0,0:0|0:0,0:0:0:0:
190,339,79461,1,0,0:0:0:0:
165,150,79628,1,0,3:0:0:0:
319,369,79794,2,0,L|329:247,1,97.9999970092774,8|0,0:0|0:0,0:0:0:0:
496,162,80128,6,0,P|446:184|386:175,1,97.9999970092774,0|0,3:0|0:0,0:0:0:0:
157,55,80461,2,0,P|208:76|260:164,1,146.999995513916,8|0,0:0|0:0,0:0:0:0:
260,187,80794,1,0,0:0:0:0:
353,47,80961,1,0,3:0:0:0:
426,259,81128,1,8,0:0:0:0:
253,35,81294,6,0,L|156:54,1,97.9999970092774
0,139,81628,1,0,3:0:0:0:
260,187,81794,2,0,L|161:169,1,97.9999970092774,8|0,0:0|0:0,0:0:0:0:
80,342,82128,1,0,0:0:0:0:
81,106,82294,1,0,3:0:0:0:
252,271,82461,1,8,0:0:0:0:
1,234,82628,1,0,3:0:0:0:
317,223,82794,6,0,P|331:273|317:328,1,97.9999970092774,0|0,3:0|0:0,0:0:0:0:
75,200,83128,2,0,P|66:152|80:105,1,97.9999970092774,8|0,0:0|0:0,0:0:0:0:
288,11,83461,1,0,0:0:0:0:
124,38,83628,1,0,3:0:0:0:
348,99,83794,1,8,0:0:0:0:
143,155,83961,6,0,L|249:169,1,97.9999970092774
449,192,84294,1,0,3:0:0:0:
260,368,84461,2,0,P|241:319|259:267,1,97.9999970092774,8|0,0:0|0:0,0:0:0:0:
374,123,84794,1,0,0:0:0:0:
143,155,84961,1,0,3:0:0:0:
411,328,85128,2,0,L|305:316,1,97.9999970092774,8|0,0:0|0:0,0:0:0:0:
81,278,85461,6,0,L|178:266,1,97.9999970092774,0|0,3:0|0:0,0:0:0:0:
306,127,85794,2,0,P|267:185|302:246,1,146.999995513916,8|0,0:0|0:0,0:0:0:0:
326,253,86128,1,0,0:0:0:0:
124,151,86294,1,0,3:0:0:0:
25,337,86461,2,0,P|5:280|15:232,1,97.9999970092774,8|0,0:0|0:0,0:0:0:0:
199,114,86794,6,0,P|202:162|184:207,1,97.9999970092774,2|0,0:0|3:0,0:0:0:0:
356,51,87128,2,0,P|324:88|279:106,1,97.9999970092774,10|0,0:0|0:0,0:0:0:0:
415,132,87461,1,2,3:0:0:0:
184,207,87628,2,0,P|228:225|260:262,1,97.9999970092774,8|2,0:0|0:0,0:0:0:0:
308,352,87961,1,2,3:0:0:0:
20,160,88128,6,0,L|156:149,1,105.000004005432,0|0,3:0|0:0,0:0:0:0:
415,132,88461,1,8,0:0:0:0:
300,39,88628,1,2,0:0:0:0:
300,39,88711,1,2,0:0:0:0:
300,39,88794,1,2,0:0:0:0:
188,284,88961,1,0,3:0:0:0:
217,83,89128,2,0,P|171:58|119:49,1,105.000004005432,8|0,0:0|0:0,0:0:0:0:
318,239,89461,6,0,P|369:230|415:205,1,105.000004005432,0|0,0:0|3:0,0:0:0:0:
141,129,89794,1,8,0:0:0:0:
228,290,89961,1,2,0:0:0:0:
188,284,90044,1,2,0:0:0:0:
149,279,90127,1,2,0:0:0:0:
110,274,90210,1,2,0:0:0:0:
71,269,90294,1,0,3:0:0:0:
337,162,90461,2,0,L|232:175,1,105.000004005432,8|0,0:0|0:0,0:0:0:0:
450,380,90794,6,0,P|435:330|453:281,1,105.000004005432,0|0,3:0|0:0,0:0:0:0:
512,173,91128,1,8,0:0:0:0:
318,239,91294,1,2,0:0:0:0:
318,239,91378,1,2,0:0:0:0:
318,239,91461,1,2,0:0:0:0:
364,20,91628,1,0,3:0:0:0:
110,94,91794,2,0,L|214:101,1,105.000004005432,8|0,0:0|0:0,0:0:0:0:
96,318,92128,6,0,P|60:256|67:216,1,105.000004005432,2|0,0:0|3:0,0:0:0:0:
254,276,92461,2,0,P|202:274|161:243,1,105.000004005432,10|0,0:0|0:0,0:0:0:0:
80,23,92794,1,2,0:0:0:0:
230,201,92961,1,0,3:0:0:0:
281,7,93128,1,10,0:0:0:0:
17,153,93294,1,2,3:0:0:0:
329,117,93461,6,0,L|433:129,1,105.000004005432,0|0,3:0|0:0,0:0:0:0:
208,99,93794,1,8,0:0:0:0:
498,69,93961,1,2,0:0:0:0:
498,69,94044,1,2,0:0:0:0:
498,69,94128,1,2,0:0:0:0:
291,12,94294,1,0,3:0:0:0:
433,129,94461,2,0,P|454:183|443:240,1,105.000004005432,8|0,0:0|0:0,0:0:0:0:
204,344,94794,6,0,P|198:292|219:244,1,105.000004005432,0|0,0:0|3:0,0:0:0:0:
327,118,95128,1,8,0:0:0:0:
66,170,95294,1,2,0:0:0:0:
104,177,95377,1,2,0:0:0:0:
143,171,95460,1,2,0:0:0:0:
177,153,95543,1,2,0:0:0:0:
204,124,95628,1,0,3:0:0:0:
312,14,95794,2,0,L|328:127,1,105.000004005432,8|0,0:0|0:0,0:0:0:0:
407,347,96128,6,0,L|423:234,1,105.000004005432,0|0,3:0|0:0,0:0:0:0:
441,100,96461,1,8,0:0:0:0:
278,312,96628,1,2,0:0:0:0:
278,312,96711,1,2,0:0:0:0:
278,312,96794,1,2,0:0:0:0:
326,117,96961,1,0,3:0:0:0:
218,244,97128,2,0,P|167:234|129:199,1,105.000004005432,8|0,0:0|0:0,3:0:0:0:
23,71,97461,6,0,P|62:128|48:188,1,105.000004005432,2|0,0:0|3:0,0:0:0:0:
162,13,97794,2,0,P|133:56|137:107,1,105.000004005432,10|0,0:0|0:0,0:0:0:0:
301,52,98128,2,0,P|249:48|206:76,1,105.000004005432,2|0,0:0|3:0,0:0:0:0:
380,240,98461,1,10,0:0:0:0:
378,26,98628,1,2,3:0:0:0:
378,26,98711,1,2,3:0:0:0:
378,26,98794,6,0,L|482:33,1,105.000004005432,0|0,3:0|0:0,0:0:0:0:
305,198,99128,2,0,L|200:205,1,105.000004005432,8|2,0:0|0:0,0:0:0:0:
170,214,99378,1,2,0:0:0:0:
149,242,99461,1,2,0:0:0:0:
138,275,99544,1,2,0:0:0:0:
136,310,99627,1,0,3:0:0:0:
385,225,99794,2,0,P|379:174|348:118,1,105.000004005432,8|0,0:0|0:0,0:0:0:0:
465,310,100128,6,0,L|360:320,1,105.000004005432,0|0,0:0|3:0,0:0:0:0:
151,341,100461,1,8,0:0:0:0:
385,225,100628,1,2,0:0:0:0:
345,221,100711,1,2,0:0:0:0:
306,217,100794,1,2,0:0:0:0:
267,213,100877,1,2,0:0:0:0:
228,210,100961,1,0,3:0:0:0:
56,73,101128,2,0,P|122:55|153:16,1,105.000004005432,8|0,0:0|0:0,3:0:0:0:
320,127,101461,6,0,P|281:92|230:84,1,105.000004005432,0|0,3:0|0:0,3:0:0:0:
438,37,101794,1,8,0:0:0:0:
244,180,101961,1,2,0:0:0:0:
244,180,102044,1,2,0:0:0:0:
244,180,102128,1,2,0:0:0:0:
512,125,102294,1,0,3:0:0:0:
333,22,102461,2,0,L|319:126,1,105.000004005432,8|0,0:0|0:0,0:0:0:0:
204,255,102794,6,0,P|282:253|313:227,1,105.000004005432,2|0,0:0|3:0,0:0:0:0:
158,129,103128,2,0,P|193:167|243:179,1,105.000004005432,10|0,0:0|0:0,0:0:0:0:
155,30,103461,1,2,0:0:0:0:
44,214,103628,1,0,3:0:0:0:
233,101,103794,1,10,0:0:0:0:
12,68,103961,1,2,3:0:0:0:
161,233,104128,6,0,L|156:128,1,105.000004005432,0|0,3:0|0:0,0:0:0:0:
285,383,104461,2,0,L|289:278,1,105.000004005432,8|2,0:0|0:0,0:0:0:0:
296,247,104711,1,2,0:0:0:0:
324,227,104794,1,2,0:0:0:0:
359,221,104877,1,2,0:0:0:0:
392,228,104960,1,0,3:0:0:0:
201,301,105128,2,0,P|151:313|103:293,1,105.000004005432,8|0,0:0|0:0,0:0:0:0:
36,113,105461,5,0,0:0:0:0:
156,239,105628,1,0,3:0:0:0:
0,202,105794,2,0,L|118:177,1,105.000004005432,8|0,0:0|0:0,0:0:0:0:
218,151,106128,1,0,0:0:0:0:
127,55,106294,1,0,3:0:0:0:
227,162,106461,2,0,L|341:179,1,105.000004005432,8|0,0:0|0:0,0:0:0:0:
473,40,106794,5,2,3:0:0:0:
453,57,106877,1,2,0:0:0:0:
437,77,106960,1,2,0:0:0:0:
426,101,107043,1,2,0:0:0:0:
420,127,107127,1,10,0:0:0:0:
419,153,107210,1,2,0:0:0:0:
424,179,107293,1,2,0:0:0:0:
434,203,107377,1,2,0:0:0:0:
449,224,107461,1,2,0:0:0:0:
422,227,107544,1,2,0:0:0:0:
396,226,107627,1,2,3:0:0:0:
371,219,107710,1,2,0:0:0:0:
348,206,107794,1,10,0:0:0:0:
325,194,107877,1,2,0:0:0:0:
299,191,107960,1,2,0:0:0:0:
273,194,108044,1,2,0:0:0:0:
237,204,108128,5,2,0:0:0:0:
211,210,108211,1,2,0:0:0:0:
186,206,108294,1,2,3:0:0:0:
164,192,108377,1,2,0:0:0:0:
151,170,108461,1,10,0:0:0:0:
148,144,108544,1,2,0:0:0:0:
156,119,108627,1,2,0:0:0:0:
174,100,108711,1,2,0:0:0:0:
195,91,108794,1,2,0:0:0:0:
220,98,108877,1,2,0:0:0:0:
246,99,108960,1,2,3:0:0:0:
271,92,109043,1,2,0:0:0:0:
294,79,109128,6,0,P|328:83|360:96,1,70,10|4,0:0|0:0,0:0:0:0:
296,145,119461,5,0,3:0:0:0:
335,79,119628,1,0,3:0:0:0:
405,48,119794,1,0,3:0:0:0:
480,71,119961,1,0,3:0:0:0:
296,145,120128,6,0,L|137:118,1,140,0|0,3:0|0:0,0:0:0:0:
55,156,120628,1,0,0:0:0:0:
109,241,120794,2,0,P|111:276|97:321,1,70,10|0,0:0|0:0,0:0:0:0:
207,213,121128,2,0,P|204:247|213:281,1,70,2|0,0:0|0:0,0:0:0:0:
294,349,121461,6,0,L|367:339,1,70,2|0,0:0|0:0,0:0:0:0:
443,271,121794,2,0,L|512:280,1,70,2|0,3:0|0:0,0:0:0:0:
446,131,122128,2,0,P|408:188|341:192,1,140,8|0,0:0|0:0,0:0:0:0:
244,48,122628,1,0,0:0:0:0:
159,117,122794,6,0,L|81:111,1,70,0|0,3:0|0:0,0:0:0:0:
191,285,123128,1,2,0:0:0:0:
113,203,123294,1,2,0:0:0:0:
126,353,123461,1,10,0:0:0:0:
194,200,123628,2,0,P|232:170|272:162,1,70,2|0,0:0|0:0,0:0:0:0:
334,289,123961,6,0,P|301:276|275:252,1,70,2|2,3:0|0:0,0:0:0:0:
413,361,124294,1,8,0:0:0:0:
413,361,124461,2,0,L|423:276,1,70,2|0,3:0|0:0,0:0:0:0:
469,188,124794,2,0,L|460:118,1,70,10|0,0:0|0:0,0:0:0:0:
307,128,125128,1,2,0:0:0:0:
368,20,125294,1,2,0:0:0:0:
336,197,125461,6,0,B|301:204|301:204|256:189,1,70,2|0,3:0|0:0,0:0:0:0:
136,97,125794,2,0,B|168:86|168:86|203:93,1,70,2|2,0:0|0:0,0:0:0:0:
73,176,126128,2,0,P|63:217|66:260,1,70,8|0,0:0|0:0,0:0:0:0:
98,352,126461,1,2,0:0:0:0:
142,218,126628,1,2,0:0:0:0:
208,311,126794,6,0,P|246:313|281:305,1,70,2|0,0:0|0:0,0:0:0:0:
384,384,127128,2,0,P|377:349|379:314,1,70,2|2,3:0|0:0,0:0:0:0:
499,211,127461,2,0,P|453:231|391:172,1,140,8|0,0:0|0:0,0:0:0:0:
388,61,127961,1,0,0:0:0:0:
271,89,128128,6,0,L|175:75,2,87.5,2|2|2,3:0|0:0|0:0,0:0:0:0:
95,182,128794,2,0,L|201:170,2,93.3333333333333,10|2|2,0:0|0:0|0:0,0:0:0:0:
102,262,129461,6,0,B|93:298|93:298|114:359,2,93.3333333333333,2|2|2,0:0|0:0|0:0,0:0:0:0:
187,171,130128,1,10,0:0:0:0:
257,305,130294,1,0,3:0:0:0:
118,147,130461,1,2,3:0:0:0:
279,230,130628,1,0,3:0:0:0:
243,106,130794,6,0,B|318:83|318:83|398:110,1,140,0|0,3:0|0:0,0:0:0:0:
473,130,131294,1,0,0:0:0:0:
410,204,131461,2,0,L|419:276,1,70,10|0,0:0|0:0,0:0:0:0:
315,159,131794,2,0,L|306:228,1,70,2|0,0:0|0:0,0:0:0:0:
240,308,132128,6,0,P|184:308|162:290,1,70,2|0,0:0|0:0,0:0:0:0:
43,213,132461,2,0,P|75:200|109:206,1,70,2|0,3:0|0:0,0:0:0:0:
26,76,132794,2,0,P|81:107|163:90,1,140,8|0,0:0|0:0,0:0:0:0:
223,21,133294,1,0,0:0:0:0:
315,159,133461,6,0,L|400:141,1,70,0|0,3:0|0:0,0:0:0:0:
480,284,133794,1,2,0:0:0:0:
452,192,133961,1,2,0:0:0:0:
374,280,134128,2,0,P|362:309|356:365,1,70,10|2,0:0|0:0,0:0:0:0:
221,146,134461,1,0,0:0:0:0:
258,232,134628,6,0,P|270:264|276:298,1,70,2|2,3:0|0:0,0:0:0:0:
182,348,134961,1,8,0:0:0:0:
182,348,135128,2,0,L|94:341,1,70,2|0,3:0|0:0,0:0:0:0:
6,284,135461,2,0,P|55:266|73:172,1,140,8|2,0:0|0:0,0:0:0:0:
155,94,135961,1,0,0:0:0:0:
5,50,136128,6,0,L|80:43,1,70,0|0,3:0|0:0,0:0:0:0:
155,94,136461,1,2,0:0:0:0:
229,35,136628,1,2,0:0:0:0:
280,165,136794,2,0,B|325:132|325:132|418:145,1,140,10|0,0:0|0:0,0:0:0:0:
350,238,137294,1,0,0:0:0:0:
449,79,137461,6,0,P|476:115|478:149,1,70,2|0,0:0|0:0,0:0:0:0:
491,249,137794,2,0,P|483:282|460:308,1,70,2|0,3:0|0:0,0:0:0:0:
350,238,138128,2,0,P|308:213|208:217,1,140,8|0,0:0|0:0,0:0:0:0:
123,315,138628,1,2,0:0:0:0:
123,315,138711,1,0,0:0:0:0:
123,315,138794,6,0,B|139:270|139:270|129:222,2,87.5,2|2|2,3:0|0:0|0:0,0:0:0:0:
0,144,139461,2,0,B|47:132|47:132|100:152|100:152|139:144,1,140,10|0,0:0|0:0,0:0:0:0:
134,144,139906,1,2,0:0:0:0:
225,36,140128,6,0,P|199:81|270:147,1,140,2|2,0:0|3:0,0:0:0:0:
355,166,140628,1,2,0:0:0:0:
226,247,140794,1,10,0:0:0:0:
295,218,140961,1,0,3:0:0:0:
365,248,141128,1,0,3:0:0:0:
394,318,141294,1,0,3:0:0:0:
226,247,141461,6,0,L|11:208,1,210.000008010865,2|0,0:0|0:0,0:0:0:0:
169,314,142461,2,0,L|117:303,1,52.5000020027161,2|0,0:0|0:0,0:0:0:0:
24,127,142794,2,0,L|230:164,1,210.000008010865,2|2,0:0|0:0,0:0:0:0:
382,36,144128,6,0,P|359:66|442:190,1,210.000008010865,2|0,0:0|0:0,0:0:0:0:
170,69,145128,2,0,L|223:77,1,52.5000020027161,2|0,0:0|0:0,0:0:0:0:
399,31,145461,2,0,P|376:61|459:185,1,210.000008010865,2|2,0:0|0:0,0:0:0:0:
332,277,146794,6,0,B|213:296|244:223|113:251,1,210.000008010865,2|0,0:0|0:0,0:0:0:0:
289,143,147794,2,0,P|300:182|295:204,1,52.5000020027161,2|0,0:0|0:0,0:0:0:0:
324,301,148128,2,0,B|205:320|236:247|105:275,1,210.000008010865,2|2,0:0|0:0,0:0:0:0:
64,129,149461,2,0,P|87:84|120:175,1,210.000008010865,2|0,0:0|0:0,0:0:0:0:
241,72,150461,2,0,P|279:56|307:55,1,52.5000020027161,2|0,0:0|0:0,0:0:0:0:
394,178,150794,6,0,P|345:159|287:119,1,105.000004005432,2|0,0:0|0:0,0:0:0:0:
412,277,151294,1,2,0:0:0:0:
274,217,151461,2,0,P|225:236|167:276,1,105.000004005432,2|0,0:0|0:0,0:0:0:0:
180,264,152128,6,0,P|121:275|111:195,1,140,2|0,3:0|0:0,0:0:0:0:
160,153,152628,1,0,0:0:0:0:
51,92,152794,2,0,L|134:84,1,70,8|0,0:0|0:0,0:0:0:0:
205,57,153128,2,0,L|288:65,1,70,2|0,0:0|0:0,0:0:0:0:
377,10,153461,6,0,P|367:45|379:90,1,70,2|0,0:0|0:0,0:0:0:0:
489,159,153794,2,0,P|453:153|409:161,1,70,0|0,3:0|0:0,0:0:0:0:
353,224,154128,2,0,B|371:267|371:267|360:318|360:318|379:368,1,140,10|0,0:0|0:0,0:0:0:0:
273,176,154628,1,0,0:0:0:0:
164,282,154794,6,0,P|196:259|230:254,1,70,2|0,3:0|0:0,0:0:0:0:
136,204,155128,2,0,P|102:196|73:175,1,70
214,3,155461,2,0,L|201:142,1,140,8|2,0:0|0:0,0:0:0:0:
317,36,155961,6,0,L|324:113,1,70,0|2,0:0|0:0,0:0:0:0:
385,193,156294,1,0,0:0:0:0:
316,251,156461,2,0,B|350:272|350:272|392:279,1,70,0|0,3:0|0:0,0:0:0:0:
240,221,156794,2,0,B|210:225|210:225|176:246,1,70,10|0,0:0|0:0,0:0:0:0:
131,332,157128,1,0,0:0:0:0:
97,181,157294,1,0,0:0:0:0:
0,278,157461,6,0,P|44:270|74:283,1,70,2|0,3:0|0:0,0:0:0:0:
97,181,157794,2,0,P|135:203|150:232,1,70,2|0,0:0|0:0,0:0:0:0:
226,171,158128,2,0,P|246:210|242:243,1,70,10|0,0:0|0:0,0:0:0:0:
175,331,158461,1,2,0:0:0:0:
335,188,158628,6,0,P|339:241|297:319,1,140,2|0,0:0|0:0,0:0:0:0:
385,115,159128,2,0,P|341:90|330:67,1,70,2|0,3:0|0:0,0:0:0:0:
478,200,159461,2,0,P|432:221|407:217,1,70,10|0,0:0|0:0,0:0:0:0:
282,137,159794,1,2,0:0:0:0:
430,339,159961,1,2,0:0:0:0:
299,316,160128,6,0,B|228:295|236:351|163:329,1,140,0|0,3:0|0:0,0:0:0:0:
109,218,160628,1,0,0:0:0:0:
188,254,160794,2,0,P|195:206|187:179,1,70,8|0,0:0|0:0,0:0:0:0:
29,148,161128,2,0,P|23:182|30:216,1,70
89,65,161461,5,2,3:0:0:0:
89,65,161794,5,0,3:0:0:0:
189,185,161961,1,2,3:0:0:0:
248,49,162128,1,2,3:0:0:0:
141,126,162294,5,2,3:0:0:0:
169,51,162461,1,0,3:0:0:0:
224,117,162628,1,0,3:0:0:0:
39,89,162794,6,0,P|103:106|123:25,1,140,0|2,3:0|0:0,0:0:0:0:
287,157,163294,1,0,0:0:0:0:
62,265,163461,2,0,L|136:262,1,70,8|0,0:0|0:0,0:0:0:0:
302,314,163794,1,0,0:0:0:0:
131,349,163961,6,0,L|200:351,1,70,0|0,3:0|0:0,0:0:0:0:
344,185,164294,1,0,0:0:0:0:
415,313,164461,2,0,P|441:279|475:265,1,70,0|0,3:0|0:0,0:0:0:0:
302,314,164794,2,0,P|271:296|252:268,1,70,8|0,0:0|0:0,0:0:0:0:
219,110,165128,1,0,0:0:0:0:
93,264,165294,1,0,0:0:0:0:
294,181,165461,6,0,B|335:175|335:175|390:200|390:200|427:196,1,140,0|0,3:0|0:0,0:0:0:0:
95,128,165961,1,0,3:0:0:0:
124,329,166128,2,0,P|87:337|44:319,1,70,8|0,0:0|0:0,0:0:0:0:
168,83,166461,1,0,0:0:0:0:
247,272,166628,6,0,P|280:280|314:272,1,70,2|2,3:0|0:0,0:0:0:0:
478,44,166961,1,0,3:0:0:0:
392,161,167128,2,0,B|372:215|372:215|395:275,1,105,0|0,3:0|0:0,0:0:0:0:
406,283,167461,1,10,0:0:0:0:
293,44,167628,2,0,L|310:124,1,70,2|0,3:0|0:0,0:0:0:0:
225,272,167961,1,0,3:0:0:0:
161,40,168128,6,0,L|131:199,1,140,0|2,3:0|0:0,0:0:0:0:
46,96,168628,1,0,0:0:0:0:
102,299,168794,2,0,P|75:258|54:246,1,70,8|0,0:0|0:0,0:0:0:0:
216,185,169128,1,0,0:0:0:0:
285,371,169294,6,0,P|301:340|329:319,1,70,0|0,3:0|0:0,0:0:0:0:
403,140,169628,1,0,0:0:0:0:
470,318,169794,2,0,B|479:281|479:281|469:229,1,70,0|0,3:0|0:0,0:0:0:0:
327,98,170128,2,0,B|318:135|318:135|324:166,1,70,8|0,0:0|0:0,0:0:0:0:
405,276,170461,1,0,0:0:0:0:
215,189,170628,1,0,0:0:0:0:
221,344,170794,6,0,P|164:297|88:321,1,140,0|0,3:0|0:0,0:0:0:0:
205,120,171294,1,0,0:0:0:0:
64,222,171461,2,0,L|76:143,1,70,8|0,0:0|0:0,0:0:0:0:
188,16,171794,1,0,0:0:0:0:
215,189,171961,6,0,L|204:119,1,70,0|2,3:0|0:0,0:0:0:0:
345,281,172294,1,0,3:0:0:0:
345,281,172461,2,0,P|374:290|416:289,1,70,0|2,3:0|0:0,0:0:0:0:
315,170,172794,1,10,0:0:0:0:
214,359,172961,2,0,P|179:357|145:367,1,70,2|0,3:0|0:0,0:0:0:0:
336,155,173294,1,0,3:0:0:0:
336,155,173461,6,0,B|371:225|371:225|338:295,1,140,0|2,3:0|0:0,0:0:0:0:
460,127,173961,1,0,0:0:0:0:
302,76,174128,2,0,P|341:64|366:35,1,70,8|0,0:0|0:0,0:0:0:0:
284,224,174461,1,0,0:0:0:0:
168,95,174628,6,0,P|142:71|108:62,1,70,0|0,3:0|0:0,0:0:0:0:
232,16,174961,1,0,0:0:0:0:
100,149,175128,2,0,L|90:224,1,70,0|0,3:0|0:0,0:0:0:0:
1,336,175461,2,0,B|82:355|56:293|133:315,1,140,8|0,0:0|0:0,0:0:0:0:
260,355,175961,1,0,0:0:0:0:
433,257,176128,6,0,P|399:267|320:201,1,140,0|0,3:0|0:0,0:0:0:0:
346,61,176628,1,0,3:0:0:0:
235,164,176794,2,0,L|216:258,1,70,8|0,0:0|0:0,0:0:0:0:
188,48,177128,1,0,0:0:0:0:
115,276,177294,6,0,L|96:182,1,70,0|0,3:0|0:0,0:0:0:0:
76,85,177628,1,0,3:0:0:0:
194,302,177794,2,0,P|231:309|279:285,1,70,0|0,3:0|0:0,0:0:0:0:
448,230,178128,1,8,0:0:0:0:
319,151,178294,2,0,B|307:187|307:187|311:218,1,70,0|0,3:0|0:0,0:0:0:0:
412,73,178628,1,0,3:0:0:0:
164,53,178794,6,0,L|308:35,1,140,0|0,3:0|0:0,0:0:0:0:
82,27,179294,1,0,0:0:0:0:
179,184,179461,1,8,0:0:0:0:
164,53,179628,1,0,0:0:0:0:
103,247,179794,1,0,0:0:0:0:
238,128,179961,6,0,P|261:191|228:250,1,140,0|0,3:0|0:0,0:0:0:0:
377,218,180461,2,0,P|345:231|322:258,1,70,0|0,3:0|0:0,0:0:0:0:
468,133,180794,2,0,P|430:154|393:78,1,140,8|0,0:0|0:0,0:0:0:0:
471,57,181294,1,0,0:0:0:0:
306,140,181461,6,0,L|217:124,1,70,0|0,3:0|0:0,0:0:0:0:
139,19,181794,2,0,L|155:108,1,70
36,170,182128,2,0,L|125:186,1,70
196,288,182461,2,0,L|212:199,1,70
339,329,182794,6,0,P|304:308|287:279,1,70,2|0,0:0|0:0,0:0:0:0:
428,236,183128,2,0,P|392:255|358:256,1,70,2|0,0:0|0:0,3:0:0:0:
406,108,183461,1,10,0:0:0:0:
236,189,183628,2,0,P|270:191|300:209,1,70,0|2,3:0|0:0,3:0:0:0:
174,21,183961,1,2,3:0:0:0:
61,291,184128,6,0,L|82:164,1,105.000004005432,0|0,3:0|0:0,0:0:0:0:
101,59,184461,1,8,0:0:0:0:
174,259,184628,1,2,0:0:0:0:
174,259,184711,1,2,0:0:0:0:
174,259,184794,1,2,0:0:0:0:
17,107,184961,1,0,3:0:0:0:
231,192,185128,2,0,P|281:194|350:158,1,105.000004005432,8|0,0:0|0:0,0:0:0:0:
460,21,185461,6,0,P|443:66|452:126,1,105.000004005432,0|0,0:0|3:0,0:0:0:0:
265,118,185794,1,8,0:0:0:0:
500,276,185961,1,2,0:0:0:0:
463,269,186044,1,2,0:0:0:0:
427,263,186127,1,2,0:0:0:0:
391,256,186211,1,2,0:0:0:0:
355,250,186294,1,0,3:0:0:0:
138,347,186461,2,0,L|248:323,1,105.000004005432,8|0,0:0|0:0,0:0:0:0:
81,150,186794,6,0,L|191:174,1,105.000004005432,0|0,3:0|0:0,0:0:0:0:
375,34,187128,1,8,0:0:0:0:
299,196,187294,1,2,0:0:0:0:
299,196,187378,1,2,0:0:0:0:
299,196,187461,1,2,0:0:0:0:
249,0,187628,1,0,3:0:0:0:
355,250,187794,2,0,P|379:194|361:126,1,105.000004005432,8|0,0:0|0:0,0:0:0:0:
210,294,188128,6,0,P|261:293|306:319,1,105.000004005432,2|0,0:0|3:0,0:0:0:0:
124,277,188461,2,0,P|153:234|200:211,1,105.000004005432,10|0,0:0|0:0,0:0:0:0:
373,151,188794,1,2,0:0:0:0:
176,24,188961,2,0,L|164:128,1,105.000004005432,0|10,3:0|0:0,0:0:0:0:
138,352,189294,1,2,3:0:0:0:
57,97,189461,6,0,L|68:201,1,105.000004005432,0|0,3:0|0:0,0:0:0:0:
270,275,189794,1,8,0:0:0:0:
157,121,189961,1,2,0:0:0:0:
164,128,190044,1,2,0:0:0:0:
164,128,190128,1,2,0:0:0:0:
131,350,190294,1,0,3:0:0:0:
237,195,190461,2,0,P|285:189|351:218,1,105.000004005432,8|0,0:0|0:0,0:0:0:0:
467,330,190794,6,0,P|418:348|366:342,1,105.000004005432,0|0,0:0|3:0,0:0:0:0:
287,109,191128,1,8,0:0:0:0:
173,249,191294,1,2,0:0:0:0:
159,212,191377,1,2,0:0:0:0:
162,173,191460,1,2,0:0:0:0:
180,138,191544,1,2,0:0:0:0:
211,115,191628,1,0,3:0:0:0:
104,311,191794,2,0,P|91:258|54:210,1,105.000004005432,8|0,0:0|0:0,0:0:0:0:
184,37,192128,6,0,L|68:27,1,105.000004005432,0|0,3:0|0:0,0:0:0:0:
237,195,192461,1,8,0:0:0:0:
317,28,192628,1,2,0:0:0:0:
317,28,192711,1,2,0:0:0:0:
317,28,192794,1,2,0:0:0:0:
127,156,192961,1,0,3:0:0:0:
351,117,193128,2,0,L|462:109,1,105.000004005432,8|0,0:0|0:0,0:0:0:0:
209,213,193461,6,0,P|148:159|102:155,1,105.000004005432,2|0,0:0|3:0,3:0:0:0:
317,28,193794,2,0,P|265:37|225:70,1,105.000004005432,10|0,0:0|3:0,3:0:0:0:
125,249,194128,1,2,0:0:0:0:
393,149,194294,1,0,3:0:0:0:
118,75,194461,1,10,0:0:0:0:
314,257,194628,1,2,3:0:0:0:
314,257,194711,1,2,3:0:0:0:
314,257,194794,6,0,L|305:365,1,105.000004005432,0|0,3:0|0:0,0:0:0:0:
393,149,195128,1,8,0:0:0:0:
223,306,195294,1,2,0:0:0:0:
223,306,195378,1,2,0:0:0:0:
223,306,195461,1,2,0:0:0:0:
282,88,195628,1,0,3:0:0:0:
401,248,195794,2,0,P|450:275|502:265,1,105.000004005432,8|0,0:0|0:0,0:0:0:0:
377,67,196128,6,0,P|325:60|281:87,1,105.000004005432,0|0,0:0|3:0,0:0:0:0:
230,255,196461,1,8,0:0:0:0:
176,103,196628,1,2,0:0:0:0:
170,141,196711,1,2,0:0:0:0:
164,180,196794,1,2,0:0:0:0:
158,219,196878,1,2,0:0:0:0:
152,258,196961,1,0,3:0:0:0:
46,91,197128,2,0,L|56:208,1,105.000004005432,8|0,0:0|0:0,0:0:0:0:
281,87,197461,6,0,P|220:74|182:34,1,105.000004005432,0|0,3:0|0:0,0:0:0:0:
345,213,197794,1,8,0:0:0:0:
451,32,197961,1,2,0:0:0:0:
451,32,198044,1,2,0:0:0:0:
451,32,198128,1,2,0:0:0:0:
481,220,198294,1,0,3:0:0:0:
361,36,198461,2,0,L|350:148,1,105.000004005432,8|0,0:0|0:0,0:0:0:0:
168,319,198794,6,0,P|243:289|291:299,1,105.000004005432,2|0,0:0|3:0,0:0:0:0:
64,167,199128,2,0,P|143:179|179:213,1,105.000004005432,10|0,0:0|0:0,0:0:0:0:
239,368,199461,1,2,0:0:0:0:
292,90,199628,1,0,3:0:0:0:
458,330,199794,1,10,0:0:0:0:
161,193,199961,1,2,3:0:0:0:
161,193,200044,1,0,0:0:0:0:
161,193,200128,6,0,L|19:180,1,105.000004005432,0|0,3:0|0:0,0:0:0:0:
265,293,200461,2,0,L|369:283,1,105.000004005432,8|2,0:0|0:0,0:0:0:0:
398,276,200711,1,2,0:0:0:0:
413,244,200794,1,2,0:0:0:0:
417,210,200877,1,2,0:0:0:0:
411,176,200961,1,0,3:0:0:0:
264,58,201128,2,0,P|244:106|250:157,1,105.000004005432,8|0,0:0|0:0,0:0:0:0:
114,32,201461,5,0,0:0:0:0:
161,193,201628,1,0,3:0:0:0:
52,84,201794,2,0,L|37:196,1,97.9999970092774,8|0,0:0|0:0,0:0:0:0:
87,338,202128,1,0,0:0:0:0:
161,193,202294,1,0,3:0:0:0:
219,311,202461,2,0,P|265:329|311:327,1,90.9999958343508,8|0,0:0|0:0,0:0:0:0:
425,286,202794,5,2,3:0:0:0:
406,267,202877,1,2,0:0:0:0:
394,244,202960,1,2,0:0:0:0:
390,218,203044,1,2,0:0:0:0:
395,192,203127,1,2,0:0:0:0:
407,169,203210,1,2,0:0:0:0:
426,151,203294,1,10,0:0:0:0:
450,140,203377,1,2,0:0:0:0:
475,135,203461,1,2,0:0:0:0:
448,132,203544,1,2,0:0:0:0:
422,129,203627,1,2,0:0:0:0:
396,126,203711,1,2,0:0:0:0:
370,123,203794,1,10,0:0:0:0:
344,121,203877,1,2,0:0:0:0:
318,118,203961,1,2,0:0:0:0:
291,115,204044,1,2,0:0:0:0:
263,123,204128,5,2,0:0:0:0:
237,130,204211,1,2,0:0:0:0:
212,134,204294,1,2,3:0:0:0:
186,130,204378,1,2,0:0:0:0:
162,120,204461,1,2,0:0:0:0:
137,109,204544,1,2,0:0:0:0:
112,104,204628,1,2,3:0:0:0:
86,105,204711,1,2,0:0:0:0:
64,119,204794,1,10,0:0:0:0:
64,145,204877,1,2,0:0:0:0:
65,171,204960,1,2,0:0:0:0:
66,197,205044,1,2,0:0:0:0:
68,226,205128,6,0,L|61:301,1,70,2|4,0:0|0:0,0:0:0:0:
