osu file format v14

[General]
AudioFilename: Dreamin.mp3
AudioLeadIn: 0
PreviewTime: 79148
Countdown: 0
SampleSet: Soft
StackLeniency: 0.7
Mode: 2
LetterboxInBreaks: 0
WidescreenStoryboard: 0

[Editor]
Bookmarks: 61648,91785
DistanceSpacing: 1
BeatDivisor: 4
GridSize: 8
TimelineZoom: 1

[Metadata]
Title:dreamin' feat.Ryu*
TitleUnicode:dreamin' feat.Ryu☆
Artist:Mayumi Morinaga(moimoi)
ArtistUnicode:Mayumi Morinaga(moimoi)
Creator:Ster
Version:YOU ARE MY DREAM
Source:SOUND VOLTEX BOOTH
Tags:SDVX BEMANI KONAMI EXIT TUNES Glitter 神巫詞 Sakura Luminance senya
BeatmapID:792972
BeatmapSetID:360829

[Difficulty]
HPDrainRate:7
CircleSize:4
OverallDifficulty:9.5
ApproachRate:9.5
SliderMultiplier:3
SliderTickRate:2

[Events]
//Background and Video events
0,0,"BG.jpg",0,0
//Break Periods
2,39733,45162
//Storyboard Layer 0 (Background)
//Storyboard Layer 1 (Fail)
//Storyboard Layer 2 (Pass)
//Storyboard Layer 3 (Foreground)
//Storyboard Sound Samples

[TimingPoints]
1072,384.615384615385,4,2,0,60,1,0
2610,-200,4,2,0,60,0,0
14918,-133.333333333333,4,1,99,70,0,0
15014,-133.333333333333,4,1,0,70,0,0
27225,-133.333333333333,4,2,0,70,0,0
28379,-66.6666666666667,4,2,0,70,0,1
28764,-133.333333333333,4,2,0,70,0,0
31456,-66.6666666666667,4,2,0,70,0,1
31841,-133.333333333333,4,2,0,70,0,0
32995,-100,4,2,0,70,0,1
33379,-133.333333333333,4,2,0,70,0,0
34533,-66.6666666666667,4,2,0,70,0,1
34918,-133.333333333333,4,2,0,70,0,0
36072,-66.6666666666667,4,2,0,70,0,1
36456,-133.333333333333,4,2,0,70,0,0
45687,-133.333333333333,4,2,0,20,0,0
50110,-133.333333333333,4,1,0,20,0,0
50302,-100,4,1,0,55,0,0
50495,-100,4,1,0,35,0,0
51841,-133.333333333333,4,1,0,50,0,0
57995,-133.333333333333,4,1,0,55,0,0
61072,-100,4,1,0,55,0,0
64533,-100,4,2,0,55,0,0
67225,-100,4,1,98,85,0,1
67322,-100,4,1,1,85,0,1
79148,-100,4,1,0,85,0,0
79533,-90.9090909090909,4,1,98,100,0,1
79629,-90.9090909090909,4,1,0,100,0,1
91456,-90.9090909090909,4,1,0,100,0,0
91841,-90.9090909090909,4,1,98,100,0,1
91937,-90.9090909090909,4,1,0,100,0,1
104148,-100,4,1,0,100,0,0
104245,-100,4,1,0,5,0,0

[Colours]
Combo1 : 255,128,0
Combo2 : 255,128,255
Combo3 : 0,128,128
Combo4 : 128,128,255

[HitObjects]
256,192,1072,5,2,0:0:0:0:
256,192,1168,12,0,2225,0:0:0:0:
448,304,2610,6,0,L|464:208,1,75,0|2,0:0|0:0,0:0:0:0:
304,240,2995,2,0,L|288:184,1,37.5,0|2,0:0|0:0,0:0:0:0:
424,216,3283,2,0,L|440:160,1,37.5,0|2,0:0|0:0,0:0:0:0:
272,176,3572,1,0,0:0:0:0:
240,168,3668,1,2,0:0:0:0:
392,160,3860,1,0,0:0:0:0:
424,152,3956,1,2,0:0:0:0:
64,304,4148,6,0,L|48:208,1,75,0|2,0:0|0:0,0:0:0:0:
208,240,4533,2,0,L|224:184,1,37.5,0|2,0:0|0:0,0:0:0:0:
88,216,4821,2,0,L|72:160,1,37.5,0|2,0:0|0:0,0:0:0:0:
240,176,5110,1,0,0:0:0:0:
272,168,5206,1,2,0:0:0:0:
120,160,5398,1,0,0:0:0:0:
88,152,5494,1,2,0:0:0:0:
352,264,5687,6,0,L|376:160,1,75,0|2,0:0|0:0,0:0:0:0:
240,216,6072,1,0,0:0:0:0:
200,216,6168,2,0,L|96:216,1,75,2|0,0:0|0:0,0:0:0:0:
288,176,6456,2,0,L|392:176,1,75,2|0,0:0|0:0,0:0:0:0:
448,160,6745,2,0,L|464:64,1,75,2|0,0:0|0:0,0:0:0:0:
288,176,7033,1,0,0:0:0:0:
440,96,7225,6,0,L|496:80,2,37.5,0|0|2,0:0|0:0|0:0,0:0:0:0:
328,80,7610,2,0,L|344:24,2,37.5,0|0|2,0:0|0:0|0:0,0:0:0:0:
184,80,7995,2,0,L|168:24,2,37.5,0|0|2,0:0|0:0|0:0,0:0:0:0:
72,96,8379,2,0,L|16:80,2,37.5,0|0|2,0:0|0:0|0:0,0:0:0:0:
336,160,8764,6,0,L|400:160,1,37.5
408,160,8956,2,2,L|480:48,1,112.5
296,160,9533,2,2,L|224:48,2,112.5
32,160,10302,5,0,0:0:0:0:
72,152,10398,1,0,0:0:0:0:
104,136,10495,2,2,P|64:56|24:56,1,112.5
208,120,11072,2,2,P|248:40|288:40,2,112.5
440,184,11841,6,0,L|496:184,2,37.5,0|0|2,0:0|0:0|0:0,0:0:0:0:
320,184,12225,2,0,L|264:184,2,37.5,0|2|0,0:0|0:0|0:0,0:0:0:0:
448,240,12610,1,2,0:0:0:0:
288,248,12802,1,0,0:0:0:0:
248,240,12898,1,2,0:0:0:0:
216,216,12995,2,0,L|192:128,1,75,0|2,0:0|0:0,0:0:0:0:
488,152,13379,5,4,1:2:0:0:
256,152,13764,1,2,0:0:0:0:
392,152,14148,1,8,0:0:0:0:
120,152,14341,1,8,0:0:0:0:
392,152,14533,1,8,0:0:0:0:
120,152,14725,2,0,L|80:104,1,37.5,8|0,0:0|0:0,0:0:0:0:
312,104,14918,6,0,L|408:112,1,56.2500021457673,6|0,0:0|2:0,0:0:0:0:
440,136,15110,2,0,L|368:144,1,56.2500021457673
304,168,15302,2,0,P|264:208|312:232,1,112.500004291535,2|0,0:0|0:0,0:0:0:0:
376,232,15591,1,0,0:0:0:0:
184,264,15687,2,0,L|64:264,2,112.500004291535,2|0|2,0:0|0:0|0:0,0:0:0:0:
256,264,16168,1,0,0:0:0:0:
328,264,16264,2,0,L|408:264,1,56.2500021457673
192,200,16456,6,0,P|144:168|224:112,1,168.750006437302,2|0,0:0|0:0,0:0:0:0:
392,128,16841,1,2,0:0:0:0:
288,128,17033,1,0,0:0:0:0:
480,104,17225,6,0,P|408:80|296:80,1,168.750006437302,2|0,0:0|0:0,0:0:0:0:
144,120,17610,2,0,P|88:112|32:88,1,112.500004291535,2|0,0:0|0:0,0:0:0:0:
88,80,17898,1,0,0:0:0:0:
272,72,17995,6,0,L|344:72,3,56.2500021457673,2|0|0|0,0:0|0:0|0:0|0:0,0:0:0:0:
400,72,18379,2,0,P|456:88|488:144,1,112.500004291535,2|0,0:0|0:0,0:0:0:0:
456,144,18668,1,0,0:0:0:0:
232,176,18764,2,0,L|360:176,1,112.500004291535,2|0,0:0|0:0,0:0:0:0:
304,176,19052,1,0,0:0:0:0:
48,184,19148,2,0,L|176:168,1,112.500004291535,2|0,0:0|0:0,0:0:0:0:
352,224,19533,6,0,L|392:144,1,56.2500021457673
216,136,19725,2,0,L|144:128,1,56.2500021457673,2|0,0:0|0:0,0:0:0:0:
408,208,19918,6,0,L|448:128,1,56.2500021457673
144,144,20110,2,0,L|72:136,1,56.2500021457673,2|0,0:0|0:0,0:0:0:0:
360,112,20302,5,0,0:0:0:0:
456,112,20398,1,0,0:0:0:0:
360,112,20495,1,2,0:0:0:0:
456,112,20591,1,2,0:0:0:0:
264,112,20687,2,0,L|136:112,1,112.500004291535,2|0,0:0|0:0,0:0:0:0:
416,304,21072,6,0,P|448:248|408:160,1,168.750006437302,2|0,0:0|0:0,0:0:0:0:
320,160,21456,1,0,0:0:0:0:
48,88,21648,6,0,P|16:144|56:232,1,168.750006437302,2|0,0:0|0:0,0:0:0:0:
144,232,22032,1,0,0:0:0:0:
32,264,22225,2,0,L|160:264,1,112.500004291535,2|0,0:0|0:0,0:0:0:0:
424,288,22610,6,0,B|440:176|440:176|376:176,1,168.750006437302,2|0,0:0|0:0,0:0:0:0:
176,168,22995,2,0,P|232:144|280:96,1,112.500004291535,2|0,0:0|0:0,0:0:0:0:
440,104,23379,2,0,L|304:88,1,112.500004291535,2|0,0:0|0:0,0:0:0:0:
128,104,23764,2,0,L|216:104,3,56.2500021457673,0|0|2|0,0:0|0:0|0:0|0:0,0:0:0:0:
440,176,24148,6,0,L|464:96,1,56.2500021457673,2|0,0:0|0:0,0:0:0:0:
288,128,24341,1,0,0:0:0:0:
208,128,24437,1,0,0:0:0:0:
48,128,24533,6,0,L|24:56,1,56.2500021457673,2|0,0:0|0:0,0:0:0:0:
208,128,24725,1,0,0:0:0:0:
288,128,24821,1,0,0:0:0:0:
104,216,24918,6,0,P|64:176|128:88,1,168.750006437302,2|0,0:0|0:0,0:0:0:0:
328,96,25302,2,0,L|192:96,1,112.500004291535,2|0,0:0|0:0,0:0:0:0:
448,200,25687,5,0,0:0:0:0:
488,200,25879,1,2,0:0:0:0:
24,200,26072,5,0,0:0:0:0:
64,200,26264,1,2,0:0:0:0:
376,208,26456,2,2,L|256:208,1,112.500004291535
263,208,26841,1,8,2:0:0:0:
360,208,26937,1,8,2:0:0:0:
263,208,27033,1,2,2:0:0:0:
360,208,27129,1,2,2:0:0:0:
96,272,27225,6,2,L|72:200,1,56.2500021457673,2|2,1:1|0:1,0:1:0:0:
256,168,27418,2,2,L|344:168,1,56.2500021457673
416,168,27610,2,0,L|472:168,3,56.2500021457673,8|2|2|2,1:2|0:0|0:0|0:1,0:0:0:0:
208,120,27995,5,2,1:0:0:0:
136,120,28091,1,0,0:0:0:0:
208,120,28187,1,0,0:0:0:0:
408,256,28379,6,0,P|480:192|320:80,1,337.500012874604,4|2,1:2|0:0,0:0:0:0:
136,200,28764,5,0,1:0:0:0:
88,176,28860,1,0,0:0:0:0:
72,120,28956,1,2,0:1:0:0:
104,72,29052,1,0,0:0:0:0:
296,120,29148,2,0,L|360:112,1,56.2500021457673,0|0,1:0|0:0,0:0:0:0:
176,112,29341,2,0,L|72:112,1,56.2500021457673,2|0,0:1|0:0,0:0:0:0:
384,176,29533,5,0,1:0:0:0:
408,176,29629,1,0,0:0:0:0:
432,176,29725,1,2,0:0:0:0:
256,184,29918,1,4,1:2:0:0:
80,176,30110,2,0,L|8:176,1,56.2500021457673,2|0,0:0|0:0,0:0:0:0:
80,176,30302,6,0,L|8:176,1,56.2500021457673,2|0,1:0|0:0,0:0:0:0:
232,176,30495,2,0,L|160:176,1,56.2500021457673,2|0,0:0|0:0,0:0:0:0:
336,224,30687,2,0,L|408:224,3,56.2500021457673,0|2|2|0,1:1|0:1|0:1|0:1,0:1:0:0:
464,224,31072,6,0,L|480:144,1,56.2500021457673,2|0,1:0|0:0,0:0:0:0:
256,224,31264,2,2,L|240:144,1,56.2500021457673
480,160,31456,6,0,P|368:104|512:80,1,337.500012874604,4|0,1:2|0:0,0:0:0:0:
296,80,31841,5,2,1:0:0:0:
240,96,31937,1,2,0:0:0:0:
184,80,32033,2,0,P|152:64|104:64,1,56.2500021457673,0|2,0:0|0:1,0:0:0:0:
8,80,32225,6,0,P|40:64|88:64,1,56.2500021457673,2|0,1:0|0:0,0:0:0:0:
144,64,32418,2,0,L|232:64,1,56.2500021457673,0|2,0:0|0:1,0:0:0:0:
416,80,32610,5,2,1:0:0:0:
432,96,32706,1,0,0:0:0:0:
448,112,32802,1,0,0:0:0:0:
32,176,32995,6,0,L|320:176,1,225,4|0,1:2|0:0,0:0:0:0:
440,176,33379,6,0,L|480:128,1,56.2500021457673,2|2,1:1|0:1,0:1:0:0:
440,176,33572,2,0,L|480:128,1,56.2500021457673,0|2,0:0|0:0,0:0:0:0:
288,176,33764,6,0,L|328:128,1,56.2500021457673,2|2,1:1|0:0,0:1:0:0:
288,176,33957,2,0,L|328:128,1,56.2500021457673
152,160,34148,5,0,1:0:0:0:
104,128,34245,1,2,0:1:0:0:
96,72,34341,1,0,0:0:0:0:
136,32,34437,1,0,0:0:0:0:
360,144,34533,6,0,P|464:112|320:48,1,337.500012874604,4|0,1:2|0:0,0:0:0:0:
152,64,34918,5,2,1:0:0:0:
288,64,35110,1,2,0:1:0:0:
144,96,35302,2,0,L|64:96,1,56.2500021457673,2|0,1:0|0:0,0:0:0:0:
296,104,35495,1,2,0:0:0:0:
328,104,35591,1,2,0:0:0:0:
168,168,35687,6,0,L|200:256,1,56.2500021457673,2|2,1:0|0:0,0:0:0:0:
376,256,35879,2,0,L|472:240,1,56.2500021457673,2|0,0:1|0:0,0:0:0:0:
136,336,36072,6,0,P|40:272|192:216,1,337.500012874604,4|0,1:2|0:0,0:0:0:0:
344,232,36456,6,0,B|384:224|384:224|392:200,1,56.2500021457673,2|0,1:0|0:0,0:0:0:0:
472,184,36648,2,0,L|488:104,1,56.2500021457673,2|0,0:0|0:0,0:0:0:0:
328,96,36841,2,0,P|256:144|328:176,1,168.750006437302,4|0,1:2|0:0,0:0:0:0:
168,232,37225,6,0,B|128:224|128:224|120:200,1,56.2500021457673,2|0,1:0|0:0,0:0:0:0:
40,184,37417,2,0,L|24:104,1,56.2500021457673,2|0,0:0|0:0,0:0:0:0:
184,96,37610,2,0,P|256:144|184:176,1,168.750006437302,4|0,1:2|0:0,0:0:0:0:
304,224,37995,6,0,L|400:224,1,56.2500021457673,2|0,1:0|0:0,0:0:0:0:
144,224,38187,1,2,0:0:0:0:
176,224,38283,1,2,0:0:0:0:
352,208,38379,6,0,L|448:208,1,56.2500021457673,2|0,1:0|0:0,0:0:0:0:
72,208,38571,1,0,0:0:0:0:
112,208,38667,1,2,0:1:0:0:
416,160,38764,6,2,L|456:88,1,56.2500021457673,2|0,1:0|0:0,0:0:0:0:
272,104,38956,2,2,L|200:104,1,56.2500021457673
48,80,39148,2,0,L|104:40,1,56.2500021457673,4|0,1:2|0:0,0:0:0:0:
408,72,39341,2,0,L|480:24,1,56.2500021457673,0|2,0:0|0:0,0:0:0:0:
216,64,39533,5,4,1:0:0:0:
136,200,45687,5,2,0:0:0:0:
256,192,45783,12,2,50110,0:0:0:0:
0,384,50302,6,0,P|256:80|512:384,1,900,4|0,0:0|0:0,0:0:0:0:
160,360,51841,5,4,0:0:0:0:
108,339,51937,1,0,0:0:0:0:
74,295,52033,1,0,0:0:0:0:
68,240,52129,1,0,0:0:0:0:
80,184,52225,2,2,L|144:128,1,56.2500021457673
352,360,52418,5,4,0:0:0:0:
403,339,52514,1,0,0:0:0:0:
437,295,52610,1,0,0:0:0:0:
443,240,52706,1,0,0:0:0:0:
432,184,52802,2,2,L|368:128,1,56.2500021457673
184,152,52995,5,0,0:0:0:0:
128,150,53091,1,0,0:0:0:0:
79,123,53187,1,0,0:0:0:0:
49,76,53283,1,0,0:0:0:0:
32,16,53379,2,2,L|104:24,1,56.2500021457673
328,152,53572,5,0,0:0:0:0:
384,150,53668,1,0,0:0:0:0:
433,123,53764,1,0,0:0:0:0:
463,76,53860,1,0,0:0:0:0:
480,16,53956,2,2,L|408:24,1,56.2500021457673
208,64,54148,6,0,L|288:72,1,56.2500021457673
432,88,54341,2,2,L|376:96,1,56.2500021457673
144,160,54533,1,2,0:0:0:0:
91,160,54629,1,2,0:0:0:0:
73,111,54725,1,2,0:0:0:0:
115,78,54821,1,2,0:0:0:0:
360,280,54918,5,0,0:0:0:0:
391,233,55014,1,0,0:0:0:0:
409,180,55110,1,0,0:0:0:0:
412,124,55206,1,0,0:0:0:0:
392,64,55302,2,2,L|456:64,1,56.2500021457673
144,120,55495,5,0,0:0:0:0:
195,136,55591,1,0,0:0:0:0:
241,106,55687,1,0,0:0:0:0:
246,52,55783,1,0,0:0:0:0:
216,0,55879,2,2,L|112:0,1,56.2500021457673
56,48,56072,6,0,L|152:48,1,56.2500021457673
336,96,56264,2,2,L|240:96,1,56.2500021457673
88,256,56456,5,0,0:0:0:0:
38,238,56552,1,0,0:0:0:0:
42,185,56648,1,0,0:0:0:0:
93,174,56744,1,0,0:0:0:0:
144,208,56841,2,2,L|64:216,1,56.2500021457673
424,256,57033,5,0,0:0:0:0:
473,238,57129,1,0,0:0:0:0:
469,185,57225,1,0,0:0:0:0:
418,174,57321,1,0,0:0:0:0:
368,208,57418,2,2,L|448:216,1,56.2500021457673
208,152,57610,6,0,L|128:160,1,56.2500021457673,2|0,0:0|0:0,0:0:0:0:
424,128,57802,1,0,0:0:0:0:
476,138,57850,1,0,0:0:0:0:
504,93,57898,1,0,0:0:0:0:
474,50,57946,1,0,0:0:0:0:
424,64,57995,6,0,L|344:96,1,56.2500021457673
216,104,58187,2,0,L|192:160,1,56.2500021457673
8,192,58379,2,2,L|40:272,1,56.2500021457673
424,64,58572,6,0,L|344:96,1,56.2500021457673
216,104,58764,2,0,L|192:160,1,56.2500021457673
8,192,58956,2,2,L|40:272,1,56.2500021457673
416,256,59149,5,0,0:0:0:0:
451,213,59245,1,0,0:0:0:0:
450,158,59341,1,0,0:0:0:0:
414,117,59437,1,0,0:0:0:0:
359,110,59534,2,2,L|304:120,1,56.2500021457673
72,248,59726,5,0,0:0:0:0:
33,207,59822,1,0,0:0:0:0:
19,153,59918,1,0,0:0:0:0:
34,99,60014,1,0,0:0:0:0:
72,59,60110,2,2,L|144:59,1,56.2500021457673
336,144,60302,6,0,L|400:144,1,56.2500021457673
176,128,60495,1,2,0:0:0:0:
136,128,60591,1,2,0:0:0:0:
376,128,60687,1,0,0:0:0:0:
336,128,60783,1,0,0:0:0:0:
119,144,60879,2,2,L|176:144,1,56.2500021457673
336,232,61072,5,0,0:0:0:0:
373,236,61120,1,0,0:0:0:0:
409,227,61168,1,0,0:0:0:0:
441,208,61216,1,0,0:0:0:0:
464,178,61264,1,0,0:0:0:0:
476,143,61312,1,0,0:0:0:0:
476,106,61360,1,0,0:0:0:0:
464,71,61408,1,0,0:0:0:0:
441,41,61456,1,0,0:0:0:0:
409,22,61504,1,2,0:0:0:0:
373,13,61552,1,0,0:0:0:0:
336,17,61600,1,2,0:0:0:0:
176,152,61648,5,0,0:0:0:0:
138,147,61696,1,0,0:0:0:0:
102,156,61744,1,0,0:0:0:0:
70,175,61792,1,0,0:0:0:0:
47,205,61840,1,0,0:0:0:0:
35,240,61888,1,0,0:0:0:0:
35,277,61936,1,0,0:0:0:0:
47,312,61984,1,0,0:0:0:0:
70,342,62032,1,0,0:0:0:0:
102,361,62080,1,2,0:0:0:0:
138,370,62128,1,0,0:0:0:0:
175,366,62176,1,2,0:0:0:0:
360,352,62225,6,2,L|440:280,1,75
144,288,62418,2,0,L|48:272,1,75
312,280,62610,6,2,L|264:208,1,75
200,280,62802,2,0,L|248:208,1,75
360,224,62995,6,2,L|264:208,1,75
152,224,63187,2,0,L|248:208,1,75
416,176,63379,6,2,L|320:176,1,75
96,176,63572,2,0,L|192:176,1,75
472,120,63764,6,2,L|376:120,1,75
40,120,63956,2,0,L|136:120,1,75
352,16,64148,5,4,0:0:0:0:
352,16,64533,2,0,L|408:344,2,300,0|2|0,0:0|0:0|0:0,0:0:0:0:
160,16,65687,5,0,0:0:0:0:
160,16,66072,2,0,L|104:344,2,300,0|2|0,0:0|0:0|0:0,0:0:0:0:
136,24,67225,6,0,L|240:24,1,75,12|0,0:0|0:0,0:0:0:0:
424,128,67418,2,2,L|320:128,1,75,2|0,0:0|0:0,0:0:0:0:
152,160,67610,2,0,L|128:88,1,75
408,80,67802,2,0,L|384:8,1,75,2|0,0:0|0:0,0:0:0:0:
96,232,67995,5,0,0:0:0:0:
168,232,68091,1,0,0:0:0:0:
360,288,68187,2,0,L|288:184,1,75,2|0,0:0|0:0,0:0:0:0:
128,184,68379,2,0,L|96:104,1,75
304,112,68572,2,0,L|216:112,1,75,2|0,0:0|0:0,0:0:0:0:
406,162,68764,5,0,0:0:0:0:
458,112,68860,1,0,0:0:0:0:
448,40,68956,1,2,0:0:0:0:
384,7,69052,1,0,0:0:0:0:
152,56,69148,2,0,B|176:88|176:88|216:128,1,75
360,56,69341,2,0,B|336:88|336:88|296:128,1,75,2|0,0:0|0:0,0:0:0:0:
106,222,69533,5,0,0:0:0:0:
53,271,69629,1,0,0:0:0:0:
63,343,69725,1,2,0:0:0:0:
127,376,69821,1,0,0:0:0:0:
336,328,69918,2,0,L|400:264,1,75
176,328,70110,2,0,L|112:264,1,75,2|0,0:0|0:0,0:0:0:0:
435,232,70302,6,0,L|360:232,1,75
136,200,70495,1,2,0:0:0:0:
168,200,70591,1,0,0:0:0:0:
344,200,70687,1,0,0:0:0:0:
376,200,70783,1,0,0:0:0:0:
77,232,70879,2,0,L|152:232,1,75,2|0,0:0|0:0,0:0:0:0:
360,328,71072,5,0,0:0:0:0:
425,300,71168,1,0,0:0:0:0:
427,229,71265,1,2,0:0:0:0:
363,197,71361,1,2,0:0:0:0:
128,216,71456,1,0,0:0:0:0:
62,188,71552,1,0,0:0:0:0:
60,117,71648,1,2,0:0:0:0:
124,85,71745,1,0,0:0:0:0:
328,136,71841,6,0,L|336:48,1,75
177,61,72033,2,0,L|184:136,1,75,2|0,0:0|0:0,0:0:0:0:
352,136,72225,6,0,L|384:40,1,75
136,64,72418,2,0,L|160:136,1,75,2|0,0:0|0:0,0:0:0:0:
384,136,72610,6,0,L|448:72,1,75
74,82,72802,2,0,L|128:136,1,75,2|2,0:0|0:0,0:0:0:0:
408,136,72995,6,0,L|488:112,1,75
32,114,73187,2,2,L|104:136,1,75
336,288,73379,5,0,0:0:0:0:
408,277,73475,1,0,0:0:0:0:
451,218,73571,1,2,0:0:0:0:
439,146,73667,1,0,0:0:0:0:
392,88,73764,2,0,L|304:32,1,75
184,120,73956,2,0,L|112:64,1,75,2|0,0:0|0:0,0:0:0:0:
336,200,74148,5,0,0:0:0:0:
368,200,74245,1,0,0:0:0:0:
152,192,74341,1,2,0:0:0:0:
120,192,74438,1,0,0:0:0:0:
272,288,74533,2,0,L|304:216,3,75,0|0|2|0,0:0|0:0|0:0|0:0,0:0:0:0:
96,336,74918,5,0,0:0:0:0:
35,296,75014,1,0,0:0:0:0:
38,225,75110,1,2,0:0:0:0:
101,191,75206,1,0,0:0:0:0:
192,192,75302,1,0,0:0:0:0:
131,152,75398,1,0,0:0:0:0:
134,81,75494,1,2,0:0:0:0:
197,47,75590,1,0,0:0:0:0:
352,128,75687,6,0,L|392:48,1,75
160,128,75879,2,0,L|120:48,1,75,2|0,0:0|0:0,0:0:0:0:
416,128,76072,2,0,L|368:64,1,75
96,128,76264,2,0,L|144:64,1,75,2|0,0:0|0:0,0:0:0:0:
432,272,76456,6,0,L|464:192,3,75,0|0|2|0,0:0|0:0|0:0|0:0,0:0:0:0:
328,272,76841,2,0,L|360:192,3,75,0|0|2|0,0:0|0:0|0:0|0:0,0:0:0:0:
104,240,77225,6,0,L|72:160,3,75,0|0|2|0,0:0|0:0|0:0|0:0,0:0:0:0:
240,168,77610,2,0,L|296:104,1,75
96,88,77802,2,0,L|-8:64,1,75,2|0,0:0|0:0,0:0:0:0:
320,192,77995,5,0,0:0:0:0:
383,159,78091,1,0,0:0:0:0:
379,88,78187,1,2,0:0:0:0:
314,61,78283,1,0,0:0:0:0:
192,192,78379,5,0,0:0:0:0:
128,224,78475,1,0,0:0:0:0:
132,295,78571,1,2,0:0:0:0:
197,322,78667,1,0,0:0:0:0:
304,328,78764,5,0,0:0:0:0:
352,328,78860,1,0,0:0:0:0:
112,280,78956,1,2,0:0:0:0:
160,280,79052,1,0,0:0:0:0:
432,256,79148,2,0,L|344:256,1,75
123,248,79341,2,0,L|48:248,1,75,2|2,0:0|0:0,0:0:0:0:
360,240,79533,6,0,L|392:112,1,82.5000025177003,6|0,0:0|0:0,0:0:0:0:
192,112,79725,2,0,L|72:112,1,82.5000025177003,2|0,0:0|0:0,0:0:0:0:
16,152,79918,6,0,L|136:152,1,82.5000025177003,2|0,0:2|0:0,0:0:0:0:
344,168,80110,2,0,L|288:56,1,82.5000025177003,2|0,0:0|0:0,0:0:0:0:
216,64,80302,6,2,L|96:40,1,82.5000025177003,2|0,0:2|0:2,0:2:0:0:
392,72,80495,2,0,L|504:80,1,82.5000025177003,2|0,0:0|0:0,0:0:0:0:
144,208,80687,5,2,0:2:0:0:
84,155,80783,1,0,0:0:0:0:
86,75,80879,1,2,0:0:0:0:
149,26,80975,1,0,0:0:0:0:
336,120,81072,6,0,L|208:112,1,82.5000025177003,8|0,0:0|0:0,0:0:0:0:
27,117,81264,2,0,L|155:109,1,82.5000025177003,2|0,0:0|0:0,0:0:0:0:
376,272,81456,6,0,L|416:176,1,82.5000025177003
192,168,81648,2,0,L|96:168,1,82.5000025177003,2|0,0:0|0:0,0:0:0:0:
432,304,81841,6,0,L|464:192,1,82.5000025177003
176,224,82033,2,0,L|96:272,1,82.5000025177003,2|0,0:0|0:0,0:0:0:0:
368,336,82225,6,0,L|376:232,1,82.5000025177003
137,253,82418,2,0,L|144:336,1,82.5000025177003,2|0,0:0|0:0,0:0:0:0:
368,216,82610,5,0,0:0:0:0:
428,165,82706,1,0,0:0:0:0:
413,88,82802,1,2,0:0:0:0:
339,63,82898,1,0,0:0:0:0:
208,128,82995,6,0,L|312:128,1,82.5000025177003
480,152,83187,2,0,L|344:152,1,82.5000025177003,2|0,0:0|0:0,0:0:0:0:
120,216,83379,6,0,L|80:128,3,82.5000025177003,0|0|2|0,0:0|0:0|0:0|0:0,0:0:0:0:
280,184,83764,6,0,L|376:184,1,82.5000025177003
96,160,83956,1,2,0:0:0:0:
136,160,84052,1,0,0:0:0:0:
352,280,84148,6,2,L|376:160,1,82.5000025177003
128,224,84341,2,0,L|224:224,1,82.5000025177003
392,264,84533,6,2,L|432:160,1,82.5000025177003
80,256,84725,2,0,L|176:256,1,82.5000025177003
416,272,84918,6,2,L|480:184,1,82.5000025177003
56,232,85110,2,2,L|152:232,1,82.5000025177003,2|2,0:2|0:2,0:2:0:0:
304,248,85302,6,0,L|160:248,1,82.5000025177003,2|0,0:0|0:0,0:0:0:0:
24,296,85495,2,0,L|120:296,1,82.5000025177003
344,312,85687,6,0,L|376:192,3,82.5000025177003,0|0|2|0,0:0|0:0|0:0|0:0,0:0:0:0:
128,160,86072,2,0,L|232:160,1,82.5000025177003
464,152,86264,2,0,L|344:152,1,82.5000025177003,2|0,0:0|0:0,0:0:0:0:
96,184,86456,5,0,0:0:0:0:
56,114,86552,1,0,0:0:0:0:
84,39,86648,1,2,0:0:0:0:
159,12,86744,1,0,0:0:0:0:
232,40,86841,6,0,L|320:40,1,82.5000025177003
488,120,87033,2,0,L|464:16,1,82.5000025177003,2|0,0:0|0:0,0:0:0:0:
295,120,87225,6,0,L|319:16,1,82.5000025177003
488,120,87418,1,2,0:0:0:0:
479,199,87514,1,0,0:0:0:0:
411,239,87610,5,0,0:0:0:0:
337,209,87706,1,0,0:0:0:0:
295,120,87802,2,0,L|319:16,1,82.5000025177003,2|0,0:0|0:0,0:0:0:0:
40,160,87995,6,0,L|64:56,1,82.5000025177003
232,216,88187,2,0,L|256:112,1,82.5000025177003,2|0,0:0|0:0,0:0:0:0:
440,168,88379,6,0,L|464:64,1,82.5000025177003
80,280,88572,2,0,L|104:176,1,82.5000025177003,2|0,0:0|0:0,0:0:0:0:
280,384,88764,5,0,0:0:0:0:
360,368,88860,1,0,0:0:0:0:
427,321,88956,1,2,0:0:0:0:
468,250,89052,1,0,0:0:0:0:
477,169,89148,5,0,0:0:0:0:
452,91,89244,1,0,0:0:0:0:
396,30,89340,1,2,0:0:0:0:
321,0,89437,1,0,0:0:0:0:
80,96,89533,6,0,L|200:96,3,82.5000025177003,0|0|2|0,0:0|0:0|0:0|0:0,0:0:0:0:
368,200,89918,6,0,L|384:104,1,82.5000025177003
130,118,90110,2,0,L|144:200,1,82.5000025177003,2|0,0:0|0:0,0:0:0:0:
432,96,90302,6,0,L|312:96,3,82.5000025177003,0|0|2|0,0:0|0:0|0:0|0:0,0:0:0:0:
168,192,90687,5,0,0:0:0:0:
120,192,90783,1,0,0:0:0:0:
392,192,90879,1,2,0:0:0:0:
344,192,90975,1,0,0:0:0:0:
64,224,91072,6,0,L|96:120,1,82.5000025177003
423,145,91264,2,0,L|448:224,1,82.5000025177003,2|2,0:0|0:0,0:0:0:0:
208,256,91456,5,2,0:0:0:0:
48,264,91552,1,0,0:0:0:0:
208,256,91648,1,2,0:2:0:0:
48,264,91744,1,2,0:2:0:0:
448,352,91841,6,0,L|464:264,1,82.5000025177003,14|0,0:0|0:0,0:0:0:0:
280,240,92033,2,0,L|192:240,1,82.5000025177003,2|0,0:2|0:0,0:0:0:0:
24,248,92225,6,0,L|48:160,1,82.5000025177003,10|0,0:0|0:0,0:0:0:0:
336,144,92418,2,0,L|432:144,1,82.5000025177003,2|0,0:2|0:0,0:0:0:0:
184,160,92610,6,0,L|56:160,1,82.5000025177003,2|0,0:0|0:0,0:0:0:0:
368,192,92802,2,0,L|392:96,1,82.5000025177003,2|0,0:2|0:0,0:0:0:0:
120,80,92995,6,0,L|240:80,1,82.5000025177003,10|0,0:0|0:0,0:0:0:0:
464,144,93187,2,2,L|432:64,1,82.5000025177003,2|2,0:2|0:2,0:2:0:0:
184,224,93379,6,0,L|280:224,1,82.5000025177003,2|0,0:0|0:0,0:0:0:0:
456,280,93572,2,0,L|352:280,1,82.5000025177003,2|0,0:2|0:0,0:0:0:0:
96,280,93764,6,0,L|64:176,3,82.5000025177003,10|0|2|0,0:0|0:0|0:2|0:0,0:0:0:0:
328,224,94148,6,0,L|232:224,1,82.5000025177003,2|0,0:0|0:0,0:0:0:0:
56,280,94341,2,0,L|160:280,1,82.5000025177003,2|0,0:2|0:0,0:0:0:0:
416,280,94533,6,0,L|448:176,3,82.5000025177003,10|0|2|0,0:0|0:0|0:2|0:0,0:0:0:0:
144,184,94918,6,0,L|256:184,1,82.5000025177003,2|0,0:0|0:0,0:0:0:0:
48,184,95110,2,0,L|32:104,1,82.5000025177003,2|0,0:2|0:0,0:0:0:0:
312,120,95302,6,0,L|424:120,1,82.5000025177003,10|0,0:0|0:0,0:0:0:0:
152,112,95495,2,0,L|128:24,1,82.5000025177003,2|0,0:2|0:0,0:0:0:0:
416,120,95687,6,0,L|440:32,1,82.5000025177003,2|0,0:0|0:0,0:0:0:0:
184,144,95879,2,0,L|208:56,1,82.5000025177003,2|0,0:2|0:0,0:0:0:0:
464,168,96072,2,0,L|344:168,1,82.5000025177003,10|0,0:0|0:0,0:0:0:0:
144,184,96264,2,0,L|264:184,1,82.5000025177003,2|0,0:2|0:0,0:0:0:0:
328,184,96456,6,0,L|352:272,1,82.5000025177003
162,263,96648,2,0,L|72:264,1,82.5000025177003,2|0,0:0|0:0,0:0:0:0:
368,192,96841,6,0,L|416:280,1,82.5000025177003
105,264,97033,2,0,L|14:264,1,82.5000025177003,2|0,0:0|0:0,0:0:0:0:
440,344,97225,6,0,L|464:264,1,82.5000025177003
216,224,97418,2,2,L|320:224,1,82.5000025177003
48,264,97610,6,0,L|72:344,1,82.5000025177003,2|0,0:0|0:0,0:0:0:0:
298,224,97802,2,0,L|216:224,1,82.5000025177003
440,160,97995,6,0,L|464:80,1,82.5000025177003,2|0,0:0|0:0,0:0:0:0:
256,160,98187,2,0,L|280:80,1,82.5000025177003,2|0,0:2|0:0,0:0:0:0:
72,160,98379,6,0,L|48:80,1,82.5000025177003,10|0,0:0|0:0,0:0:0:0:
256,160,98571,2,0,L|232:80,1,82.5000025177003,2|0,0:2|0:0,0:0:0:0:
464,96,98764,6,0,L|352:96,1,82.5000025177003,2|0,0:0|0:0,0:0:0:0:
128,96,98956,2,0,L|240:96,1,82.5000025177003,2|0,0:2|0:0,0:0:0:0:
384,96,99148,6,0,L|272:96,1,82.5000025177003,10|0,0:0|0:0,0:0:0:0:
48,96,99341,2,0,L|160:96,1,82.5000025177003,2|0,0:2|0:0,0:0:0:0:
360,200,99533,5,2,0:0:0:0:
408,200,99629,1,0,0:0:0:0:
152,200,99725,2,0,L|56:200,1,82.5000025177003,2|0,0:2|0:0,0:0:0:0:
440,272,99918,5,10,0:0:0:0:
392,272,100014,1,0,0:0:0:0:
69,200,100110,2,0,L|152:200,1,82.5000025177003,2|0,0:2|0:0,0:0:0:0:
352,256,100302,6,0,L|368:168,1,82.5000025177003,2|0,0:0|0:0,0:0:0:0:
288,176,100495,2,0,L|200:176,1,82.5000025177003,2|0,0:2|0:0,0:0:0:0:
128,176,100687,6,0,L|142:257,1,82.5000025177003,10|0,0:0|0:0,0:0:0:0:
205,176,100879,2,0,L|288:176,1,82.5000025177003,2|0,0:2|0:0,0:0:0:0:
472,128,101072,6,0,L|368:120,1,82.5000025177003,2|0,0:0|0:0,0:0:0:0:
144,120,101264,1,2,0:2:0:0:
168,120,101360,1,0,0:0:0:0:
344,120,101456,5,10,0:0:0:0:
368,120,101552,1,0,0:2:0:0:
40,128,101648,2,0,L|144:120,1,82.5000025177003,2|0,0:2|0:0,0:0:0:0:
456,296,101841,6,0,L|480:208,1,82.5000025177003,2|0,0:0|0:0,0:0:0:0:
296,184,102033,2,0,L|192:184,1,82.5000025177003,2|0,0:2|0:0,0:0:0:0:
34,216,102225,6,0,L|56:296,1,82.5000025177003,10|0,0:0|0:0,0:0:0:0:
216,184,102418,2,0,L|320:184,1,82.5000025177003,2|0,0:2|0:0,0:0:0:0:
136,160,102610,5,0,0:0:0:0:
120,160,102658,1,0,0:0:0:0:
104,160,102706,1,0,0:0:0:0:
360,160,102802,2,0,L|448:160,1,82.5000025177003,2|0,0:0|0:0,0:0:0:0:
88,96,102995,5,0,0:0:0:0:
104,96,103043,1,0,0:0:0:0:
120,96,103091,1,0,0:0:0:0:
464,96,103187,2,0,L|376:96,1,82.5000025177003,2|0,0:0|0:0,0:0:0:0:
88,248,103379,6,0,L|-24:248,1,82.5000025177003,2|0,0:0|0:0,0:0:0:0:
424,240,103572,2,0,L|536:240,1,82.5000025177003,2|0,0:0|0:0,0:0:0:0:
328,240,103764,5,2,0:0:0:0:
184,240,103860,5,2,0:0:0:0:
364,264,103956,5,2,0:0:0:0:
147,264,104052,5,2,0:0:0:0:
128,280,104148,5,4,0:0:0:0:
256,192,104245,12,0,107995,0:0:0:0:
