osu file format v14

[General]
AudioFilename: audio.mp3
AudioLeadIn: 0
PreviewTime: 175854
Countdown: 0
SampleSet: Soft
StackLeniency: 0.7
Mode: 0
LetterboxInBreaks: 0
WidescreenStoryboard: 1

[Editor]
Bookmarks: 16532,43961,74818,102246,129675,157104,196532,217104
DistanceSpacing: 1
BeatDivisor: 2
GridSize: 4
TimelineZoom: 1.5

[Metadata]
Title:Glitter (Starving Trancer Remix) feat. Another Infinity
TitleUnicode:Glitter (Starving Trancer Remix) feat. Another Infinity
Artist:Mayumi Morinaga
ArtistUnicode:Mayumi Morinaga
Creator:Akane Hime
Version:Collab Normal
Source:FAIRY TAIL
Tags:フェアリーテイル anime ed11 ending 11 senya Glitter/神巫詞 glitter/kamiuta japanese pop jpop j-pop electronic -_ex_- nisan niii_san dasdwqdf
BeatmapID:4430583
BeatmapSetID:2110593

[Difficulty]
HPDrainRate:3
CircleSize:3
OverallDifficulty:4
ApproachRate:5
SliderMultiplier:1
SliderTickRate:1

[Events]
//Background and Video events
0,0,"bg.jpg",0,0
//Break Periods
2,44161,56475
2,160732,171332
//Storyboard Layer 0 (Background)
//Storyboard Layer 1 (Fail)
//Storyboard Layer 2 (Pass)
//Storyboard Layer 3 (Foreground)
//Storyboard Layer 4 (Overlay)
//Storyboard Sound Samples

[TimingPoints]
1104,428.571428571429,4,2,1,80,1,0
43961,-100,4,2,1,60,0,0
57675,-100,4,2,1,70,0,0
74818,-100,4,1,1,80,0,1
102246,-100,4,2,1,80,0,0
129675,-100,4,2,1,70,0,0
175961,-100,4,1,1,80,0,1
199532,-100,4,1,1,80,0,1
199746,-100,4,1,1,80,0,1
217104,-100,4,2,1,80,0,0

[Colours]
Combo1 : 250,180,240
Combo2 : 120,200,230
Combo3 : 255,230,130
Combo4 : 160,230,150

[HitObjects]
88,181,16532,6,2,B|142:182|205:186,1,100,6|10,1:2|0:2,0:2:0:0:
215,226,17175,2,0,B|295:226|353:236,1,100,2|2,0:2|0:2,0:0:0:0:
361,248,17818,1,8,0:2:0:0:
454,212,18246,2,0,B|458:172|450:91,1,100,2|10,1:2|0:2,0:2:0:0:
411,82,18889,2,0,L|348:71,1,50,2|0,0:2|1:2,0:0:0:0:
321,103,19318,2,0,B|245:110|197:108,1,100,2|0,0:2|0:2,0:0:0:0:
171,104,19961,5,2,1:2:0:0:
213,200,20389,1,10,0:2:0:0:
213,200,20604,2,0,B|209:252|196:320,1,100,2|0,0:2|0:2,0:0:0:0:
184,349,21246,1,10,0:2:0:0:
184,349,21461,2,0,B|117:340|60:336,1,100,2|0,0:2|0:2,0:0:0:0:
34,332,22104,1,10,0:2:0:0:
90,249,22532,1,2,1:2:0:0:
10,188,22961,1,10,0:2:0:0:
52,98,23389,6,0,B|113:92|179:79,1,100,6|10,1:2|0:2,0:0:0:0:
196,62,24032,2,0,B|229:138|199:220,1,150,2|10,0:2|0:2,0:2:0:0:
277,275,25104,1,2,1:2:0:0:
355,211,25532,1,10,0:2:0:0:
355,211,25746,1,2,0:2:0:0:
454,222,26175,6,0,L|458:167,1,50,2|10,0:2|0:2,0:0:0:0:
456,126,26604,1,2,0:2:0:0:
456,126,26818,2,0,B|395:122|312:113,1,100,2|10,1:2|0:2,0:2:0:0:
321,81,27461,2,0,B|269:79|213:91,1,100,2|2,0:2|0:2,0:0:0:0:
178,64,28104,2,0,L|109:70,1,50,10|2,0:2|0:2,0:0:0:0:
84,91,28532,2,0,B|51:176|78:290,1,200,4|2,1:2|1:2,0:0:0:0:
147,359,29818,1,8,0:2:0:0:
199,274,30246,5,6,1:2:0:0:
273,354,30675,1,8,0:2:0:0:
273,354,30889,1,2,0:2:0:0:
365,315,31318,2,0,B|359:264|357:192,1,100,2|2,0:2|0:2,0:0:0:0:
393,178,31961,1,0,1:2:0:0:
324,106,32389,1,8,0:2:0:0:
324,106,32604,2,0,B|264:109|204:111,1,100,2|2,0:2|0:2,0:0:0:0:
180,86,33246,1,8,0:0:0:0:
90,41,33675,6,0,B|77:92|77:92|91:168,1,100,2|10,1:2|0:2,0:2:0:0:
115,178,34318,1,2,0:2:0:0:
86,278,34746,1,2,0:2:0:0:
86,278,34961,1,10,0:2:0:0:
86,278,35175,2,0,B|145:275|211:270,1,100,2|2,0:2|0:2,0:0:0:0:
224,303,35818,1,8,0:2:0:0:
297,235,36246,1,2,1:2:0:0:
214,177,36675,1,10,0:2:0:0:
246,82,37104,6,0,B|310:81|357:78,1,100,6|8,1:2|0:2,0:2:0:0:
388,105,37746,2,0,B|452:106|499:109,1,100,2|2,0:2|0:2,0:2:0:0:
506,211,38604,1,2,0:2:0:0:
506,211,38818,1,0,1:2:0:0:
432,277,39246,1,8,0:2:0:0:
432,277,39461,2,0,B|374:271|297:273,1,100,2|2,0:2|0:2,0:2:0:0:
294,305,40104,1,10,1:2:0:0:
207,255,40532,5,2,1:2:0:0:
277,183,40961,1,10,0:2:0:0:
277,183,41175,2,0,B|288:130|288:130|273:62,1,100,2|2,0:2|0:2,0:0:0:0:
244,47,41818,2,0,L|182:54,1,50,10|2,0:2|0:2,0:0:0:0:
145,61,42246,1,2,1:2:0:0:
256,192,42461,12,6,43961,1:2:0:0:
339,368,57675,6,0,P|343:313|356:267,1,100,6|8,1:2|0:2,0:2:0:0:
395,240,58318,2,0,P|390:184|379:141,1,100,2|2,0:2|0:2,0:0:0:0:
389,42,59175,1,2,0:2:0:0:
389,42,59389,2,0,P|330:36|281:27,1,100,2|8,1:2|0:2,0:2:0:0:
202,77,60246,1,0,1:2:0:0:
107,43,60675,1,8,0:2:0:0:
42,119,61104,6,0,L|60:217,1,100,2|8,1:2|0:2,0:2:0:0:
70,266,61746,1,2,0:2:0:0:
130,345,62175,2,0,L|209:331,1,50,2|10,0:2|0:2,0:0:0:0:
219,306,62604,1,2,0:2:0:0:
219,306,62818,2,0,L|322:319,1,100,0|8,1:0|0:2,0:0:0:0:
392,251,63675,1,0,1:2:0:0:
320,181,64104,2,0,L|333:124,1,50,10|2,0:2|0:2,0:0:0:0:
306,88,64532,6,0,L|195:67,1,100,2|8,1:2|0:2,0:2:0:0:
158,61,65175,1,2,0:2:0:0:
66,102,65604,2,0,P|74:129|77:157,1,50,2|8,0:2|0:2,0:2:0:0:
103,192,66032,2,0,P|88:247|81:302,1,100,2|0,0:2|0:0,0:0:0:0:
104,334,66675,1,8,0:2:0:0:
201,355,67104,2,0,L|308:338,1,100,0|10,1:2|0:2,0:0:0:0:
351,357,67746,1,2,0:2:0:0:
351,357,67961,2,0,P|370:302|352:251,1,100,2|8,1:2|0:2,0:2:0:0:
328,223,68604,5,2,0:2:0:0:
258,151,69032,1,2,0:2:0:0:
312,68,69461,1,2,0:2:0:0:
312,68,69675,2,0,L|419:52,1,100,4|8,1:2|0:2,0:0:0:0:
498,102,70532,1,2,1:2:0:0:
477,199,70960,1,10,0:2:0:0:
508,294,71389,1,6,1:2:0:0:
256,192,71604,12,0,73104,0:0:0:0:
413,304,74818,6,2,B|428:256|422:198,1,100,6|10,0:2|0:0,0:0:0:0:
409,156,75461,2,0,B|358:153|288:145,1,100,2|2,0:0|0:0,0:0:0:0:
263,166,76104,1,10,0:0:0:0:
263,166,76318,2,0,B|261:122|271:66,1,100,2|0,0:0|0:0,0:0:0:0:
307,31,76961,1,10,0:0:0:0:
307,31,77175,2,0,L|412:38,1,100,2|2,0:0|0:0,0:0:0:0:
497,91,78032,5,0,0:0:0:0:
497,91,78246,2,0,B|505:144|505:144|490:204,1,100,2|10,0:0|0:0,0:0:0:0:
455,221,78889,1,2,0:0:0:0:
378,156,79318,2,0,L|298:154,1,50,2|10,0:0|0:0,0:0:0:0:
281,173,79746,2,0,B|269:243|270:302,1,100,2|2,0:0|0:2,0:0:0:0:
297,314,80389,1,10,0:2:0:0:
217,375,80818,1,2,0:2:0:0:
171,286,81246,1,10,0:2:0:0:
73,306,81675,6,0,B|82:243|88:191,1,100,6|10,0:2|0:0,0:0:0:0:
118,168,82318,1,2,0:0:0:0:
217,179,82746,2,0,L|269:183,1,50,2|10,0:0|0:0,0:0:0:0:
303,217,83175,2,2,B|341:219|402:224,1,100,2|0,0:0|0:0,0:0:0:0:
444,196,83818,1,10,0:0:0:0:
444,196,84032,2,0,B|455:152|455:152|445:87,1,100,2|2,0:0|0:0,0:0:0:0:
377,25,84889,5,2,0:0:0:0:
377,25,85104,2,0,B|315:22|249:18,1,100,2|10,0:0|0:0,0:0:0:0:
236,48,85746,1,2,0:0:0:0:
304,121,86175,1,0,0:0:0:0:
211,159,86604,1,2,0:0:0:0:
211,159,86818,2,0,B|133:143|68:168|20:246,1,200,4|2,0:2|0:2,0:0:0:0:
70,318,88104,2,0,L|126:329,1,50,10|2,0:2|0:2,0:0:0:0:
158,296,88532,6,0,B|212:302|271:310,1,100,6|10,0:2|0:0,0:0:0:0:
300,282,89175,2,0,L|304:215,1,50,2|0,0:0|0:0,0:0:0:0:
257,211,89604,2,0,B|258:151|264:106,1,100,2|0,0:0|0:0,0:0:0:0:
292,70,90246,1,2,0:0:0:0:
383,122,90675,1,10,0:0:0:0:
383,122,90889,2,0,L|438:124,1,50,2|0,0:0|0:0,0:0:0:0:
483,123,91318,2,0,B|484:188|476:252,1,100,2|0,0:0|0:0,0:0:0:0:
476,272,91961,5,2,0:0:0:0:
409,347,92389,1,10,0:0:0:0:
409,347,92604,2,0,B|330:341|289:340,1,100,2|0,0:0|0:0,0:0:0:0:
276,302,93246,1,10,0:0:0:0:
276,302,93461,2,0,B|216:300|159:296,1,100,2|2,0:0|0:2,0:0:0:0:
128,314,94104,1,10,0:2:0:0:
45,258,94532,1,2,0:2:0:0:
104,177,94961,1,10,0:2:0:0:
195,216,95389,6,2,B|203:169|204:104,1,100,6|0,0:2|0:0,0:0:0:0:
234,76,96032,2,2,B|152:69|57:62,1,150,2|10,0:0|0:0,0:0:0:0:
21,142,97104,1,2,0:0:0:0:
91,216,97532,1,10,0:0:0:0:
91,216,97746,1,2,0:0:0:0:
24,290,98175,2,0,L|36:347,1,50,2|10,0:0|0:0,0:0:0:0:
76,366,98604,5,2,0:0:0:0:
76,366,98818,2,0,B|135:361|208:358,1,100,2|10,0:0|0:0,0:0:0:0:
199,315,99461,2,0,B|263:325|316:329,1,100,2|2,0:0|0:0,0:0:0:0:
337,358,100104,2,0,L|390:358,1,50,10|0,0:0|0:0,0:0:0:0:
429,332,100532,1,2,0:0:0:0:
256,192,100746,12,6,102246,1:2:0:0:
146,41,103318,5,2,0:2:0:0:
146,41,103532,2,0,L|138:99,1,50,10|2,0:2|0:2,0:0:0:0:
109,131,103961,2,0,L|133:237,1,100,0|8,1:2|0:2,0:0:0:0:
98,323,104818,1,2,1:2:0:0:
196,339,105246,2,0,P|223:330|250:327,1,50,10|2,0:2|0:2,0:2:0:0:
293,339,105675,2,0,P|343:352|394:352,1,100,2|8,1:2|0:2,0:0:0:0:
442,338,106318,1,2,0:2:0:0:
442,338,106532,2,0,L|423:232,1,100,2|10,1:2|0:2,0:2:0:0:
492,166,107389,6,0,P|463:118|418:100,1,100,2|8,1:2|0:2,0:2:0:0:
387,66,108032,1,2,0:2:0:0:
387,66,108246,2,0,P|359:74|337:78,1,50,0|0,1:2|0:2,0:0:0:0:
288,71,108675,1,10,0:2:0:0:
217,142,109104,6,0,P|238:189|243:239,1,100,6|8,1:2|0:2,0:2:0:0:
205,270,109746,1,2,0:2:0:0:
205,270,109961,2,0,L|141:259,1,50,2|0,1:2|0:2,0:2:0:0:
114,232,110389,2,0,L|64:240,1,50,10|2,0:2|0:2,0:0:0:0:
20,217,110818,2,0,P|12:166|27:121,1,100,2|8,1:2|0:2,0:2:0:0:
67,91,111461,1,2,0:2:0:0:
169,110,111889,5,2,0:2:0:0:
169,110,112104,2,0,L|174:60,1,50,10|2,0:2|0:2,0:0:0:0:
217,33,112532,2,0,L|297:47,1,50,2|2,1:2|0:2,0:2:0:0:
315,51,112961,1,8,0:2:0:0:
380,126,113389,2,0,L|432:113,1,50,2|2,1:2|0:2,0:0:0:0:
465,147,113818,2,0,L|452:195,1,50,10|2,0:2|0:2,0:0:0:0:
416,229,114246,5,2,1:2:0:0:
461,318,114675,1,8,0:2:0:0:
369,359,115104,2,0,P|338:350|318:349,1,50,2|0,1:2|0:2,0:2:0:0:
279,320,115532,2,0,P|254:322|230:329,1,50,2|2,1:2|1:2,0:0:0:0:
185,351,115961,5,6,1:2:0:0:
89,323,116389,2,0,B|65:281|65:281|76:231,1,100,8|0,0:2|1:2,0:2:0:0:
113,197,117032,1,2,0:2:0:0:
113,197,117246,2,0,L|101:127,1,50,10|2,0:2|0:2,0:0:0:0:
96,98,117675,6,0,L|200:75,1,100,0|8,1:2|0:2,0:0:0:0:
286,113,118532,1,2,1:2:0:0:
368,57,118960,2,0,P|396:58|422:66,1,50,10|2,0:2|0:2,0:2:0:0:
455,96,119389,2,0,P|460:147|448:194,1,100,2|8,1:2|0:2,0:0:0:0:
414,230,120032,1,2,0:2:0:0:
414,230,120246,2,0,L|433:336,1,100,2|10,1:2|0:2,0:2:0:0:
339,367,121104,6,0,P|296:343|244:340,1,100,2|8,1:2|0:2,0:2:0:0:
203,366,121746,1,2,0:2:0:0:
203,366,121961,2,0,P|176:366|152:360,1,50,0|0,1:2|0:2,0:0:0:0:
125,319,122389,1,10,0:2:0:0:
27,295,122818,6,0,L|42:193,1,100,6|8,1:2|0:2,0:2:0:0:
137,168,123676,2,0,L|124:114,1,50,2|0,1:2|0:2,0:2:0:0:
110,71,124104,2,0,P|124:51|149:33,1,50,10|2,0:2|0:2,0:0:0:0:
192,49,124532,2,0,P|243:69|295:69,1,100,2|8,1:2|0:2,0:2:0:0:
333,50,125175,1,2,0:2:0:0:
428,95,125604,5,2,0:2:0:0:
428,95,125819,2,0,L|418:144,1,50,10|2,0:2|0:2,0:0:0:0:
398,190,126247,2,0,L|406:239,1,50,2|2,1:2|0:2,0:2:0:0:
418,287,126676,1,8,0:2:0:0:
349,359,127104,2,0,L|284:347,1,50,2|2,1:2|0:2,0:0:0:0:
264,314,127532,2,0,L|273:264,1,50,8|2,0:2|0:2,0:0:0:0:
245,222,127961,6,0,P|199:238|148:234,1,100,6|8,1:2|0:2,0:0:0:0:
108,213,128604,1,2,1:2:0:0:
108,213,128818,1,2,1:2:0:0:
142,119,129246,2,0,L|134:65,1,50,10|2,0:2|1:2,0:0:0:0:
171,35,129675,6,0,B|227:40|282:41,1,100,6|10,1:2|0:2,0:2:0:0:
315,64,130318,2,0,B|316:121|307:163,1,100,2|2,0:2|0:2,0:2:0:0:
219,211,131175,2,0,B|174:205|114:205,1,100,2|0,0:2|0:2,0:2:0:0:
74,227,131818,1,10,0:2:0:0:
25,314,132246,1,2,1:2:0:0:
118,350,132675,1,10,0:2:0:0:
184,274,133104,6,0,B|240:276|301:284,1,100,2|10,1:2|0:2,0:2:0:0:
330,264,133746,2,0,B|342:220|342:220|334:166,1,100,2|2,0:2|0:2,0:2:0:0:
318,124,134389,1,10,0:2:0:0:
318,124,134604,2,0,B|231:121|151:112,1,150,2|8,0:2|0:2,0:2:0:0:
79,159,135675,1,0,1:2:0:0:
155,223,136104,1,8,0:2:0:0:
108,311,136532,6,0,B|167:319|217:328,1,100,2|10,1:2|0:2,0:2:0:0:
254,312,137175,2,0,B|263:271|266:210,1,100,2|2,0:2|0:2,0:0:0:0:
308,186,137818,1,10,0:2:0:0:
308,186,138032,2,0,B|383:191|462:196,1,150,2|8,0:2|0:2,0:2:0:0:
508,109,139104,1,2,1:2:0:0:
433,41,139532,2,0,L|359:32,1,50,10|2,0:2|0:2,0:0:0:0:
340,61,139961,6,0,B|292:59|219:67,1,100,2|10,1:2|0:2,0:2:0:0:
190,58,140604,1,2,0:2:0:0:
124,133,141032,1,2,0:2:0:0:
206,198,141461,1,2,0:2:0:0:
206,198,141675,2,0,B|280:186|323:226|323:226|410:206,2,200,0|0|6,1:2|1:2|1:2,0:0:0:0:
155,286,143818,5,10,0:2:0:0:
155,286,144032,2,0,B|76:278|36:278,1,100,2|2,0:2|0:2,0:2:0:0:
2,193,144889,2,0,B|10:133|12:85,1,100,2|2,0:2|0:2,0:2:0:0:
48,60,145532,1,10,0:2:0:0:
127,120,145961,1,2,1:2:0:0:
185,39,146389,1,10,0:2:0:0:
255,109,146818,6,0,B|313:111|378:119,1,100,2|8,1:2|0:2,0:2:0:0:
402,99,147461,2,0,B|398:154|393:212,1,100,2|2,0:2|0:2,0:2:0:0:
407,252,148104,1,10,0:2:0:0:
407,252,148318,2,0,B|329:243|230:248,1,150,2|8,0:2|0:2,0:0:0:0:
157,255,149389,1,2,1:2:0:0:
106,168,149818,1,10,0:2:0:0:
204,151,150246,6,0,B|212:100|211:34,1,100,2|8,1:2|0:2,0:2:0:0:
171,19,150889,2,0,B|118:16|53:15,1,100,2|2,0:2|0:2,0:0:0:0:
25,35,151532,1,8,0:2:0:0:
25,35,151746,2,0,B|3:116|24:205,1,150,2|8,0:2|0:2,0:2:0:0:
78,264,152818,1,2,1:2:0:0:
176,283,153246,1,10,0:2:0:0:
266,239,153675,5,2,1:2:0:0:
336,318,154104,1,10,0:2:0:0:
336,318,154318,2,0,B|416:322|452:323,1,100,2|0,0:2|1:2,0:0:0:0:
470,286,154961,1,8,0:2:0:0:
470,286,155175,2,0,B|475:232|473:182,1,100,0|0,1:2|1:2,0:2:0:0:
439,148,155818,1,8,0:2:0:0:
347,188,156246,2,0,B|345:223|344:263|342:282,2,75,2|2|2,1:2|1:2|1:2,0:0:0:0:
321,144,157104,5,6,1:2:0:0:
152,251,157961,1,2,0:2:0:0:
256,192,158818,12,4,160532,0:2:0:0:
256,192,172532,12,4,174246,0:2:0:0:
46,337,175961,6,0,P|38:264|49:234,1,100,6|10,0:2|0:0,0:0:0:0:
85,209,176604,2,0,P|135:218|184:219,1,100,2|2,0:0|0:0,0:0:0:0:
232,204,177246,1,8,0:0:0:0:
303,273,177675,2,0,P|324:260|348:253,1,50,2|0,0:0|0:0,0:0:0:0:
393,276,178104,1,10,0:0:0:0:
393,276,178318,2,0,P|423:231|413:171,1,100,2|2,0:0|0:0,0:0:0:0:
392,146,178961,1,8,0:0:0:0:
396,46,179389,6,2,P|349:59|293:59,1,100,2|10,0:0|0:0,0:0:0:0:
258,88,180032,2,0,P|214:73|160:67,1,100,2|0,0:0|0:0,0:0:0:0:
111,77,180675,1,10,0:0:0:0:
11,70,181104,2,0,L|21:131,1,50,2|2,0:2|0:2,0:0:0:0:
29,168,181532,1,10,0:2:0:0:
117,214,181961,1,2,0:2:0:0:
42,280,182389,1,10,0:2:0:0:
134,317,182818,6,2,P|186:303|241:308,1,100,2|0,0:0|0:0,0:0:0:0:
270,346,183461,1,2,0:0:0:0:
270,346,183675,2,0,P|330:349|375:328,1,100,0|10,0:0|0:0,0:0:0:0:
461,303,184532,2,0,P|452:250|440:203,1,100,2|10,0:0|0:0,0:0:0:0:
422,158,185175,1,2,0:0:0:0:
328,185,185604,5,2,0:0:0:0:
328,185,185818,2,0,P|303:178|275:176,1,50,10|2,0:0|0:0,0:0:0:0:
240,143,186246,2,0,P|190:155|140:158,1,100,2|10,0:0|0:0,0:0:0:0:
49,198,187104,1,2,0:0:0:0:
0,114,187532,1,10,0:0:0:0:
71,46,187961,2,0,P|124:33|175:51,1,100,6|10,0:2|0:2,0:0:0:0:
259,82,188818,1,2,0:2:0:0:
347,36,189246,1,10,0:2:0:0:
423,100,189675,6,2,P|413:151|409:207,1,100,6|10,0:2|0:0,0:0:0:0:
437,241,190318,1,2,0:0:0:0:
365,310,190746,1,2,0:0:0:0:
283,262,191175,1,2,0:0:0:0:
283,262,191389,2,0,P|224:254|165:255,1,100,0|10,0:0|0:0,0:0:0:0:
87,280,192246,1,0,0:0:0:0:
39,191,192675,1,8,0:0:0:0:
127,144,193104,6,0,L|146:34,1,100,2|10,0:0|0:0,0:0:0:0:
192,34,193746,2,0,P|246:53|294:56,1,100,2|2,0:0|0:0,0:0:0:0:
330,83,194389,1,10,0:0:0:0:
330,83,194604,2,0,P|384:64|432:61,1,100,2|2,0:0|0:2,0:0:0:0:
473,78,195246,1,10,0:2:0:0:
416,160,195675,1,2,0:2:0:0:
478,238,196104,1,10,0:2:0:0:
406,308,196532,6,0,B|356:304|279:299,1,100,6|10,0:2|0:0,0:0:0:0:
267,332,197175,2,0,B|221:338|150:341,1,100,2|2,0:0|0:0,0:0:0:0:
120,321,197818,1,10,0:0:0:0:
120,321,198032,2,0,B|126:269|128:199,1,100,2|0,0:0|0:0,0:0:0:0:
122,176,198675,1,10,0:0:0:0:
122,176,198889,2,0,B|181:180|235:181,1,100,2|2,0:0|0:0,0:0:0:0:
267,202,199532,1,0,0:0:0:0:
353,149,199961,6,0,B|358:99|357:35,1,100,2|10,0:0|0:0,0:0:0:0:
316,19,200604,2,0,B|264:20|212:16,1,100,2|2,0:0|0:0,0:0:0:0:
178,49,201246,2,0,L|103:49,1,50,8|2,0:0|0:0,0:0:0:0:
83,26,201675,2,0,B|30:89|38:182|73:236,1,200,4|2,0:2|0:2,0:0:0:0:
122,294,202961,1,10,0:2:0:0:
193,224,203389,5,6,0:2:0:0:
290,264,203818,1,10,0:0:0:0:
290,264,204032,2,0,B|298:211|295:143,1,100,2|2,0:0|0:0,0:0:0:0:
255,133,204675,2,0,L|258:66,1,50,8|0,0:0|0:0,0:0:0:0:
303,64,205104,2,0,B|357:68|425:70,1,100,2|10,0:0|0:0,0:0:0:0:
443,98,205746,2,0,B|441:156|435:211,1,100,2|2,0:0|0:0,0:0:0:0:
473,231,206389,5,8,0:0:0:0:
424,318,206818,1,2,0:0:0:0:
334,286,207246,1,10,0:0:0:0:
334,286,207461,1,2,0:0:0:0:
378,196,207889,2,0,L|379:143,1,50,2|10,0:0|0:0,0:0:0:0:
347,107,208318,2,0,B|293:106|212:95,1,100,2|2,0:0|0:2,0:0:0:0:
203,124,208961,1,10,0:2:0:0:
107,154,209389,1,2,0:2:0:0:
139,248,209818,1,10,0:2:0:0:
235,222,210246,6,2,B|243:276|238:335,1,100,6|0,0:2|0:0,0:0:0:0:
211,364,210889,2,2,B|137:353|41:348,1,150,2|10,0:0|0:0,0:0:0:0:
3,267,211961,1,2,0:0:0:0:
92,219,212389,1,10,0:0:0:0:
92,219,212604,1,2,0:0:0:0:
20,150,213032,2,0,L|26:79,1,50,2|10,0:0|0:0,0:0:0:0:
61,66,213461,5,2,0:0:0:0:
61,66,213675,2,0,B|120:69|187:75,1,100,2|10,0:0|0:0,0:0:0:0:
189,114,214318,2,0,B|248:111|315:105,1,100,2|2,0:0|0:0,0:0:0:0:
327,75,214961,2,0,L|377:87,1,50,10|0,0:0|0:0,0:0:0:0:
423,99,215389,1,2,0:0:0:0:
256,192,215604,12,6,217104,1:2:0:0:
