osu file format v14

[General]
AudioFilename: audio.mp3
AudioLeadIn: 0
PreviewTime: 175854
Countdown: 0
SampleSet: Soft
StackLeniency: 0.7
Mode: 0
LetterboxInBreaks: 0
WidescreenStoryboard: 1

[Editor]
Bookmarks: 16532,43961,71389,102246,129675,157104,196532,217104
DistanceSpacing: 1.4
BeatDivisor: 4
GridSize: 4
TimelineZoom: 1.5

[Metadata]
Title:Glitter (Starving Trancer Remix) feat. Another Infinity
TitleUnicode:Glitter (Starving Trancer Remix) feat. Another Infinity
Artist:Mayumi Morinaga
ArtistUnicode:Mayumi Morinaga
Creator:Akane Hime
Version:Collab Hard
Source:FAIRY TAIL
Tags:フェアリーテイル anime ed11 ending 11 senya Glitter/神巫詞 glitter/kamiuta japanese pop jpop j-pop electronic -_ex_- nisan niii_san dasdwqdf
BeatmapID:4430447
BeatmapSetID:2110593

[Difficulty]
HPDrainRate:5
CircleSize:4
OverallDifficulty:6.5
ApproachRate:7.5
SliderMultiplier:1.4
SliderTickRate:1

[Events]
//Background and Video events
0,0,"bg.jpg",0,0
//Break Periods
2,15018,15707
2,160732,171707
//Storyboard Layer 0 (Background)
//Storyboard Layer 1 (Fail)
//Storyboard Layer 2 (Pass)
//Storyboard Layer 3 (Foreground)
//Storyboard Layer 4 (Overlay)
//Storyboard Sound Samples

[TimingPoints]
1104,428.571428571429,4,2,1,80,1,0
16532,-100,4,2,1,80,0,0
43961,-125,4,2,1,60,0,0
57675,-100,4,2,1,70,0,0
74818,-90.9090909090909,4,1,1,80,0,1
102246,-100,4,2,1,80,0,0
129675,-100,4,2,1,70,0,0
158818,-100,4,2,1,50,0,0
175104,-100,4,2,1,70,0,0
175961,-90.9090909090909,4,1,1,80,0,1
199532,-90.9090909090909,4,1,1,80,0,1
217104,-100,4,2,1,80,0,0

[Colours]
Combo1 : 250,180,240
Combo2 : 120,200,230
Combo3 : 255,230,130
Combo4 : 160,230,150

[HitObjects]
256,192,13104,12,2,14818,0:2:0:0:
512,313,16532,6,2,B|438:290|439:330|356:309,1,140,6|10,1:2|0:2,0:2:0:0:
287,265,17175,1,0,3:2:0:0:
205,319,17389,2,0,L|118:301,1,70,2|0,1:2|0:2,0:2:0:0:
39,322,17818,2,0,L|66:240,1,70,8|0,0:2|0:2,0:0:0:0:
0,178,18246,6,0,P|-8:103|52:56,1,140,2|10,1:2|0:2,0:2:0:0:
127,28,18889,2,0,P|160:37|195:40,1,70,2|0,0:2|1:2,0:0:0:0:
289,11,19318,1,0,3:2:0:0:
287,110,19532,2,0,L|303:190,1,70,8|0,0:2|0:2,0:0:0:0:
334,214,19854,5,0,0:0:0:0:
334,214,19961,2,0,L|322:295,1,70,2|0,1:2|0:0,0:2:0:0:
397,347,20389,1,10,0:2:0:0:
476,289,20604,2,0,B|505:241|505:241|471:150,1,140,0|0,3:2|3:2,0:0:0:0:
445,69,21246,1,10,0:2:0:0:
351,40,21461,1,2,0:2:0:0:
266,89,21675,6,0,L|188:71,1,70,0|0,1:2|3:2,0:0:0:0:
110,27,22104,2,0,L|41:42,1,70,8|2,0:2|3:2,0:2:0:0:
97,123,22532,2,0,P|143:186|108:243,1,140,2|8,1:2|0:2,0:0:0:0:
266,353,23389,6,0,B|223:322|223:322|174:328|135:360,1,140,6|10,1:2|0:2,0:0:0:0:
55,309,24032,1,2,0:2:0:0:
119,235,24246,2,0,L|188:245,1,70,0|0,1:0|0:2,0:0:0:0:
275,199,24675,1,10,0:2:0:0:
362,243,24889,1,0,0:2:0:0:
450,199,25104,6,0,P|452:157|440:125,1,70,2|0,1:2|3:2,0:0:0:0:
372,63,25532,1,10,0:2:0:0:
456,12,25746,1,0,3:2:0:0:
456,12,25854,1,0,3:2:0:0:
456,12,25961,1,8,0:2:0:0:
372,63,26175,1,2,0:2:0:0:
288,12,26389,1,10,0:2:0:0:
202,60,26604,1,0,0:2:0:0:
111,19,26818,6,0,P|80:79|109:143,1,140,2|10,1:2|0:2,0:2:0:0:
199,199,27461,1,0,3:2:0:0:
199,199,27568,1,0,3:0:0:0:
199,199,27675,2,0,L|183:288,1,70,0|0,1:2|3:2,0:0:0:0:
93,300,28104,2,0,L|109:389,1,70,10|2,0:2|0:2,0:0:0:0:
203,362,28532,6,0,P|226:359|245:353,3,35,4|0|0|0,1:2|3:2|3:2|3:2,0:0:0:0:
282,335,28961,2,0,P|299:336|316:341,3,35,8|0|0|0,0:2|3:2|3:2|3:2,0:0:0:0:
360,362,29389,2,0,P|383:359|402:353,3,35,2|0|0|0,1:2|1:2|1:2|1:2,0:0:0:0:
439,335,29818,1,0,1:0:0:0:
439,335,29925,1,0,1:0:0:0:
439,335,30032,1,0,1:0:0:0:
439,335,30139,1,0,1:0:0:0:
439,335,30246,6,0,P|445:262|457:190,1,140,6|8,1:2|0:2,0:2:0:0:
460,97,30889,2,0,P|420:95|383:107,1,70,2|0,0:2|1:0,0:2:0:0:
306,152,31318,2,0,P|265:148|231:128,1,70,2|8,0:2|0:2,0:0:0:0:
191,57,31746,6,0,B|121:61|129:100|58:112,1,140,2|0,0:2|0:2,0:0:0:0:
12,194,32389,1,8,0:2:0:0:
12,194,32604,2,0,L|28:268,1,70,2|2,0:2|1:2,0:0:0:0:
84,341,33032,2,0,P|156:325|234:321,1,140,2|0,0:2|0:2,0:2:0:0:
299,381,33675,6,0,P|319:350|315:310,1,70,2|0,1:2|0:0,0:2:0:0:
268,239,34104,1,10,0:2:0:0:
268,239,34318,2,0,P|274:166|290:95,1,140,2|2,0:2|0:2,0:0:0:0:
364,38,34961,1,10,0:2:0:0:
454,74,35175,1,2,0:2:0:0:
399,155,35389,6,0,L|383:116,2,35,2|2|2,1:2|3:2|0:2,0:0:0:0:
478,212,35818,2,0,P|485:252|476:284,1,70,8|2,0:2|0:2,0:0:0:0:
434,297,36139,1,2,0:2:0:0:
434,297,36246,2,0,L|357:288,1,70,2|2,1:2|0:2,0:0:0:0:
288,347,36675,1,10,0:2:0:0:
288,347,36782,1,2,0:2:0:0:
288,347,36889,1,2,0:2:0:0:
173,307,37104,6,0,B|125:318|125:318|100:345|100:345|39:361,1,140,6|8,1:2|0:2,0:2:0:0:
0,273,37746,2,0,L|15:201,1,70,2|0,0:2|1:2,0:2:0:0:
94,147,38175,2,0,L|108:215,1,70,2|8,0:2|0:2,0:0:0:0:
206,214,38604,6,0,P|272:222|316:172,1,140,2|0,0:2|0:2,0:0:0:0:
391,99,39246,1,8,0:2:0:0:
391,99,39461,2,0,L|377:30,1,70,2|0,0:2|1:0,0:2:0:0:
489,115,39889,1,2,0:2:0:0:
489,115,40104,2,0,L|475:188,1,70,8|2,1:2|0:2,0:0:0:0:
482,281,40532,6,0,B|450:316|450:316|350:282,1,140,2|10,1:2|0:2,0:2:0:0:
285,347,41175,2,0,L|202:363,1,70,2|0,0:2|1:2,0:0:0:0:
208,262,41604,2,0,L|139:248,1,70,2|10,0:2|0:2,0:0:0:0:
36,191,42032,5,2,0:2:0:0:
36,191,42139,1,0,3:0:0:0:
36,191,42246,2,0,P|26:114|82:81,1,140,2|10,1:2|0:2,0:0:0:0:
151,24,42889,1,2,1:2:0:0:
151,24,42996,1,0,1:0:0:0:
151,24,43104,2,0,P|187:34|223:40,1,70,2|2,1:2|1:2,0:0:0:0:
332,83,43532,1,0,1:0:0:0:
332,83,43639,1,0,1:0:0:0:
332,83,43746,1,0,1:0:0:0:
332,83,43853,1,0,1:0:0:0:
332,83,43961,1,4,1:2:0:0:
332,83,45675,6,0,P|391:72|458:49,1,112,2|0,0:2|0:2,0:0:0:0:
482,122,46318,2,0,P|492:175|450:243,1,112,2|0,0:2|0:2,0:0:0:0:
408,277,46961,2,0,P|362:268|330:261,1,56,2|2,0:2|0:2,0:0:0:0:
257,215,47389,5,2,0:2:0:0:
257,215,49104,2,0,P|250:253|225:332,1,112,2|0,0:2|0:2,0:2:0:0:
158,287,49746,2,0,P|103:275|49:258,1,112,2|0,0:2|0:2,0:0:0:0:
8,191,50389,2,0,P|45:178|83:161,1,56,2|2,0:2|0:2,0:0:0:0:
141,105,50818,5,0,0:0:0:0:
141,105,52532,2,0,P|188:114|267:131,1,112,2|0,0:2|0:2,0:0:0:0:
272,51,53175,2,0,P|319:42|398:25,1,112,2|0,0:2|0:0,0:0:0:0:
437,83,53818,2,0,P|482:93|514:98,1,56,2|2,0:2|0:2,0:0:0:0:
414,174,54246,6,0,P|356:185|288:205,1,112,2|0,0:2|0:2,0:2:0:0:
235,236,54889,2,0,P|228:268|217:302,1,56,2|0,0:2|0:2,0:2:0:0:
158,206,55318,2,0,P|150:179|144:151,1,56,2|2,0:2|0:2,0:0:0:0:
181,82,55746,1,2,0:2:0:0:
83,32,55961,5,0,0:0:0:0:
256,192,56068,12,2,57461,0:2:0:0:
8,182,57675,6,0,P|78:175|141:229,1,140,6|8,1:2|0:2,0:2:0:0:
218,167,58318,2,0,P|231:221|236:259,1,70,2|0,0:2|1:2,0:0:0:0:
330,243,58746,2,0,P|309:294|291:328,1,70,2|8,0:2|0:2,0:2:0:0:
399,362,59175,5,0,3:2:0:0:
399,362,59282,1,0,3:2:0:0:
399,362,59389,2,0,P|462:351|541:320,1,140,2|8,1:2|0:2,0:2:0:0:
454,247,60032,2,0,P|464:200|476:156,1,70,0|0,3:2|1:2,0:0:0:0:
500,85,60461,1,0,0:2:0:0:
402,81,60675,2,0,P|392:34|380:-10,1,70,8|2,0:2|0:2,0:0:0:0:
256,6,61104,6,0,P|235:45|247:143,1,140,2|8,1:2|0:2,0:2:0:0:
315,203,61746,2,0,P|366:194|409:185,1,70,2|0,0:2|1:2,0:2:0:0:
477,161,62175,1,2,0:2:0:0:
508,253,62389,2,0,P|502:287|495:321,1,70,10|2,0:2|0:2,0:0:0:0:
388,329,62818,6,0,B|329:316|289:352|289:352|256:317,1,140,0|8,1:0|0:2,0:0:0:0:
188,256,63461,2,0,P|106:289|39:305,1,140,0|0,0:2|0:2,0:0:0:0:
3,209,64104,1,10,0:2:0:0:
3,209,64318,1,2,0:2:0:0:
79,133,64532,6,0,P|146:151|210:178,1,140,2|8,1:2|0:2,0:2:0:0:
273,103,65175,2,0,P|284:49|291:7,1,70,2|0,0:2|1:2,0:2:0:0:
392,7,65604,2,0,P|385:41|378:75,1,70,2|8,0:2|0:2,0:2:0:0:
355,170,66032,1,2,0:2:0:0:
480,131,66246,6,0,P|503:193|479:276,1,140,2|8,1:2|0:2,0:2:0:0:
447,353,66889,2,0,P|482:367|526:383,1,70,2|0,3:2|1:2,0:0:0:0:
394,264,67318,1,2,0:2:0:0:
305,305,67532,2,0,P|270:319|226:335,1,70,10|2,0:2|0:2,0:0:0:0:
154,281,67961,6,0,P|167:220|191:137,1,140,2|8,1:2|0:2,0:2:0:0:
257,76,68604,2,0,P|296:62|330:49,1,70,2|0,0:2|1:2,0:2:0:0:
184,33,69032,2,0,P|151:20|118:8,1,70,2|8,0:2|0:2,0:2:0:0:
25,39,69461,1,0,3:2:0:0:
44,133,69675,6,0,P|55:191|78:298,1,140,4|8,1:2|0:2,0:0:0:0:
152,340,70318,1,0,3:2:0:0:
152,340,70425,1,0,3:2:0:0:
152,340,70532,2,0,P|199:352|266:370,1,105,2|0,1:2|0:2,0:2:0:0:
271,339,70961,2,0,P|323:323|355:310,1,70,10|0,0:2|0:2,0:2:0:0:
237,238,71389,6,0,B|193:183|227:77|227:77|276:124,1,210,6|0,1:2|0:0,0:0:0:0:
327,174,72246,1,2,0:2:0:0:
256,192,72354,12,0,74604,0:2:0:0:
299,120,74818,6,2,P|376:105|426:158,1,154.000004699707,6|10,0:2|0:0,0:0:0:0:
482,246,75461,1,2,0:0:0:0:
401,317,75675,2,0,L|311:298,1,77.0000023498536,0|2,0:0|0:0,0:0:0:0:
234,356,76104,1,10,0:0:0:0:
234,356,76318,1,2,0:0:0:0:
147,292,76532,6,0,L|158:212,1,77.0000023498536
68,153,76961,1,10,0:0:0:0:
141,68,77175,2,0,P|200:116|272:91,1,154.000004699707,2|2,0:0|0:0,0:0:0:0:
376,99,77818,2,0,L|363:15,1,77.0000023498536,8|0,0:0|0:0,0:0:0:0:
472,100,78246,6,0,B|516:132|516:132|479:248,1,154.000004699707,2|10,0:0|0:0,0:0:0:0:
441,342,78889,1,2,0:0:0:0:
441,342,78996,1,0,3:0:0:0:
441,342,79104,2,0,L|356:330,1,77.0000023498536,0|2,0:0|0:0,0:0:0:0:
259,375,79532,1,10,0:0:0:0:
174,302,79746,1,2,0:0:0:0:
81,366,79961,6,0,L|69:323,2,38.5000011749268,2|2|2,0:2|0:2|0:2,0:0:0:0:
174,302,80389,2,0,L|190:212,1,77.0000023498536,10|2,0:2|0:2,0:0:0:0:
200,184,80711,1,0,0:0:0:0:
200,184,80818,2,0,P|154:176|119:157,1,77.0000023498536,2|2,0:2|0:2,0:0:0:0:
34,217,81246,1,10,0:2:0:0:
34,217,81354,1,2,0:2:0:0:
34,217,81461,1,2,0:2:0:0:
20,99,81675,6,0,P|61:25|125:46,1,154.000004699707,6|10,0:2|0:0,0:0:0:0:
222,15,82318,1,2,0:0:0:0:
293,95,82532,2,0,P|269:132|262:173,1,77.0000023498536,0|2,0:0|0:0,0:0:0:0:
190,245,82961,1,10,0:0:0:0:
190,245,83175,1,2,0:0:0:0:
275,310,83389,6,0,L|353:297,1,77.0000023498536
461,339,83818,1,10,0:0:0:0:
512,244,84032,2,0,P|508:165|482:92,1,154.000004699707,2|2,0:0|0:0,0:0:0:0:
399,26,84675,2,0,P|365:44|350:79,1,77.0000023498536,8|2,0:0|0:0,0:0:0:0:
242,86,85104,6,0,P|227:161|261:231,1,154.000004699707,2|10,0:0|0:0,0:0:0:0:
326,312,85746,1,2,0:0:0:0:
326,312,85961,2,0,L|241:327,1,77.0000023498536,2|0,0:0|0:0,0:0:0:0:
148,361,86389,1,8,0:0:0:0:
60,297,86604,1,2,0:0:0:0:
169,222,86818,6,0,L|213:234,2,38.5000011749268,4|0|0,0:2|0:0|0:0,0:0:0:0:
77,164,87246,2,0,P|64:117|84:75,1,77.0000023498536,8|2,0:0|0:2,0:0:0:0:
109,52,87568,1,2,0:2:0:0:
109,52,87675,2,0,L|194:72,1,77.0000023498536,2|2,0:2|0:2,0:0:0:0:
281,22,88104,1,10,0:2:0:0:
281,22,88211,1,2,0:2:0:0:
281,22,88318,1,2,0:2:0:0:
410,96,88532,6,0,B|440:182|440:182|423:208|419:243,1,154.000004699707,6|10,0:2|0:0,0:0:0:0:
484,326,89175,2,0,P|443:340|412:362,1,77.0000023498536,2|0,0:0|0:0,0:0:0:0:
321,305,89604,1,2,0:0:0:0:
231,364,89818,2,0,P|188:358|143:344,1,77.0000023498536,8|0,0:0|0:0,0:0:0:0:
17,373,90246,6,0,P|3:289|24:206,1,154.000004699707,2|10,0:0|0:0,0:0:0:0:
103,157,90889,1,2,0:0:0:0:
19,88,91104,2,0,P|21:48|31:11,1,77.0000023498536,0|2,0:0|0:0,0:0:0:0:
126,62,91532,2,0,P|162:77|209:82,1,77.0000023498536,8|0,0:0|0:0,0:0:0:0:
288,20,91961,6,2,P|352:80|417:72,1,154.000004699707,2|10,0:0|0:0,0:0:0:0:
512,124,92604,1,2,0:0:0:0:
512,124,92711,1,0,3:0:0:0:
512,124,92818,2,0,L|496:218,1,77.0000023498536
414,265,93246,1,10,0:0:0:0:
414,265,93461,1,2,0:0:0:0:
337,188,93675,6,0,L|297:201,2,38.5000011749268,2|2|2,0:2|0:2|0:2,0:0:0:0:
414,265,94104,2,0,L|404:348,1,77.0000023498536,10|2,0:2|0:2,0:0:0:0:
374,362,94425,1,0,3:0:0:0:
374,362,94532,2,0,L|291:344,1,77.0000023498536,2|2,0:2|0:2,0:0:0:0:
199,370,94961,1,10,0:2:0:0:
199,370,95068,1,2,0:2:0:0:
199,370,95175,1,2,0:2:0:0:
222,241,95389,6,2,B|205:188|205:188|168:163|168:163|152:111,1,154.000004699707,6|0,0:2|0:0,0:0:0:0:
157,3,96032,1,2,0:0:0:0:
59,48,96246,2,0,P|42:86|45:123,1,77.0000023498536
130,186,96675,1,10,0:0:0:0:
130,186,96889,1,0,0:0:0:0:
211,114,97104,6,0,L|291:127,1,77.0000023498536,2|0,0:0|0:0,0:0:0:0:
383,78,97532,1,10,0:0:0:0:
461,152,97746,1,2,0:0:0:0:
412,248,97961,2,0,L|333:262,1,77.0000023498536,0|2,0:0|0:0,0:0:0:0:
236,359,98389,2,0,P|229:324|214:282,1,77.0000023498536,10|2,0:0|0:0,0:0:0:0:
109,238,98818,6,0,P|115:203|131:161,1,77.0000023498536,2|0,0:0|0:0,0:0:0:0:
69,65,99246,1,10,0:0:0:0:
175,20,99461,2,0,B|250:24|241:66|317:79,1,154.000004699707,2|2,0:0|0:0,0:0:0:0:
426,46,100104,1,10,0:0:0:0:
373,148,100318,1,0,0:0:0:0:
478,194,100532,6,0,P|470:215|466:239,3,38.5000011749268,2|2|2|2,0:0|0:2|0:2|0:2,0:0:0:0:
482,286,100961,2,0,P|490:307|494:331,3,38.5000011749268,10|2|2|2,0:2|0:2|0:2|0:2,0:0:0:0:
465,373,101389,2,0,P|444:381|420:385,3,38.5000011749268,2|2|2|2,0:2|0:2|0:2|0:2,0:0:0:0:
382,353,101818,1,0,0:0:0:0:
382,353,101925,1,0,0:0:0:0:
382,353,102032,1,0,0:0:0:0:
382,353,102139,1,0,0:0:0:0:
382,353,102246,6,0,P|328:364|287:374,1,70,6|0,1:2|0:0,0:0:0:0:
215,376,102675,1,8,0:2:0:0:
124,339,102889,2,0,P|102:279|124:183,1,140,0|2,0:0|0:2,0:0:0:0:
86,106,103532,2,0,P|31:88|5:77,1,70,10|2,0:2|0:2,0:0:0:0:
137,12,103961,6,0,P|169:24|286:46,1,140,0|8,1:2|0:2,0:0:0:0:
365,12,104604,2,0,P|306:57|306:135,1,140,2|0,0:2|0:2,0:0:0:0:
352,201,105246,2,0,P|399:191|431:182,1,70,10|2,0:2|0:2,0:2:0:0:
447,162,105568,5,2,0:2:0:0:
447,162,105675,2,0,L|503:178,3,35,2|2|2|0,1:2|0:2|0:2|0:0,0:0:0:0:
511,188,106104,1,8,0:2:0:0:
477,279,106318,1,2,0:2:0:0:
477,279,106425,1,2,0:2:0:0:
477,279,106532,2,0,P|463:332|454:363,1,70,2|0,1:2|0:2,0:2:0:0:
382,278,106961,1,10,0:2:0:0:
382,278,107175,1,2,0:2:0:0:
298,343,107389,6,0,P|241:356|147:378,1,140,2|8,1:2|0:2,0:2:0:0:
69,314,108032,2,0,P|110:277|192:271,1,140,2|0,0:2|0:2,0:2:0:0:
283,318,108675,1,10,0:2:0:0:
283,318,108889,1,2,0:2:0:0:
342,239,109104,6,0,P|355:187|367:146,1,70,6|0,1:2|0:0,0:2:0:0:
436,111,109532,1,8,0:2:0:0:
355,55,109746,2,0,P|295:23|201:42,1,140,2|0,0:2|0:2,0:0:0:0:
149,91,110389,1,10,0:2:0:0:
149,91,110604,1,2,0:2:0:0:
61,29,110818,6,0,P|46:93|13:184,1,140,2|8,1:2|0:2,0:2:0:0:
12,272,111461,2,0,P|76:256|108:248,1,70,2|2,0:2|1:2,0:0:0:0:
158,197,111889,1,2,0:2:0:0:
229,271,112104,1,10,0:2:0:0:
229,271,112318,1,2,0:2:0:0:
309,202,112532,6,0,L|358:213,3,35,2|2|2|2,1:2|0:2|0:2|0:0,0:2:0:0:
370,232,112961,2,0,P|422:219|451:208,1,70,8|2,0:2|0:2,0:0:0:0:
459,187,113282,1,2,0:2:0:0:
459,187,113389,1,2,1:2:0:0:
379,115,113604,1,2,0:2:0:0:
446,44,113818,2,0,P|505:36|547:27,1,70,10|2,0:2|0:2,0:0:0:0:
354,17,114246,6,0,L|307:34,3,35,2|2|2|0,1:2|1:2|1:2|1:0,0:0:0:0:
302,54,114675,2,0,P|242:43|216:37,1,70,8|2,0:2|1:2,0:0:0:0:
135,29,115104,2,0,L|118:84,3,35,2|0|0|0,1:2|3:0|3:2|3:0,0:2:0:0:
109,93,115532,2,0,P|121:143|137:186,1,70,2|2,1:2|1:2,0:0:0:0:
217,220,115961,6,0,B|281:218|288:248|384:229,1,140,6|8,1:2|0:2,0:2:0:0:
451,191,116604,2,0,P|460:241|465:275,1,70,0|0,0:0|1:2,0:0:0:0:
485,355,117032,1,2,0:2:0:0:
387,365,117246,2,0,P|336:357|291:351,1,70,10|2,0:2|0:2,0:0:0:0:
226,316,117675,6,0,P|179:326|132:337,1,70,0|0,1:2|0:2,0:0:0:0:
64,363,118104,1,8,0:2:0:0:
9,281,118318,2,0,P|-14:234|7:146,1,140,2|0,0:2|0:2,0:0:0:0:
57,68,118961,2,0,P|122:88|152:97,1,70,10|2,0:2|0:2,0:2:0:0:
154,71,119282,5,2,0:2:0:0:
154,71,119389,2,0,P|219:51|249:42,1,70,2|2,1:2|0:2,0:0:0:0:
315,22,119818,2,0,P|369:6|472:42,1,140,8|2,0:2|1:2,0:0:0:0:
507,103,120461,1,0,0:2:0:0:
441,175,120675,1,10,0:2:0:0:
441,175,120889,1,2,0:2:0:0:
342,175,121104,6,0,P|275:158|181:129,1,140,2|8,1:2|0:2,0:2:0:0:
123,88,121746,2,0,P|54:93|4:155,1,140,2|0,0:2|0:2,0:2:0:0:
6,240,122389,1,10,0:2:0:0:
6,240,122604,1,2,0:2:0:0:
78,306,122818,6,0,P|141:291|174:283,1,70,6|0,1:2|0:0,0:2:0:0:
223,229,123246,1,8,0:2:0:0:
294,296,123461,2,0,P|309:358|319:389,1,70,2|2,0:2|1:2,0:0:0:0:
386,287,123889,1,0,0:2:0:0:
462,356,124104,1,10,0:2:0:0:
462,356,124318,1,2,0:2:0:0:
488,252,124532,6,0,P|499:209|508:178,1,70,2|0,1:2|0:2,0:2:0:0:
440,111,124961,1,8,0:2:0:0:
376,192,125175,2,0,P|326:216|230:200,1,140,2|2,0:2|0:2,0:0:0:0:
170,150,125818,1,10,0:2:0:0:
170,150,126032,1,2,0:2:0:0:
100,218,126246,6,0,L|51:230,3,35,2|2|2|2,1:2|0:2|0:2|0:0,0:2:0:0:
32,214,126675,2,0,P|16:170|8:133,1,70,8|2,0:2|0:2,0:0:0:0:
16,49,127104,2,0,L|65:58,3,35,2|2|0|2,1:2|0:0|0:2|0:0,0:0:0:0:
84,72,127532,2,0,P|139:53|170:40,1,70,8|2,0:2|0:2,0:0:0:0:
242,15,127961,5,6,1:2:0:0:
242,15,128068,1,2,1:2:0:0:
242,15,128175,2,0,P|257:69|270:100,1,70,0|8,1:2|0:2,0:2:0:0:
358,130,128604,1,2,1:2:0:0:
358,130,128711,1,2,1:2:0:0:
358,130,128818,2,0,P|343:184|330:215,1,70,2|0,1:2|0:2,0:2:0:0:
287,280,129246,2,0,L|247:288,3,35,10|2|2|2,0:2|1:2|1:2|1:2,0:0:0:0:
222,270,129675,5,6,1:2:0:0:
38,339,130104,1,10,0:2:0:0:
21,242,130318,2,0,L|40:164,1,70,2|0,0:2|1:2,0:2:0:0:
15,78,130746,1,0,3:2:0:0:
15,78,130961,1,8,0:2:0:0:
91,17,131175,1,2,0:2:0:0:
177,63,131389,6,0,P|251:54|317:37,1,140,0|8,1:0|0:2,0:0:0:0:
412,83,132032,1,2,3:2:0:0:
412,83,132139,1,2,3:2:0:0:
412,83,132246,2,0,P|427:115|422:155,1,70,2|0,1:2|0:2,0:0:0:0:
340,200,132675,2,0,L|297:188,3,35,10|2|2|2,0:2|3:2|3:2|3:2,0:0:0:0:
257,181,133104,6,0,P|215:229|214:306,1,140,2|10,1:2|0:2,0:2:0:0:
280,372,133746,2,0,P|350:340|423:357,1,140,2|2,0:2|0:2,0:2:0:0:
497,304,134389,1,10,0:2:0:0:
447,219,134604,1,2,0:2:0:0:
511,145,134818,6,0,L|483:51,2,70,0|0|8,1:0|0:2|0:2,0:0:0:0:
420,138,135461,1,2,3:2:0:0:
420,138,135568,1,2,3:2:0:0:
420,138,135675,2,0,L|344:118,1,70,2|2,1:2|3:2,0:0:0:0:
273,61,136104,1,10,0:2:0:0:
177,81,136318,1,2,0:2:0:0:
80,66,136532,6,0,P|45:133|49:206,1,140,2|10,1:2|0:2,0:2:0:0:
25,292,137175,2,0,P|60:275|96:268,1,70,2|2,0:2|1:2,0:0:0:0:
180,308,137604,2,0,P|215:325|251:332,1,70,0|10,3:2|0:2,0:0:0:0:
335,368,138032,1,2,0:2:0:0:
397,292,138246,6,0,L|385:218,1,70,0|0,1:0|0:2,0:0:0:0:
479,193,138675,2,0,L|467:123,1,70,8|2,0:2|3:2,0:0:0:0:
408,45,139104,2,0,B|366:70|366:70|266:47,1,140,2|10,1:2|0:2,0:0:0:0:
184,81,139746,1,2,3:2:0:0:
241,160,139961,6,0,P|233:240|211:312,1,140,2|10,1:2|0:2,0:2:0:0:
133,349,140604,2,0,L|109:281,1,70,2|0,0:2|1:2,0:2:0:0:
29,235,141032,1,2,0:2:0:0:
29,235,141246,2,0,L|58:160,1,70,8|0,0:2|0:2,0:0:0:0:
92,62,141675,6,0,P|82:44|70:29,3,35,0|0|0|0,1:2|1:2|1:2|1:2,0:0:0:0:
123,80,142104,2,0,P|157:77|193:69,1,70,8|0,0:2|1:2,0:0:0:0:
218,46,142425,1,0,1:2:0:0:
218,46,142532,2,0,P|256:46|293:53,1,70,0|0,1:2|1:2,0:0:0:0:
385,44,142961,2,0,P|390:20|393:-3,3,35,8|0|0|0,0:2|1:2|1:2|1:2,0:0:0:0:
371,72,143389,5,6,1:2:0:0:
473,288,143818,1,10,0:2:0:0:
391,357,144032,1,2,0:2:0:0:
322,286,144246,2,0,L|342:204,1,70,0|2,1:2|0:2,0:0:0:0:
234,328,144675,2,0,L|214:246,1,70,8|2,0:2|3:2,0:0:0:0:
119,264,145104,6,0,P|94:189|126:129,1,140,0|8,1:2|0:2,0:0:0:0:
70,62,145746,1,2,3:2:0:0:
70,62,145854,1,2,3:2:0:0:
70,62,145961,2,0,L|144:42,1,70,2|0,1:2|0:2,0:2:0:0:
237,66,146389,1,10,0:2:0:0:
237,66,146604,1,2,0:2:0:0:
343,22,146818,6,0,B|376:40|376:40|392:95|351:145,1,140,2|8,1:2|0:2,0:2:0:0:
298,214,147461,1,2,0:2:0:0:
384,260,147675,2,0,L|464:245,1,70,0|0,1:2|3:2,0:0:0:0:
505,330,148104,2,0,L|436:342,1,70,8|2,0:2|0:2,0:0:0:0:
344,376,148532,6,0,B|280:378|273:348|177:367,1,140,0|8,1:2|0:2,0:2:0:0:
107,371,149175,1,2,3:2:0:0:
107,371,149282,1,2,3:2:0:0:
107,371,149389,2,0,L|119:291,1,70,2|0,1:2|0:2,0:0:0:0:
39,241,149818,1,10,0:2:0:0:
80,152,150032,1,2,0:2:0:0:
12,81,150246,6,0,P|55:24|121:25,1,140,2|8,1:2|0:2,0:2:0:0:
203,74,150889,2,0,P|192:108|188:147,1,70,2|2,0:2|1:2,0:0:0:0:
152,233,151318,1,2,0:2:0:0:
152,233,151532,1,8,0:2:0:0:
219,303,151746,1,2,0:2:0:0:
309,264,151961,6,0,P|383:251|450:250,1,140,0|8,1:0|0:2,0:0:0:0:
512,177,152604,1,2,3:2:0:0:
512,177,152711,1,2,3:2:0:0:
512,177,152818,1,2,1:2:0:0:
429,123,153032,2,0,B|417:88|417:88|434:55,2,70,2|10|0,0:2|0:2|0:2,0:0:0:0:
330,68,153675,6,0,B|278:78|278:78|248:107|248:107|192:120,1,140,2|10,1:2|0:2,0:2:0:0:
109,89,154318,1,2,0:2:0:0:
109,89,154425,1,0,3:0:0:0:
109,89,154532,2,0,L|123:18,1,70,0|0,1:2|1:2,0:0:0:0:
203,117,154961,1,8,0:2:0:0:
124,184,155175,1,0,1:2:0:0:
203,266,155389,5,0,1:2:0:0:
203,266,155496,1,0,1:2:0:0:
203,266,155604,1,0,1:2:0:0:
203,266,155711,1,0,1:2:0:0:
203,266,155818,2,0,L|247:277,3,35,8|0|0|0,0:2|1:2|1:2|1:2,0:0:0:0:
264,292,156246,2,0,L|308:281,3,35,2|0|0|2,1:2|1:2|1:2|1:2,0:0:0:0:
328,271,156675,2,0,P|386:288|422:298,1,70,8|2,0:2|1:2,0:0:0:0:
491,237,157104,5,6,1:2:0:0:
254,151,157961,1,2,0:2:0:0:
465,44,158818,1,2,0:0:0:0:
256,192,158925,12,4,160532,0:2:0:0:
256,192,172532,12,4,174246,0:2:0:0:
227,62,175104,6,0,P|277:50|314:39,1,70,0|0,3:2|3:2,0:0:0:0:
317,26,175425,1,0,3:0:0:0:
317,26,175532,2,0,P|367:38|379:42,3,35,0|0|0|0,3:2|3:2|3:2|3:2,0:0:0:0:
368,59,175961,6,0,P|435:51|525:22,1,154.000004699707,6|10,0:2|0:0,0:0:0:0:
440,146,176604,1,2,0:0:0:0:
462,251,176818,2,0,P|505:268|538:284,1,77.0000023498536,0|2,0:0|0:0,0:0:0:0:
421,361,177246,1,8,0:0:0:0:
421,361,177461,1,0,0:0:0:0:
331,301,177675,6,0,P|320:354|311:390,1,77.0000023498536,2|0,0:0|0:0,0:0:0:0:
227,311,178104,1,10,0:0:0:0:
287,222,178318,2,0,P|306:145|272:57,1,154.000004699707,2|2,0:0|0:0,0:0:0:0:
198,9,178961,2,0,P|149:24|110:38,1,77.0000023498536,8|0,0:0|0:0,0:0:0:0:
18,15,179389,6,2,B|-13:72|17:140|17:140|41:117,1,154.000004699707,2|10,0:0|0:0,0:0:0:0:
135,185,180032,1,2,0:0:0:0:
135,185,180139,1,0,3:0:0:0:
135,185,180246,2,0,P|185:172|222:159,1,77.0000023498536
297,102,180675,1,10,0:0:0:0:
384,164,180889,1,2,0:0:0:0:
490,144,181104,6,0,P|501:104|511:79,2,38.5000011749268,2|2|2,0:2|0:2|0:2,0:0:0:0:
475,250,181532,2,0,P|430:259|395:269,1,77.0000023498536,10|2,0:2|0:2,0:0:0:0:
376,290,181854,1,0,3:0:0:0:
376,290,181961,2,0,P|331:281|296:271,1,77.0000023498536,2|2,0:2|0:2,0:0:0:0:
218,221,182389,1,10,0:2:0:0:
218,221,182496,1,2,0:2:0:0:
218,221,182604,1,2,0:2:0:0:
126,277,182818,6,2,P|76:290|-37:332,1,154.000004699707,2|0,0:0|0:0,0:0:0:0:
66,188,183461,1,2,0:0:0:0:
16,92,183675,2,0,P|5:37|-4:8,1,77.0000023498536
119,93,184104,1,10,0:0:0:0:
119,93,184318,1,0,0:0:0:0:
197,19,184532,6,0,P|241:35|287:60,1,77.0000023498536,2|0,0:0|0:0,0:0:0:0:
298,152,184961,1,10,0:0:0:0:
386,42,185175,2,0,P|455:44|510:132,1,154.000004699707,2|2,0:0|0:0,0:0:0:0:
503,213,185818,2,0,P|461:204|423:190,1,77.0000023498536,10|2,0:0|0:0,0:0:0:0:
341,129,186246,6,0,P|285:142|189:177,1,154.000004699707,2|10,0:0|0:0,0:0:0:0:
156,273,186889,1,2,0:0:0:0:
70,212,187104,2,0,P|33:199|-4:180,1,77.0000023498536,0|2,0:0|0:0,0:0:0:0:
13,306,187532,2,0,P|50:319|87:338,1,77.0000023498536,10|0,0:0|0:0,0:0:0:0:
186,370,187961,6,0,L|231:357,2,38.5000011749268,6|0|0,0:2|0:0|0:0,0:0:0:0:
243,278,188389,2,0,P|293:291|344:314,1,77.0000023498536,10|2,0:2|0:2,0:0:0:0:
348,324,188711,1,0,3:0:0:0:
348,324,188818,2,0,P|398:311|449:288,1,77.0000023498536,2|2,0:2|0:2,0:0:0:0:
476,208,189246,2,0,P|491:170|499:153,3,38.5000011749268,10|2|2|2,0:2|0:2|0:2|0:2,0:0:0:0:
473,148,189675,6,2,P|454:104|432:-5,1,154.000004699707,6|10,0:2|0:0,0:0:0:0:
343,100,190318,2,0,P|290:117|247:134,1,77.0000023498536,2|0,0:0|0:0,0:0:0:0:
191,198,190746,1,2,0:0:0:0:
292,236,190961,2,0,P|345:253|388:270,1,77.0000023498536,10|2,0:0|0:0,0:0:0:0:
266,344,191389,6,0,B|182:342|191:375|91:359,1,154.000004699707,0|10,0:0|0:0,0:0:0:0:
141,257,192032,1,2,0:0:0:0:
46,204,192246,2,0,P|2:194|-33:180,1,77.0000023498536,0|2,0:0|0:0,0:0:0:0:
73,104,192675,2,0,P|109:90|146:82,1,77.0000023498536,8|0,0:0|0:0,0:0:0:0:
234,19,193104,6,0,P|257:73|279:191,1,154.000004699707,2|10,0:0|0:0,0:0:0:0:
212,253,193746,1,2,0:0:0:0:
212,253,193854,1,0,3:0:0:0:
212,253,193961,2,0,P|156:239|110:224,1,77.0000023498536,0|2,0:0|0:0,0:0:0:0:
265,338,194389,1,10,0:0:0:0:
265,338,194604,1,2,0:0:0:0:
344,265,194818,6,0,P|333:219|326:198,2,38.5000011749268,2|2|2,0:2|0:2|0:2,0:0:0:0:
429,330,195246,2,0,P|442:293|452:256,1,77.0000023498536,10|2,0:2|0:2,0:0:0:0:
445,218,195568,1,0,3:0:0:0:
445,218,195675,2,0,P|501:195|526:180,1,77.0000023498536,2|2,0:2|0:2,0:0:0:0:
455,109,196104,1,10,0:2:0:0:
455,109,196211,1,2,0:2:0:0:
455,109,196318,1,2,0:2:0:0:
328,144,196532,6,0,P|279:136|160:93,1,154.000004699707,6|10,0:2|0:0,0:0:0:0:
107,23,197175,1,2,0:0:0:0:
18,83,197389,2,0,P|-1:115|-1:154,1,77.0000023498536,0|2,0:0|0:0,0:0:0:0:
3,262,197818,2,0,P|37:241|77:232,1,77.0000023498536,10|2,0:0|0:0,0:0:0:0:
171,274,198246,2,0,P|247:298|323:296,1,154.000004699707,0|10,0:0|0:0,0:0:0:0:
434,336,198889,5,2,0:0:0:0:
434,336,199104,1,0,0:0:0:0:
508,258,199318,1,2,0:0:0:0:
445,170,199532,2,0,L|462:79,1,77.0000023498536,0|2,0:0|0:0,0:0:0:0:
367,37,199961,2,0,P|291:51|214:59,1,154.000004699707,2|10,0:0|0:0,0:0:0:0:
89,21,200604,5,2,0:0:0:0:
89,21,200711,1,0,3:0:0:0:
89,21,200818,1,0,0:0:0:0:
25,108,201032,1,2,0:0:0:0:
80,200,201246,2,0,L|59:289,1,77.0000023498536,8|2,0:0|0:0,0:0:0:0:
117,367,201675,6,0,L|79:386,2,38.5000011749268,4|0|0,0:2|0:0|0:0,0:0:0:0:
212,316,202104,2,0,P|203:271|193:236,1,77.0000023498536,8|2,0:0|0:2,0:0:0:0:
172,217,202426,1,0,3:0:0:0:
172,217,202533,2,0,P|181:172|191:137,1,77.0000023498536,2|2,0:2|0:2,0:0:0:0:
241,51,202961,1,10,0:2:0:0:
241,51,203068,1,2,0:2:0:0:
241,51,203175,1,2,0:2:0:0:
353,158,203389,6,0,B|414:147|414:147|449:158|449:158|514:141,1,154.000004699707,6|10,0:2|0:0,0:0:0:0:
444,52,204032,1,2,0:0:0:0:
338,72,204246,2,0,L|262:56,1,77.0000023498536,0|2,0:0|0:0,0:0:0:0:
141,33,204675,2,0,L|155:113,1,77.0000023498536,8|0,0:0|0:0,0:0:0:0:
49,134,205104,2,0,P|19:205|56:269,1,154.000004699707,2|10,0:0|0:0,0:0:0:0:
43,374,205746,2,0,P|79:362|117:355,1,77.0000023498536,2|0,0:0|0:0,0:0:0:0:
224,372,206175,1,2,0:0:0:0:
283,282,206389,2,0,P|276:244|264:207,1,77.0000023498536,8|0,0:0|0:0,0:0:0:0:
370,185,206818,6,2,P|383:106|407:30,1,154.000004699707,2|10,0:0|0:0,0:0:0:0:
495,113,207461,1,2,0:0:0:0:
495,113,207568,1,0,3:0:0:0:
495,113,207675,2,0,P|511:164|512:206,1,77.0000023498536
429,256,208104,1,10,0:0:0:0:
429,256,208318,1,2,0:0:0:0:
466,356,208532,6,0,P|487:343|507:338,2,38.5000011749268,2|0|2,0:2|0:0|0:2,0:0:0:0:
358,350,208961,2,0,P|320:361|276:367,1,77.0000023498536,10|2,0:2|0:2,0:0:0:0:
258,343,209282,1,0,3:0:0:0:
258,343,209389,2,0,P|211:332|172:333,1,77.0000023498536,2|2,0:2|0:2,0:0:0:0:
71,376,209818,2,0,L|64:339,3,38.5000011749268,10|2|2|2,0:2|0:2|0:2|0:2,0:0:0:0:
42,302,210246,6,2,B|54:238|54:238|81:211|81:211|92:147,1,154.000004699707,6|0,0:2|0:0,0:0:0:0:
58,57,210889,1,2,0:0:0:0:
161,24,211104,2,0,L|243:42,1,77.0000023498536
374,31,211532,1,10,0:0:0:0:
374,31,211746,1,0,0:0:0:0:
307,116,211961,2,0,L|291:202,1,77.0000023498536,2|0,0:0|0:0,0:0:0:0:
217,268,212389,1,10,0:0:0:0:
284,352,212604,2,0,P|355:374|417:331,1,154.000004699707,2|2,0:0|0:0,0:0:0:0:
499,264,213246,6,0,L|509:340,1,77.0000023498536,10|2,0:0|0:0,0:0:0:0:
409,243,213675,2,0,P|409:154|474:133,1,154.000004699707,2|10,0:0|0:0,0:0:0:0:
394,44,214318,1,2,0:0:0:0:
296,89,214532,2,0,L|212:73,1,77.0000023498536,0|2,0:0|0:0,0:0:0:0:
118,100,214961,1,10,0:0:0:0:
118,100,215175,1,0,0:0:0:0:
191,178,215389,6,0,P|199:199|203:223,3,38.5000011749268,2|2|2|2,0:0|0:2|0:2|0:2,0:0:0:0:
187,270,215818,2,0,P|179:291|175:315,3,38.5000011749268,10|2|2|2,0:2|0:2|0:2|0:2,0:0:0:0:
209,348,216246,2,0,P|230:356|254:360,3,38.5000011749268,2|2|2|2,0:2|0:2|0:2|0:2,0:0:0:0:
301,344,216675,2,0,P|322:336|346:332,3,38.5000011749268,10|2|2|2,0:2|0:2|0:2|0:2,0:0:0:0:
381,357,217104,1,6,1:2:0:0:
