osu file format v14

[General]
AudioFilename: audio.mp3
AudioLeadIn: 0
PreviewTime: 259027
Countdown: 1
SampleSet: None
StackLeniency: 0.7
Mode: 3
LetterboxInBreaks: 0
SpecialStyle: 0
WidescreenStoryboard: 0

[Editor]
DistanceSpacing: 0.8
BeatDivisor: 6
GridSize: 8
TimelineZoom: 2.2

[Metadata]
Title:Alegra of a Blasphemy-like Choice
TitleUnicode:冒涜的選択のアレグリア
Artist:Mayumi Morinaga
ArtistUnicode:Mayumi Morinaga
Creator:Verald
Version:Lunatic
Source:
Tags:
BeatmapID:1813539
BeatmapSetID:867523

[Difficulty]
HPDrainRate:8
CircleSize:4
OverallDifficulty:7
ApproachRate:5
SliderMultiplier:1.4
SliderTickRate:1

[Events]
//Background and Video events
0,0,"BG.jpg",0,0
//Break Periods
//Storyboard Layer 0 (Background)
//Storyboard Layer 1 (Fail)
//Storyboard Layer 2 (Pass)
//Storyboard Layer 3 (Foreground)
//Storyboard Sound Samples

[TimingPoints]
630,384.615384615385,4,1,0,10,1,0

[HitObjects]
448,192,630,128,0,1783:0:0:0:0:
320,192,822,128,0,1591:0:0:0:0:
192,192,1014,128,0,1399:0:0:0:0:
64,192,1206,1,0,0:0:0:0:
64,192,1399,128,0,1976:0:0:0:0:
192,192,1591,128,0,2168:0:0:0:0:
320,192,1783,128,0,2360:0:0:0:0:
448,192,1976,128,0,2553:0:0:0:0:
64,192,2168,128,0,3322:0:0:0:0:
192,192,2360,128,0,3130:0:0:0:0:
320,192,2553,128,0,2937:0:0:0:0:
448,192,2745,1,0,0:0:0:0:
448,192,2937,128,0,3514:0:0:0:0:
320,192,3130,128,0,3706:0:0:0:0:
192,192,3322,128,0,3899:0:0:0:0:
64,192,3514,128,0,4091:0:0:0:0:
448,192,3706,128,0,4476:0:0:0:0:
320,192,3899,128,0,4476:0:0:0:0:
192,192,4091,128,0,4476:0:0:0:0:
64,192,4283,1,0,0:0:0:0:
64,192,4476,128,0,5245:0:0:0:0:
192,192,4668,128,0,5245:0:0:0:0:
320,192,4860,128,0,5245:0:0:0:0:
448,192,5053,1,0,0:0:0:0:
448,192,5245,128,0,5437:0:0:0:0:
64,192,5437,128,0,5630:0:0:0:0:
192,192,5437,1,0,0:0:0:0:
448,192,5630,128,0,5822:0:0:0:0:
320,192,5630,1,0,0:0:0:0:
64,192,5822,128,0,6014:0:0:0:0:
192,192,5822,1,0,0:0:0:0:
448,192,6014,128,0,6783:0:0:0:0:
320,192,6014,1,0,0:0:0:0:
320,192,6206,128,0,6783:0:0:0:0:
192,192,6206,1,0,0:0:0:0:
64,192,6399,1,0,0:0:0:0:
192,192,6399,128,0,6783:0:0:0:0:
64,192,6591,1,0,0:0:0:0:
64,192,6783,128,0,7937:0:0:0:0:
192,192,6976,128,0,7745:0:0:0:0:
320,192,7168,128,0,7553:0:0:0:0:
448,192,7360,1,0,0:0:0:0:
448,192,7553,128,0,8130:0:0:0:0:
320,192,7745,128,0,8322:0:0:0:0:
192,192,7937,128,0,8514:0:0:0:0:
64,192,8130,128,0,8706:0:0:0:0:
448,192,8322,128,0,9476:0:0:0:0:
320,192,8514,128,0,9283:0:0:0:0:
192,192,8706,128,0,9091:0:0:0:0:
64,192,8899,1,0,0:0:0:0:
64,192,9091,128,0,9668:0:0:0:0:
192,192,9283,128,0,9860:0:0:0:0:
320,192,9476,128,0,10053:0:0:0:0:
448,192,9668,128,0,10245:0:0:0:0:
64,192,9860,128,0,10630:0:0:0:0:
192,192,10053,128,0,10630:0:0:0:0:
320,192,10245,128,0,10630:0:0:0:0:
448,192,10437,128,0,11399:0:0:0:0:
64,192,10822,128,0,11399:0:0:0:0:
192,192,11014,128,0,11399:0:0:0:0:
320,192,11206,1,0,0:0:0:0:
320,192,11399,128,0,12168:0:0:0:0:
64,192,12168,1,0,0:0:0:0:
192,192,12168,128,0,12360:0:0:0:0:
448,192,12360,128,0,12553:0:0:0:0:
192,192,12553,128,0,12937:0:0:0:0:
64,192,12553,1,0,0:0:0:0:
320,192,12553,128,0,12745:0:0:0:0:
64,192,12745,128,0,12937:0:0:0:0:
448,192,12745,1,0,0:0:0:0:
448,192,12937,1,0,0:0:0:0:
320,192,12937,128,0,13514:0:0:0:0:
192,192,13001,1,0,0:0:0:0:
64,192,13065,1,0,0:0:0:0:
192,192,13130,1,0,0:0:0:0:
448,192,13194,1,0,0:0:0:0:
192,192,13258,1,0,0:0:0:0:
448,192,13322,1,0,0:0:0:0:
64,192,13322,1,0,0:0:0:0:
192,192,13386,1,0,0:0:0:0:
448,192,13450,1,0,0:0:0:0:
64,192,13514,128,0,13706:0:0:0:0:
192,192,13578,1,0,0:0:0:0:
320,192,13642,1,0,0:0:0:0:
448,192,13706,128,0,14283:0:0:0:0:
192,192,13706,1,0,0:0:0:0:
320,192,13771,1,0,0:0:0:0:
192,192,13835,1,0,0:0:0:0:
64,192,13899,1,0,0:0:0:0:
192,192,13963,1,0,0:0:0:0:
320,192,14027,1,0,0:0:0:0:
192,192,14091,1,0,0:0:0:0:
64,192,14091,1,0,0:0:0:0:
320,192,14155,1,0,0:0:0:0:
64,192,14219,1,0,0:0:0:0:
192,192,14283,128,0,14476:0:0:0:0:
320,192,14347,1,0,0:0:0:0:
448,192,14412,1,0,0:0:0:0:
320,192,14476,128,0,15053:0:0:0:0:
64,192,14476,1,0,0:0:0:0:
192,192,14540,1,0,0:0:0:0:
448,192,14604,1,0,0:0:0:0:
192,192,14668,1,0,0:0:0:0:
64,192,14732,1,0,0:0:0:0:
192,192,14796,1,0,0:0:0:0:
448,192,14860,1,0,0:0:0:0:
64,192,14860,1,0,0:0:0:0:
192,192,14924,1,0,0:0:0:0:
448,192,14988,1,0,0:0:0:0:
64,192,15053,128,0,15245:0:0:0:0:
192,192,15117,1,0,0:0:0:0:
320,192,15181,1,0,0:0:0:0:
448,192,15245,128,0,16014:0:0:0:0:
192,192,15245,1,0,0:0:0:0:
320,192,15309,1,0,0:0:0:0:
192,192,15373,1,0,0:0:0:0:
64,192,15437,1,0,0:0:0:0:
192,192,15501,1,0,0:0:0:0:
320,192,15565,1,0,0:0:0:0:
192,192,15630,1,0,0:0:0:0:
64,192,15630,1,0,0:0:0:0:
320,192,15694,1,0,0:0:0:0:
192,192,15758,1,0,0:0:0:0:
64,192,15822,1,0,0:0:0:0:
192,192,15886,1,0,0:0:0:0:
320,192,15950,1,0,0:0:0:0:
64,192,16014,128,0,17553:0:0:0:0:
192,192,16014,1,0,0:0:0:0:
320,192,16078,1,0,0:0:0:0:
448,192,16142,1,0,0:0:0:0:
192,192,16206,1,0,0:0:0:0:
320,192,16271,1,0,0:0:0:0:
448,192,16335,1,0,0:0:0:0:
192,192,16399,1,0,0:0:0:0:
320,192,16399,1,0,0:0:0:0:
448,192,16463,1,0,0:0:0:0:
320,192,16527,1,0,0:0:0:0:
192,192,16591,1,0,0:0:0:0:
448,192,16655,1,0,0:0:0:0:
320,192,16719,1,0,0:0:0:0:
192,192,16783,1,0,0:0:0:0:
448,192,16783,1,0,0:0:0:0:
320,192,16847,1,0,0:0:0:0:
192,192,16912,1,0,0:0:0:0:
320,192,16976,1,0,0:0:0:0:
448,192,17040,1,0,0:0:0:0:
192,192,17104,1,0,0:0:0:0:
320,192,17168,1,0,0:0:0:0:
448,192,17168,1,0,0:0:0:0:
192,192,17232,1,0,0:0:0:0:
320,192,17296,1,0,0:0:0:0:
448,192,17360,1,0,0:0:0:0:
192,192,17424,1,0,0:0:0:0:
320,192,17488,1,0,0:0:0:0:
448,192,17553,1,0,0:0:0:0:
192,192,17553,1,0,0:0:0:0:
320,192,17617,1,0,0:0:0:0:
192,192,17681,1,0,0:0:0:0:
64,192,17745,1,0,0:0:0:0:
320,192,17745,1,0,0:0:0:0:
192,192,17809,1,0,0:0:0:0:
320,192,17873,1,0,0:0:0:0:
448,192,17937,1,0,0:0:0:0:
192,192,17937,1,0,0:0:0:0:
64,192,18001,1,0,0:0:0:0:
192,192,18065,1,0,0:0:0:0:
320,192,18130,1,0,0:0:0:0:
448,192,18130,1,0,0:0:0:0:
192,192,18194,1,0,0:0:0:0:
64,192,18258,1,0,0:0:0:0:
192,192,18322,1,0,0:0:0:0:
320,192,18322,1,0,0:0:0:0:
64,192,18386,1,0,0:0:0:0:
192,192,18450,1,0,0:0:0:0:
448,192,18514,1,0,0:0:0:0:
64,192,18514,1,0,0:0:0:0:
192,192,18578,1,0,0:0:0:0:
320,192,18642,1,0,0:0:0:0:
448,192,18706,1,0,0:0:0:0:
192,192,18706,1,0,0:0:0:0:
64,192,18771,1,0,0:0:0:0:
192,192,18835,1,0,0:0:0:0:
448,192,18899,1,0,0:0:0:0:
64,192,18899,1,0,0:0:0:0:
192,192,18963,1,0,0:0:0:0:
320,192,19027,1,0,0:0:0:0:
192,192,19091,128,0,19668:0:0:0:0:
448,192,19091,1,0,0:0:0:0:
64,192,19155,1,0,0:0:0:0:
448,192,19219,1,0,0:0:0:0:
320,192,19283,1,0,0:0:0:0:
64,192,19347,1,0,0:0:0:0:
320,192,19412,1,0,0:0:0:0:
448,192,19476,1,0,0:0:0:0:
64,192,19476,1,0,0:0:0:0:
320,192,19540,1,0,0:0:0:0:
448,192,19604,1,0,0:0:0:0:
64,192,19668,128,0,19860:0:0:0:0:
448,192,19732,1,0,0:0:0:0:
320,192,19796,1,0,0:0:0:0:
448,192,19860,128,0,20437:0:0:0:0:
192,192,19860,1,0,0:0:0:0:
320,192,19924,1,0,0:0:0:0:
192,192,19988,1,0,0:0:0:0:
64,192,20053,1,0,0:0:0:0:
320,192,20117,1,0,0:0:0:0:
192,192,20181,1,0,0:0:0:0:
64,192,20245,1,0,0:0:0:0:
320,192,20245,1,0,0:0:0:0:
192,192,20309,1,0,0:0:0:0:
320,192,20373,1,0,0:0:0:0:
64,192,20437,128,0,20630:0:0:0:0:
192,192,20501,1,0,0:0:0:0:
448,192,20565,1,0,0:0:0:0:
320,192,20630,128,0,21206:0:0:0:0:
192,192,20630,1,0,0:0:0:0:
64,192,20694,1,0,0:0:0:0:
192,192,20758,1,0,0:0:0:0:
448,192,20822,1,0,0:0:0:0:
192,192,20886,1,0,0:0:0:0:
64,192,20950,1,0,0:0:0:0:
192,192,21014,1,0,0:0:0:0:
448,192,21014,1,0,0:0:0:0:
64,192,21078,1,0,0:0:0:0:
192,192,21142,1,0,0:0:0:0:
448,192,21206,128,0,21591:0:0:0:0:
64,192,21271,1,0,0:0:0:0:
192,192,21335,1,0,0:0:0:0:
320,192,21399,1,0,0:0:0:0:
64,192,21399,1,0,0:0:0:0:
192,192,21463,1,0,0:0:0:0:
320,192,21527,1,0,0:0:0:0:
64,192,21591,128,0,21783:0:0:0:0:
192,192,21655,1,0,0:0:0:0:
320,192,21719,1,0,0:0:0:0:
192,192,21783,128,0,22168:0:0:0:0:
448,192,21783,1,0,0:0:0:0:
320,192,21847,1,0,0:0:0:0:
64,192,21912,1,0,0:0:0:0:
320,192,21976,1,0,0:0:0:0:
64,192,22040,1,0,0:0:0:0:
320,192,22104,1,0,0:0:0:0:
448,192,22168,128,0,23706:0:0:0:0:
64,192,22168,1,0,0:0:0:0:
192,192,22232,1,0,0:0:0:0:
320,192,22296,1,0,0:0:0:0:
64,192,22360,1,0,0:0:0:0:
192,192,22424,1,0,0:0:0:0:
320,192,22488,1,0,0:0:0:0:
64,192,22553,1,0,0:0:0:0:
192,192,22553,1,0,0:0:0:0:
320,192,22617,1,0,0:0:0:0:
192,192,22681,1,0,0:0:0:0:
64,192,22745,1,0,0:0:0:0:
320,192,22809,1,0,0:0:0:0:
192,192,22873,1,0,0:0:0:0:
64,192,22937,1,0,0:0:0:0:
320,192,22937,1,0,0:0:0:0:
192,192,23001,1,0,0:0:0:0:
64,192,23065,1,0,0:0:0:0:
192,192,23130,1,0,0:0:0:0:
320,192,23194,1,0,0:0:0:0:
192,192,23258,1,0,0:0:0:0:
64,192,23322,1,0,0:0:0:0:
320,192,23322,1,0,0:0:0:0:
192,192,23386,1,0,0:0:0:0:
320,192,23450,1,0,0:0:0:0:
64,192,23514,1,0,0:0:0:0:
192,192,23578,1,0,0:0:0:0:
320,192,23642,1,0,0:0:0:0:
64,192,23706,128,0,24476:0:0:0:0:
192,192,23706,1,0,0:0:0:0:
320,192,23771,1,0,0:0:0:0:
448,192,23835,1,0,0:0:0:0:
192,192,23899,1,0,0:0:0:0:
320,192,23899,1,0,0:0:0:0:
448,192,23963,1,0,0:0:0:0:
192,192,24027,1,0,0:0:0:0:
448,192,24091,1,0,0:0:0:0:
320,192,24091,1,0,0:0:0:0:
192,192,24155,1,0,0:0:0:0:
320,192,24219,1,0,0:0:0:0:
448,192,24283,1,0,0:0:0:0:
192,192,24283,1,0,0:0:0:0:
320,192,24347,1,0,0:0:0:0:
192,192,24412,1,0,0:0:0:0:
320,192,24476,1,0,0:0:0:0:
448,192,24476,1,0,0:0:0:0:
192,192,24540,1,0,0:0:0:0:
320,192,24604,1,0,0:0:0:0:
192,192,24668,1,0,0:0:0:0:
64,192,24668,1,0,0:0:0:0:
320,192,24732,1,0,0:0:0:0:
192,192,24796,1,0,0:0:0:0:
320,192,24860,1,0,0:0:0:0:
448,192,24860,1,0,0:0:0:0:
192,192,24924,1,0,0:0:0:0:
320,192,24988,1,0,0:0:0:0:
192,192,25053,1,0,0:0:0:0:
64,192,25053,1,0,0:0:0:0:
320,192,25117,1,0,0:0:0:0:
192,192,25181,1,0,0:0:0:0:
320,192,25245,1,0,0:0:0:0:
448,192,25245,1,0,0:0:0:0:
64,192,25245,1,0,0:0:0:0:
192,192,25341,1,0,0:0:0:0:
64,192,25437,1,0,0:0:0:0:
320,192,25437,1,0,0:0:0:0:
448,192,25533,1,0,0:0:0:0:
320,192,25630,1,0,0:0:0:0:
192,192,25630,1,0,0:0:0:0:
64,192,25630,1,0,0:0:0:0:
448,192,25726,1,0,0:0:0:0:
320,192,25822,1,0,0:0:0:0:
192,192,25822,1,0,0:0:0:0:
64,192,25918,1,0,0:0:0:0:
192,192,26014,1,0,0:0:0:0:
320,192,26014,1,0,0:0:0:0:
448,192,26014,1,0,0:0:0:0:
64,192,26110,1,0,0:0:0:0:
192,192,26206,1,0,0:0:0:0:
448,192,26206,1,0,0:0:0:0:
320,192,26303,1,0,0:0:0:0:
192,192,26399,1,0,0:0:0:0:
64,192,26399,1,0,0:0:0:0:
448,192,26399,1,0,0:0:0:0:
320,192,26495,1,0,0:0:0:0:
192,192,26591,1,0,0:0:0:0:
64,192,26591,1,0,0:0:0:0:
320,192,26687,1,0,0:0:0:0:
448,192,26783,1,0,0:0:0:0:
192,192,26783,1,0,0:0:0:0:
64,192,26783,1,0,0:0:0:0:
320,192,26880,1,0,0:0:0:0:
192,192,26976,1,0,0:0:0:0:
64,192,26976,1,0,0:0:0:0:
320,192,27072,1,0,0:0:0:0:
448,192,27168,1,0,0:0:0:0:
192,192,27168,1,0,0:0:0:0:
64,192,27168,1,0,0:0:0:0:
320,192,27264,1,0,0:0:0:0:
192,192,27360,1,0,0:0:0:0:
448,192,27360,1,0,0:0:0:0:
64,192,27456,1,0,0:0:0:0:
192,192,27553,1,0,0:0:0:0:
320,192,27553,1,0,0:0:0:0:
448,192,27553,1,0,0:0:0:0:
64,192,27649,1,0,0:0:0:0:
192,192,27745,1,0,0:0:0:0:
448,192,27745,1,0,0:0:0:0:
320,192,27841,1,0,0:0:0:0:
192,192,27937,1,0,0:0:0:0:
64,192,27937,1,0,0:0:0:0:
448,192,27937,1,0,0:0:0:0:
320,192,28033,1,0,0:0:0:0:
448,192,28130,1,0,0:0:0:0:
64,192,28130,1,0,0:0:0:0:
192,192,28226,1,0,0:0:0:0:
64,192,28322,1,0,0:0:0:0:
320,192,28322,1,0,0:0:0:0:
448,192,28322,1,0,0:0:0:0:
192,192,28418,1,0,0:0:0:0:
320,192,28514,1,0,0:0:0:0:
448,192,28514,1,0,0:0:0:0:
192,192,28610,1,0,0:0:0:0:
64,192,28706,1,0,0:0:0:0:
320,192,28706,1,0,0:0:0:0:
448,192,28706,1,0,0:0:0:0:
192,192,28803,1,0,0:0:0:0:
448,192,28899,1,0,0:0:0:0:
320,192,28899,1,0,0:0:0:0:
64,192,28995,1,0,0:0:0:0:
448,192,29091,1,0,0:0:0:0:
320,192,29091,1,0,0:0:0:0:
192,192,29091,1,0,0:0:0:0:
64,192,29187,1,0,0:0:0:0:
192,192,29283,1,0,0:0:0:0:
320,192,29283,1,0,0:0:0:0:
448,192,29380,1,0,0:0:0:0:
320,192,29476,1,0,0:0:0:0:
192,192,29476,1,0,0:0:0:0:
64,192,29476,1,0,0:0:0:0:
448,192,29572,1,0,0:0:0:0:
320,192,29668,1,0,0:0:0:0:
64,192,29668,1,0,0:0:0:0:
192,192,29764,1,0,0:0:0:0:
448,192,29860,1,0,0:0:0:0:
320,192,29860,1,0,0:0:0:0:
64,192,29860,1,0,0:0:0:0:
192,192,29956,1,0,0:0:0:0:
320,192,30053,1,0,0:0:0:0:
448,192,30053,1,0,0:0:0:0:
64,192,30149,1,0,0:0:0:0:
192,192,30245,1,0,0:0:0:0:
320,192,30245,1,0,0:0:0:0:
448,192,30245,1,0,0:0:0:0:
64,192,30341,1,0,0:0:0:0:
448,192,30437,1,0,0:0:0:0:
192,192,30437,1,0,0:0:0:0:
320,192,30533,1,0,0:0:0:0:
448,192,30630,1,0,0:0:0:0:
192,192,30630,1,0,0:0:0:0:
64,192,30630,1,0,0:0:0:0:
320,192,30726,1,0,0:0:0:0:
192,192,30822,1,0,0:0:0:0:
448,192,30822,1,0,0:0:0:0:
64,192,30918,1,0,0:0:0:0:
192,192,31014,1,0,0:0:0:0:
320,192,31014,1,0,0:0:0:0:
448,192,31014,1,0,0:0:0:0:
64,192,31110,1,0,0:0:0:0:
192,192,31206,1,0,0:0:0:0:
320,192,31206,1,0,0:0:0:0:
448,192,31303,1,0,0:0:0:0:
320,192,31399,1,0,0:0:0:0:
192,192,31399,1,0,0:0:0:0:
64,192,31399,1,0,0:0:0:0:
448,192,31495,1,0,0:0:0:0:
320,192,31591,1,0,0:0:0:0:
192,192,31591,1,0,0:0:0:0:
64,192,31687,1,0,0:0:0:0:
192,192,31783,1,0,0:0:0:0:
320,192,31783,1,0,0:0:0:0:
448,192,31783,1,0,0:0:0:0:
64,192,31880,1,0,0:0:0:0:
192,192,31976,1,0,0:0:0:0:
448,192,31976,1,0,0:0:0:0:
320,192,32072,1,0,0:0:0:0:
192,192,32168,1,0,0:0:0:0:
64,192,32168,1,0,0:0:0:0:
448,192,32168,1,0,0:0:0:0:
320,192,32264,1,0,0:0:0:0:
64,192,32360,1,0,0:0:0:0:
448,192,32360,1,0,0:0:0:0:
192,192,32456,1,0,0:0:0:0:
64,192,32553,1,0,0:0:0:0:
320,192,32553,1,0,0:0:0:0:
448,192,32553,1,0,0:0:0:0:
192,192,32649,1,0,0:0:0:0:
320,192,32745,1,0,0:0:0:0:
448,192,32745,1,0,0:0:0:0:
192,192,32841,1,0,0:0:0:0:
64,192,32937,1,0,0:0:0:0:
320,192,32937,1,0,0:0:0:0:
448,192,32937,1,0,0:0:0:0:
192,192,33033,1,0,0:0:0:0:
448,192,33130,1,0,0:0:0:0:
320,192,33130,1,0,0:0:0:0:
192,192,33226,1,0,0:0:0:0:
64,192,33322,1,0,0:0:0:0:
320,192,33322,1,0,0:0:0:0:
448,192,33322,1,0,0:0:0:0:
192,192,33418,1,0,0:0:0:0:
64,192,33514,1,0,0:0:0:0:
320,192,33514,1,0,0:0:0:0:
448,192,33610,1,0,0:0:0:0:
320,192,33706,1,0,0:0:0:0:
192,192,33706,1,0,0:0:0:0:
64,192,33706,1,0,0:0:0:0:
448,192,33803,1,0,0:0:0:0:
320,192,33899,1,0,0:0:0:0:
192,192,33899,1,0,0:0:0:0:
64,192,33995,1,0,0:0:0:0:
192,192,34091,1,0,0:0:0:0:
320,192,34091,1,0,0:0:0:0:
448,192,34091,1,0,0:0:0:0:
64,192,34187,1,0,0:0:0:0:
192,192,34283,1,0,0:0:0:0:
448,192,34283,1,0,0:0:0:0:
320,192,34380,1,0,0:0:0:0:
192,192,34476,1,0,0:0:0:0:
64,192,34476,1,0,0:0:0:0:
448,192,34476,1,0,0:0:0:0:
192,192,34572,1,0,0:0:0:0:
192,192,34668,1,0,0:0:0:0:
64,192,34668,1,0,0:0:0:0:
448,192,34668,1,0,0:0:0:0:
448,192,34764,1,0,0:0:0:0:
64,192,34860,5,0,0:0:0:0:
448,192,34860,1,0,0:0:0:0:
320,192,34860,1,0,0:0:0:0:
64,192,34956,1,0,0:0:0:0:
64,192,35053,1,0,0:0:0:0:
192,192,35053,1,0,0:0:0:0:
320,192,35053,1,0,0:0:0:0:
320,192,35149,1,0,0:0:0:0:
64,192,35245,1,0,0:0:0:0:
320,192,35245,1,0,0:0:0:0:
448,192,35245,1,0,0:0:0:0:
448,192,35341,1,0,0:0:0:0:
64,192,35437,1,0,0:0:0:0:
192,192,35437,1,0,0:0:0:0:
448,192,35437,1,0,0:0:0:0:
192,192,35533,1,0,0:0:0:0:
64,192,35630,1,0,0:0:0:0:
192,192,35630,1,0,0:0:0:0:
320,192,35630,1,0,0:0:0:0:
320,192,35726,1,0,0:0:0:0:
448,192,35822,1,0,0:0:0:0:
320,192,35822,1,0,0:0:0:0:
64,192,35822,1,0,0:0:0:0:
64,192,35918,1,0,0:0:0:0:
64,192,36014,128,0,36206:0:0:0:0:
448,192,36014,128,0,36303:0:0:0:0:
320,192,36014,1,0,0:0:0:0:
192,192,36110,128,0,36399:0:0:0:0:
320,192,36206,128,0,36687:0:0:0:0:
64,192,36303,128,0,36495:0:0:0:0:
448,192,36399,128,0,36591:0:0:0:0:
192,192,36495,128,0,36783:0:0:0:0:
64,192,36591,128,0,36880:0:0:0:0:
448,192,36687,128,0,36976:0:0:0:0:
320,192,36783,128,0,37072:0:0:0:0:
192,192,36880,128,0,37168:0:0:0:0:
64,192,36976,128,0,37553:0:0:0:0:
448,192,37072,128,0,37264:0:0:0:0:
320,192,37168,128,0,37360:0:0:0:0:
192,192,37264,128,0,37456:0:0:0:0:
448,192,37360,128,0,37553:0:0:0:0:
320,192,37456,128,0,37553:0:0:0:0:
192,192,37553,128,0,37649:0:0:0:0:
448,192,37745,128,0,37841:0:0:0:0:
320,192,37745,128,0,38033:0:0:0:0:
64,192,37937,128,0,38033:0:0:0:0:
320,192,38130,128,0,38226:0:0:0:0:
192,192,38130,128,0,38418:0:0:0:0:
448,192,38322,128,0,38418:0:0:0:0:
320,192,38322,128,0,39091:0:0:0:0:
192,192,38514,128,0,38610:0:0:0:0:
448,192,38514,128,0,38803:0:0:0:0:
64,192,38706,128,0,38803:0:0:0:0:
192,192,38899,128,0,38995:0:0:0:0:
64,192,38899,128,0,39091:0:0:0:0:
192,192,39091,128,0,39380:0:0:0:0:
448,192,39091,128,0,39956:0:0:0:0:
64,192,39283,128,0,39380:0:0:0:0:
320,192,39283,128,0,39572:0:0:0:0:
64,192,39476,128,0,39572:0:0:0:0:
192,192,39668,128,0,39764:0:0:0:0:
320,192,39668,128,0,39956:0:0:0:0:
192,192,39860,128,0,39956:0:0:0:0:
64,192,39860,128,0,40726:0:0:0:0:
320,192,40053,128,0,40341:0:0:0:0:
448,192,40053,128,0,40149:0:0:0:0:
192,192,40245,128,0,40341:0:0:0:0:
448,192,40245,128,0,40533:0:0:0:0:
320,192,40437,128,0,40533:0:0:0:0:
192,192,40437,128,0,40726:0:0:0:0:
320,192,40630,128,0,40726:0:0:0:0:
448,192,40630,128,0,41495:0:0:0:0:
192,192,40822,128,0,40918:0:0:0:0:
320,192,40822,128,0,41110:0:0:0:0:
192,192,41014,128,0,41110:0:0:0:0:
192,192,41206,128,0,41495:0:0:0:0:
320,192,41206,128,0,41303:0:0:0:0:
320,192,41399,128,0,41495:0:0:0:0:
64,192,41399,128,0,42264:0:0:0:0:
320,192,41591,128,0,41880:0:0:0:0:
448,192,41591,128,0,41687:0:0:0:0:
448,192,41783,128,0,42072:0:0:0:0:
192,192,41976,128,0,42072:0:0:0:0:
320,192,41976,128,0,42264:0:0:0:0:
448,192,42168,128,0,42264:0:0:0:0:
192,192,42168,128,0,42456:0:0:0:0:
320,192,42360,128,0,42456:0:0:0:0:
448,192,42360,128,0,42649:0:0:0:0:
64,192,42553,128,0,42649:0:0:0:0:
192,192,42553,128,0,42841:0:0:0:0:
320,192,42745,128,0,42841:0:0:0:0:
448,192,42745,128,0,42937:0:0:0:0:
64,192,42937,128,0,43130:0:0:0:0:
192,192,43033,128,0,43226:0:0:0:0:
320,192,43130,128,0,43322:0:0:0:0:
448,192,43226,128,0,43418:0:0:0:0:
64,192,43322,128,0,43610:0:0:0:0:
192,192,43418,128,0,43610:0:0:0:0:
320,192,43514,128,0,43610:0:0:0:0:
448,192,43610,128,0,43706:0:0:0:0:
320,192,43706,128,0,44187:0:0:0:0:
64,192,43706,128,0,43803:0:0:0:0:
448,192,43899,128,0,43995:0:0:0:0:
192,192,43899,128,0,44187:0:0:0:0:
448,192,44091,128,0,44187:0:0:0:0:
64,192,44091,128,0,44572:0:0:0:0:
320,192,44283,128,0,44572:0:0:0:0:
448,192,44283,128,0,44380:0:0:0:0:
192,192,44476,128,0,44572:0:0:0:0:
448,192,44476,128,0,44956:0:0:0:0:
192,192,44668,128,0,44956:0:0:0:0:
64,192,44668,128,0,44764:0:0:0:0:
320,192,44860,128,0,44956:0:0:0:0:
64,192,44860,128,0,45341:0:0:0:0:
320,192,45053,128,0,45341:0:0:0:0:
448,192,45053,128,0,45149:0:0:0:0:
192,192,45245,128,0,45341:0:0:0:0:
448,192,45245,128,0,45726:0:0:0:0:
320,192,45437,128,0,45533:0:0:0:0:
192,192,45437,128,0,45726:0:0:0:0:
64,192,45630,128,0,45726:0:0:0:0:
320,192,45630,128,0,46110:0:0:0:0:
448,192,45822,128,0,46110:0:0:0:0:
192,192,45822,128,0,45918:0:0:0:0:
64,192,46014,128,0,46110:0:0:0:0:
192,192,46014,128,0,46495:0:0:0:0:
320,192,46206,128,0,46495:0:0:0:0:
448,192,46206,128,0,46303:0:0:0:0:
448,192,46399,128,0,46495:0:0:0:0:
64,192,46399,128,0,46783:0:0:0:0:
192,192,46591,128,0,46783:0:0:0:0:
320,192,46591,128,0,46687:0:0:0:0:
448,192,46783,128,0,47072:0:0:0:0:
320,192,46976,128,0,47072:0:0:0:0:
64,192,46976,128,0,47264:0:0:0:0:
192,192,47168,128,0,47264:0:0:0:0:
448,192,47168,128,0,47456:0:0:0:0:
320,192,47360,128,0,47456:0:0:0:0:
64,192,47553,128,0,47841:0:0:0:0:
192,192,47745,128,0,47841:0:0:0:0:
448,192,47745,128,0,48033:0:0:0:0:
320,192,47937,128,0,48033:0:0:0:0:
64,192,47937,128,0,48226:0:0:0:0:
192,192,48130,128,0,48226:0:0:0:0:
448,192,48130,128,0,48514:0:0:0:0:
320,192,48322,128,0,48706:0:0:0:0:
192,192,48322,128,0,48514:0:0:0:0:
64,192,48514,128,0,48899:0:0:0:0:
448,192,48706,128,0,48803:0:0:0:0:
192,192,48706,128,0,48899:0:0:0:0:
320,192,48899,128,0,48995:0:0:0:0:
448,192,48995,128,0,49091:0:0:0:0:
64,192,49091,128,0,49283:0:0:0:0:
320,192,49283,128,0,49476:0:0:0:0:
448,192,49283,128,0,49764:0:0:0:0:
192,192,49283,128,0,49764:0:0:0:0:
64,192,49476,128,0,49764:0:0:0:0:
320,192,49668,128,0,49764:0:0:0:0:
448,192,49860,128,0,50053:0:0:0:0:
192,192,49860,128,0,50149:0:0:0:0:
64,192,50053,128,0,50245:0:0:0:0:
192,192,50245,128,0,50533:0:0:0:0:
448,192,50245,128,0,50437:0:0:0:0:
320,192,50437,128,0,50533:0:0:0:0:
64,192,50437,128,0,50630:0:0:0:0:
448,192,50630,128,0,51110:0:0:0:0:
320,192,50630,128,0,51110:0:0:0:0:
64,192,50822,128,0,51110:0:0:0:0:
192,192,51014,128,0,51303:0:0:0:0:
320,192,51206,128,0,51303:0:0:0:0:
448,192,51399,128,0,51880:0:0:0:0:
320,192,51591,128,0,51687:0:0:0:0:
64,192,51591,128,0,52072:0:0:0:0:
320,192,51783,128,0,52072:0:0:0:0:
192,192,51783,128,0,51880:0:0:0:0:
448,192,51976,128,0,52072:0:0:0:0:
320,192,52168,128,0,52360:0:0:0:0:
448,192,52168,128,0,52360:0:0:0:0:
64,192,52168,128,0,52360:0:0:0:0:
64,192,52456,128,0,52649:0:0:0:0:
448,192,52456,128,0,52649:0:0:0:0:
192,192,52456,128,0,52649:0:0:0:0:
448,192,52745,128,0,52937:0:0:0:0:
192,192,52745,128,0,52937:0:0:0:0:
320,192,52745,128,0,52937:0:0:0:0:
64,192,52937,128,0,53418:0:0:0:0:
448,192,53130,128,0,53610:0:0:0:0:
320,192,53130,128,0,53226:0:0:0:0:
192,192,53322,128,0,53418:0:0:0:0:
320,192,53322,128,0,53610:0:0:0:0:
64,192,53514,128,0,53610:0:0:0:0:
192,192,53706,128,0,53899:0:0:0:0:
320,192,53706,128,0,53899:0:0:0:0:
448,192,53706,128,0,53899:0:0:0:0:
320,192,53995,128,0,54187:0:0:0:0:
448,192,53995,128,0,54187:0:0:0:0:
64,192,53995,128,0,54187:0:0:0:0:
64,192,54283,128,0,54860:0:0:0:0:
192,192,54283,128,0,54476:0:0:0:0:
320,192,54283,128,0,54668:0:0:0:0:
448,192,54283,128,0,54860:0:0:0:0:
192,192,54668,128,0,54956:0:0:0:0:
320,192,54860,128,0,54956:0:0:0:0:
64,192,55053,128,0,55245:0:0:0:0:
448,192,55053,128,0,55245:0:0:0:0:
320,192,55245,128,0,55533:0:0:0:0:
192,192,55341,128,0,55533:0:0:0:0:
64,192,55437,128,0,55630:0:0:0:0:
448,192,55533,128,0,55630:0:0:0:0:
320,192,55630,128,0,55918:0:0:0:0:
192,192,55726,128,0,55918:0:0:0:0:
64,192,55822,128,0,56014:0:0:0:0:
448,192,55918,128,0,56014:0:0:0:0:
192,192,56014,128,0,56110:0:0:0:0:
320,192,56014,128,0,56303:0:0:0:0:
192,192,56206,128,0,56303:0:0:0:0:
64,192,56206,128,0,56591:0:0:0:0:
448,192,56206,128,0,56495:0:0:0:0:
320,192,56399,128,0,56495:0:0:0:0:
192,192,56399,128,0,56880:0:0:0:0:
448,192,56591,128,0,56976:0:0:0:0:
320,192,56783,128,0,56880:0:0:0:0:
64,192,56783,128,0,57168:0:0:0:0:
320,192,56976,128,0,57168:0:0:0:0:
192,192,56976,128,0,57360:0:0:0:0:
448,192,57168,128,0,57360:0:0:0:0:
320,192,57360,128,0,57553:0:0:0:0:
64,192,57360,128,0,57553:0:0:0:0:
192,192,57553,128,0,57937:0:0:0:0:
448,192,57553,128,0,57745:0:0:0:0:
320,192,57745,128,0,57841:0:0:0:0:
64,192,57745,128,0,58130:0:0:0:0:
320,192,57937,128,0,58033:0:0:0:0:
448,192,57937,128,0,58322:0:0:0:0:
192,192,58130,128,0,58322:0:0:0:0:
320,192,58130,128,0,58226:0:0:0:0:
64,192,58322,128,0,58418:0:0:0:0:
320,192,58322,128,0,58706:0:0:0:0:
448,192,58514,128,0,58995:0:0:0:0:
192,192,58514,128,0,58610:0:0:0:0:
64,192,58514,128,0,58995:0:0:0:0:
192,192,58706,128,0,58803:0:0:0:0:
320,192,58899,128,0,58995:0:0:0:0:
192,192,58899,128,0,58995:0:0:0:0:
448,192,59091,128,0,59283:0:0:0:0:
64,192,59091,128,0,59476:0:0:0:0:
192,192,59283,128,0,59476:0:0:0:0:
320,192,59283,128,0,59764:0:0:0:0:
448,192,59476,128,0,59764:0:0:0:0:
64,192,59668,128,0,59764:0:0:0:0:
192,192,59668,128,0,60053:0:0:0:0:
448,192,59860,128,0,60053:0:0:0:0:
320,192,59860,128,0,60245:0:0:0:0:
64,192,60053,128,0,60437:0:0:0:0:
448,192,60245,128,0,60437:0:0:0:0:
192,192,60245,128,0,60341:0:0:0:0:
192,192,60437,128,0,60630:0:0:0:0:
320,192,60437,128,0,60630:0:0:0:0:
448,192,60630,1,0,0:0:0:0:
64,192,60630,1,0,0:0:0:0:
64,192,60822,128,0,61206:0:0:0:0:
448,192,60822,128,0,61206:0:0:0:0:
192,192,61014,128,0,61206:0:0:0:0:
320,192,61206,128,0,61399:0:0:0:0:
448,192,61399,128,0,61783:0:0:0:0:
192,192,61399,128,0,61783:0:0:0:0:
320,192,61591,1,0,0:0:0:0:
64,192,61591,1,0,0:0:0:0:
64,192,61783,128,0,61976:0:0:0:0:
320,192,61783,128,0,61976:0:0:0:0:
448,192,61976,128,0,62168:0:0:0:0:
192,192,61976,1,0,0:0:0:0:
64,192,62168,5,0,0:0:0:0:
192,192,62168,1,0,0:0:0:0:
320,192,62168,1,0,0:0:0:0:
448,192,62360,1,0,0:0:0:0:
320,192,62360,1,0,0:0:0:0:
192,192,62360,1,0,0:0:0:0:
64,192,62553,1,0,0:0:0:0:
192,192,62553,1,0,0:0:0:0:
448,192,62553,1,0,0:0:0:0:
320,192,62745,1,0,0:0:0:0:
192,192,62745,1,0,0:0:0:0:
448,192,62745,1,0,0:0:0:0:
64,192,62937,1,0,0:0:0:0:
192,192,62937,1,0,0:0:0:0:
448,192,62937,1,0,0:0:0:0:
320,192,63130,1,0,0:0:0:0:
192,192,63130,1,0,0:0:0:0:
64,192,63130,1,0,0:0:0:0:
448,192,63322,1,0,0:0:0:0:
320,192,63322,1,0,0:0:0:0:
64,192,63322,1,0,0:0:0:0:
64,192,63514,1,0,0:0:0:0:
192,192,63514,1,0,0:0:0:0:
320,192,63514,1,0,0:0:0:0:
448,192,63706,1,0,0:0:0:0:
320,192,63706,1,0,0:0:0:0:
64,192,63803,1,0,0:0:0:0:
192,192,63803,1,0,0:0:0:0:
448,192,63899,1,0,0:0:0:0:
320,192,63899,1,0,0:0:0:0:
64,192,63995,1,0,0:0:0:0:
192,192,63995,1,0,0:0:0:0:
448,192,64091,5,0,0:0:0:0:
320,192,64091,1,0,0:0:0:0:
64,192,64187,1,0,0:0:0:0:
192,192,64187,1,0,0:0:0:0:
448,192,64283,1,0,0:0:0:0:
320,192,64283,1,0,0:0:0:0:
64,192,64380,1,0,0:0:0:0:
192,192,64380,1,0,0:0:0:0:
448,192,64476,1,0,0:0:0:0:
320,192,64476,1,0,0:0:0:0:
320,192,64524,1,0,0:0:0:0:
448,192,64524,1,0,0:0:0:0:
192,192,64572,1,0,0:0:0:0:
64,192,64572,1,0,0:0:0:0:
448,192,64668,1,0,0:0:0:0:
320,192,64668,1,0,0:0:0:0:
64,192,64764,1,0,0:0:0:0:
192,192,64764,1,0,0:0:0:0:
448,192,64860,1,0,0:0:0:0:
320,192,64860,1,0,0:0:0:0:
64,192,64956,1,0,0:0:0:0:
192,192,64956,1,0,0:0:0:0:
448,192,65053,1,0,0:0:0:0:
320,192,65053,1,0,0:0:0:0:
64,192,65149,1,0,0:0:0:0:
192,192,65149,1,0,0:0:0:0:
320,192,65245,128,0,65822:0:0:0:0:
448,192,65245,1,0,0:0:0:0:
192,192,65309,1,0,0:0:0:0:
64,192,65373,1,0,0:0:0:0:
448,192,65437,1,0,0:0:0:0:
64,192,65501,1,0,0:0:0:0:
192,192,65565,1,0,0:0:0:0:
448,192,65630,1,0,0:0:0:0:
64,192,65630,1,0,0:0:0:0:
192,192,65694,1,0,0:0:0:0:
64,192,65758,1,0,0:0:0:0:
448,192,65822,128,0,66014:0:0:0:0:
192,192,65886,1,0,0:0:0:0:
320,192,65950,1,0,0:0:0:0:
64,192,66014,128,0,66591:0:0:0:0:
192,192,66014,1,0,0:0:0:0:
320,192,66078,1,0,0:0:0:0:
448,192,66142,1,0,0:0:0:0:
320,192,66206,1,0,0:0:0:0:
192,192,66271,1,0,0:0:0:0:
320,192,66335,1,0,0:0:0:0:
448,192,66399,1,0,0:0:0:0:
192,192,66399,1,0,0:0:0:0:
320,192,66463,1,0,0:0:0:0:
192,192,66527,1,0,0:0:0:0:
320,192,66591,128,0,66783:0:0:0:0:
448,192,66655,1,0,0:0:0:0:
192,192,66719,1,0,0:0:0:0:
448,192,66783,128,0,67360:0:0:0:0:
64,192,66783,1,0,0:0:0:0:
192,192,66847,1,0,0:0:0:0:
320,192,66912,1,0,0:0:0:0:
192,192,66976,1,0,0:0:0:0:
64,192,67040,1,0,0:0:0:0:
192,192,67104,1,0,0:0:0:0:
64,192,67168,1,0,0:0:0:0:
320,192,67168,1,0,0:0:0:0:
192,192,67232,1,0,0:0:0:0:
64,192,67296,1,0,0:0:0:0:
192,192,67360,128,0,67553:0:0:0:0:
320,192,67424,1,0,0:0:0:0:
448,192,67488,1,0,0:0:0:0:
64,192,67553,128,0,68322:0:0:0:0:
320,192,67553,1,0,0:0:0:0:
448,192,67617,1,0,0:0:0:0:
320,192,67681,1,0,0:0:0:0:
192,192,67745,1,0,0:0:0:0:
320,192,67809,1,0,0:0:0:0:
448,192,67873,1,0,0:0:0:0:
320,192,67937,1,0,0:0:0:0:
192,192,67937,1,0,0:0:0:0:
448,192,68001,1,0,0:0:0:0:
320,192,68065,1,0,0:0:0:0:
192,192,68130,1,0,0:0:0:0:
320,192,68194,1,0,0:0:0:0:
448,192,68258,1,0,0:0:0:0:
320,192,68322,128,0,69860:0:0:0:0:
192,192,68322,1,0,0:0:0:0:
64,192,68386,1,0,0:0:0:0:
192,192,68450,1,0,0:0:0:0:
448,192,68514,1,0,0:0:0:0:
192,192,68578,1,0,0:0:0:0:
64,192,68642,1,0,0:0:0:0:
192,192,68706,1,0,0:0:0:0:
448,192,68706,1,0,0:0:0:0:
64,192,68771,1,0,0:0:0:0:
192,192,68835,1,0,0:0:0:0:
448,192,68899,1,0,0:0:0:0:
64,192,68963,1,0,0:0:0:0:
192,192,69027,1,0,0:0:0:0:
448,192,69091,1,0,0:0:0:0:
64,192,69091,1,0,0:0:0:0:
192,192,69155,1,0,0:0:0:0:
64,192,69219,1,0,0:0:0:0:
192,192,69283,1,0,0:0:0:0:
64,192,69347,1,0,0:0:0:0:
192,192,69412,1,0,0:0:0:0:
448,192,69476,1,0,0:0:0:0:
64,192,69476,1,0,0:0:0:0:
192,192,69540,1,0,0:0:0:0:
448,192,69604,1,0,0:0:0:0:
192,192,69668,1,0,0:0:0:0:
64,192,69732,1,0,0:0:0:0:
448,192,69796,1,0,0:0:0:0:
64,192,69860,1,0,0:0:0:0:
192,192,69860,1,0,0:0:0:0:
448,192,69924,1,0,0:0:0:0:
320,192,69988,1,0,0:0:0:0:
64,192,70053,1,0,0:0:0:0:
448,192,70053,1,0,0:0:0:0:
192,192,70117,1,0,0:0:0:0:
64,192,70181,1,0,0:0:0:0:
192,192,70245,1,0,0:0:0:0:
448,192,70245,1,0,0:0:0:0:
320,192,70309,1,0,0:0:0:0:
448,192,70373,1,0,0:0:0:0:
64,192,70437,1,0,0:0:0:0:
320,192,70437,1,0,0:0:0:0:
192,192,70501,1,0,0:0:0:0:
320,192,70565,1,0,0:0:0:0:
64,192,70630,1,0,0:0:0:0:
192,192,70630,1,0,0:0:0:0:
448,192,70694,1,0,0:0:0:0:
320,192,70758,1,0,0:0:0:0:
192,192,70822,1,0,0:0:0:0:
64,192,70822,1,0,0:0:0:0:
320,192,70886,1,0,0:0:0:0:
448,192,70950,1,0,0:0:0:0:
320,192,71014,1,0,0:0:0:0:
192,192,71014,1,0,0:0:0:0:
64,192,71078,1,0,0:0:0:0:
192,192,71142,1,0,0:0:0:0:
448,192,71206,1,0,0:0:0:0:
320,192,71206,1,0,0:0:0:0:
192,192,71271,1,0,0:0:0:0:
64,192,71335,1,0,0:0:0:0:
448,192,71399,128,0,71976:0:0:0:0:
320,192,71399,1,0,0:0:0:0:
192,192,71399,1,0,0:0:0:0:
64,192,71463,1,0,0:0:0:0:
192,192,71527,1,0,0:0:0:0:
64,192,71591,1,0,0:0:0:0:
320,192,71655,1,0,0:0:0:0:
192,192,71719,1,0,0:0:0:0:
64,192,71783,1,0,0:0:0:0:
320,192,71783,1,0,0:0:0:0:
192,192,71847,1,0,0:0:0:0:
320,192,71912,1,0,0:0:0:0:
64,192,71976,128,0,72168:0:0:0:0:
192,192,72040,1,0,0:0:0:0:
448,192,72104,1,0,0:0:0:0:
320,192,72168,128,0,72745:0:0:0:0:
192,192,72168,1,0,0:0:0:0:
64,192,72232,1,0,0:0:0:0:
192,192,72296,1,0,0:0:0:0:
448,192,72360,1,0,0:0:0:0:
192,192,72424,1,0,0:0:0:0:
64,192,72488,1,0,0:0:0:0:
192,192,72553,1,0,0:0:0:0:
448,192,72553,1,0,0:0:0:0:
64,192,72617,1,0,0:0:0:0:
448,192,72681,1,0,0:0:0:0:
192,192,72745,128,0,72937:0:0:0:0:
64,192,72809,1,0,0:0:0:0:
320,192,72873,1,0,0:0:0:0:
448,192,72937,128,0,73514:0:0:0:0:
64,192,72937,1,0,0:0:0:0:
320,192,73001,1,0,0:0:0:0:
192,192,73065,1,0,0:0:0:0:
64,192,73130,1,0,0:0:0:0:
320,192,73194,1,0,0:0:0:0:
192,192,73258,1,0,0:0:0:0:
64,192,73322,1,0,0:0:0:0:
320,192,73322,1,0,0:0:0:0:
192,192,73386,1,0,0:0:0:0:
320,192,73450,1,0,0:0:0:0:
64,192,73514,128,0,73899:0:0:0:0:
192,192,73578,1,0,0:0:0:0:
320,192,73642,1,0,0:0:0:0:
448,192,73706,1,0,0:0:0:0:
192,192,73706,1,0,0:0:0:0:
320,192,73771,1,0,0:0:0:0:
192,192,73835,1,0,0:0:0:0:
320,192,73899,128,0,74091:0:0:0:0:
448,192,73963,1,0,0:0:0:0:
64,192,74027,1,0,0:0:0:0:
192,192,74091,128,0,74476:0:0:0:0:
448,192,74091,1,0,0:0:0:0:
320,192,74155,1,0,0:0:0:0:
64,192,74219,1,0,0:0:0:0:
448,192,74283,1,0,0:0:0:0:
320,192,74347,1,0,0:0:0:0:
64,192,74412,1,0,0:0:0:0:
448,192,74476,128,0,76014:0:0:0:0:
320,192,74476,1,0,0:0:0:0:
192,192,74540,1,0,0:0:0:0:
64,192,74604,1,0,0:0:0:0:
192,192,74668,1,0,0:0:0:0:
320,192,74732,1,0,0:0:0:0:
192,192,74796,1,0,0:0:0:0:
64,192,74860,1,0,0:0:0:0:
320,192,74860,1,0,0:0:0:0:
192,192,74924,1,0,0:0:0:0:
64,192,74988,1,0,0:0:0:0:
192,192,75053,1,0,0:0:0:0:
320,192,75117,1,0,0:0:0:0:
192,192,75181,1,0,0:0:0:0:
320,192,75245,1,0,0:0:0:0:
64,192,75245,1,0,0:0:0:0:
192,192,75309,1,0,0:0:0:0:
320,192,75373,1,0,0:0:0:0:
64,192,75437,1,0,0:0:0:0:
192,192,75501,1,0,0:0:0:0:
320,192,75565,1,0,0:0:0:0:
192,192,75630,1,0,0:0:0:0:
64,192,75630,1,0,0:0:0:0:
320,192,75694,1,0,0:0:0:0:
192,192,75758,1,0,0:0:0:0:
64,192,75822,1,0,0:0:0:0:
192,192,75886,1,0,0:0:0:0:
64,192,75950,1,0,0:0:0:0:
192,192,76014,1,0,0:0:0:0:
320,192,76014,1,0,0:0:0:0:
64,192,76078,1,0,0:0:0:0:
192,192,76142,1,0,0:0:0:0:
320,192,76206,1,0,0:0:0:0:
448,192,76206,1,0,0:0:0:0:
192,192,76271,1,0,0:0:0:0:
64,192,76335,1,0,0:0:0:0:
448,192,76399,1,0,0:0:0:0:
192,192,76399,1,0,0:0:0:0:
320,192,76463,1,0,0:0:0:0:
192,192,76527,1,0,0:0:0:0:
448,192,76591,1,0,0:0:0:0:
64,192,76591,1,0,0:0:0:0:
320,192,76655,1,0,0:0:0:0:
64,192,76719,1,0,0:0:0:0:
448,192,76783,1,0,0:0:0:0:
320,192,76783,1,0,0:0:0:0:
192,192,76847,1,0,0:0:0:0:
64,192,76912,1,0,0:0:0:0:
192,192,76976,1,0,0:0:0:0:
320,192,76976,1,0,0:0:0:0:
448,192,77040,1,0,0:0:0:0:
320,192,77104,1,0,0:0:0:0:
192,192,77168,1,0,0:0:0:0:
64,192,77168,1,0,0:0:0:0:
448,192,77232,1,0,0:0:0:0:
320,192,77296,1,0,0:0:0:0:
192,192,77360,1,0,0:0:0:0:
64,192,77360,1,0,0:0:0:0:
320,192,77424,1,0,0:0:0:0:
448,192,77488,1,0,0:0:0:0:
192,192,77553,128,0,78130:0:0:0:0:
320,192,77553,1,0,0:0:0:0:
64,192,77617,1,0,0:0:0:0:
320,192,77681,1,0,0:0:0:0:
448,192,77745,1,0,0:0:0:0:
320,192,77809,1,0,0:0:0:0:
64,192,77873,1,0,0:0:0:0:
320,192,77937,1,0,0:0:0:0:
448,192,77937,1,0,0:0:0:0:
64,192,78001,1,0,0:0:0:0:
320,192,78065,1,0,0:0:0:0:
448,192,78130,128,0,78322:0:0:0:0:
64,192,78194,1,0,0:0:0:0:
192,192,78258,1,0,0:0:0:0:
64,192,78322,128,0,78899:0:0:0:0:
320,192,78322,1,0,0:0:0:0:
448,192,78386,1,0,0:0:0:0:
320,192,78450,1,0,0:0:0:0:
192,192,78514,1,0,0:0:0:0:
320,192,78578,1,0,0:0:0:0:
448,192,78642,1,0,0:0:0:0:
320,192,78706,1,0,0:0:0:0:
192,192,78706,1,0,0:0:0:0:
448,192,78771,1,0,0:0:0:0:
192,192,78835,1,0,0:0:0:0:
320,192,78899,128,0,79091:0:0:0:0:
448,192,78963,1,0,0:0:0:0:
192,192,79027,1,0,0:0:0:0:
448,192,79091,128,0,79668:0:0:0:0:
64,192,79091,1,0,0:0:0:0:
192,192,79155,1,0,0:0:0:0:
320,192,79219,1,0,0:0:0:0:
64,192,79283,1,0,0:0:0:0:
192,192,79347,1,0,0:0:0:0:
320,192,79412,1,0,0:0:0:0:
64,192,79476,1,0,0:0:0:0:
192,192,79476,1,0,0:0:0:0:
320,192,79540,1,0,0:0:0:0:
192,192,79604,1,0,0:0:0:0:
320,192,79668,128,0,79860:0:0:0:0:
64,192,79732,1,0,0:0:0:0:
192,192,79796,1,0,0:0:0:0:
64,192,79860,128,0,80630:0:0:0:0:
448,192,79860,1,0,0:0:0:0:
320,192,79924,1,0,0:0:0:0:
192,192,79988,1,0,0:0:0:0:
448,192,80053,1,0,0:0:0:0:
320,192,80117,1,0,0:0:0:0:
192,192,80181,1,0,0:0:0:0:
320,192,80245,1,0,0:0:0:0:
448,192,80245,1,0,0:0:0:0:
192,192,80309,1,0,0:0:0:0:
320,192,80373,1,0,0:0:0:0:
448,192,80437,1,0,0:0:0:0:
192,192,80501,1,0,0:0:0:0:
448,192,80565,1,0,0:0:0:0:
320,192,80630,128,0,81976:0:0:0:0:
192,192,80630,1,0,0:0:0:0:
64,192,80694,1,0,0:0:0:0:
448,192,80758,1,0,0:0:0:0:
192,192,80822,1,0,0:0:0:0:
64,192,80886,1,0,0:0:0:0:
192,192,80950,1,0,0:0:0:0:
448,192,81014,1,0,0:0:0:0:
64,192,81014,1,0,0:0:0:0:
192,192,81078,1,0,0:0:0:0:
64,192,81142,1,0,0:0:0:0:
192,192,81206,1,0,0:0:0:0:
448,192,81271,1,0,0:0:0:0:
192,192,81335,1,0,0:0:0:0:
64,192,81399,1,0,0:0:0:0:
448,192,81399,1,0,0:0:0:0:
192,192,81463,1,0,0:0:0:0:
448,192,81527,1,0,0:0:0:0:
192,192,81591,1,0,0:0:0:0:
64,192,81655,1,0,0:0:0:0:
448,192,81719,1,0,0:0:0:0:
192,192,81783,1,0,0:0:0:0:
64,192,81783,1,0,0:0:0:0:
448,192,81847,1,0,0:0:0:0:
192,192,81912,1,0,0:0:0:0:
64,192,81976,1,0,0:0:0:0:
192,192,82040,1,0,0:0:0:0:
320,192,82104,1,0,0:0:0:0:
448,192,82168,1,0,0:0:0:0:
192,192,82168,1,0,0:0:0:0:
64,192,82232,1,0,0:0:0:0:
192,192,82296,1,0,0:0:0:0:
320,192,82360,1,0,0:0:0:0:
448,192,82360,1,0,0:0:0:0:
192,192,82424,1,0,0:0:0:0:
64,192,82488,1,0,0:0:0:0:
320,192,82553,1,0,0:0:0:0:
448,192,82553,1,0,0:0:0:0:
192,192,82617,1,0,0:0:0:0:
64,192,82681,1,0,0:0:0:0:
192,192,82745,1,0,0:0:0:0:
448,192,82745,1,0,0:0:0:0:
320,192,82809,1,0,0:0:0:0:
192,192,82873,1,0,0:0:0:0:
64,192,82937,1,0,0:0:0:0:
320,192,82937,1,0,0:0:0:0:
448,192,83001,1,0,0:0:0:0:
320,192,83065,1,0,0:0:0:0:
192,192,83130,1,0,0:0:0:0:
64,192,83130,1,0,0:0:0:0:
320,192,83194,1,0,0:0:0:0:
448,192,83258,1,0,0:0:0:0:
320,192,83322,1,0,0:0:0:0:
64,192,83322,1,0,0:0:0:0:
192,192,83386,1,0,0:0:0:0:
320,192,83450,1,0,0:0:0:0:
64,192,83514,1,0,0:0:0:0:
448,192,83514,1,0,0:0:0:0:
192,192,83578,1,0,0:0:0:0:
64,192,83642,1,0,0:0:0:0:
448,192,83706,128,0,84283:0:0:0:0:
320,192,83706,1,0,0:0:0:0:
192,192,83771,1,0,0:0:0:0:
64,192,83835,1,0,0:0:0:0:
192,192,83899,1,0,0:0:0:0:
320,192,83963,1,0,0:0:0:0:
192,192,84027,1,0,0:0:0:0:
64,192,84091,1,0,0:0:0:0:
320,192,84091,1,0,0:0:0:0:
192,192,84155,1,0,0:0:0:0:
320,192,84219,1,0,0:0:0:0:
192,192,84283,128,0,84476:0:0:0:0:
64,192,84347,1,0,0:0:0:0:
448,192,84412,1,0,0:0:0:0:
320,192,84476,128,0,85053:0:0:0:0:
64,192,84476,1,0,0:0:0:0:
192,192,84540,1,0,0:0:0:0:
448,192,84604,1,0,0:0:0:0:
64,192,84668,1,0,0:0:0:0:
192,192,84732,1,0,0:0:0:0:
448,192,84796,1,0,0:0:0:0:
64,192,84860,1,0,0:0:0:0:
192,192,84860,1,0,0:0:0:0:
448,192,84924,1,0,0:0:0:0:
192,192,84988,1,0,0:0:0:0:
64,192,85053,128,0,85245:0:0:0:0:
448,192,85117,1,0,0:0:0:0:
320,192,85181,1,0,0:0:0:0:
448,192,85245,128,0,85822:0:0:0:0:
192,192,85245,1,0,0:0:0:0:
320,192,85309,1,0,0:0:0:0:
192,192,85373,1,0,0:0:0:0:
64,192,85437,1,0,0:0:0:0:
192,192,85501,1,0,0:0:0:0:
320,192,85565,1,0,0:0:0:0:
192,192,85630,1,0,0:0:0:0:
64,192,85630,1,0,0:0:0:0:
320,192,85694,1,0,0:0:0:0:
64,192,85758,1,0,0:0:0:0:
192,192,85822,128,0,86206:0:0:0:0:
320,192,85822,1,0,0:0:0:0:
448,192,85886,1,0,0:0:0:0:
320,192,85950,1,0,0:0:0:0:
448,192,86014,1,0,0:0:0:0:
64,192,86014,1,0,0:0:0:0:
320,192,86078,1,0,0:0:0:0:
448,192,86142,1,0,0:0:0:0:
64,192,86206,128,0,86399:0:0:0:0:
320,192,86271,1,0,0:0:0:0:
192,192,86335,1,0,0:0:0:0:
448,192,86399,128,0,86783:0:0:0:0:
320,192,86399,1,0,0:0:0:0:
192,192,86463,1,0,0:0:0:0:
64,192,86527,1,0,0:0:0:0:
192,192,86591,1,0,0:0:0:0:
320,192,86655,1,0,0:0:0:0:
64,192,86719,1,0,0:0:0:0:
192,192,86783,128,0,88322:0:0:0:0:
320,192,86783,1,0,0:0:0:0:
448,192,86847,1,0,0:0:0:0:
320,192,86912,1,0,0:0:0:0:
64,192,86976,1,0,0:0:0:0:
448,192,87040,1,0,0:0:0:0:
320,192,87104,1,0,0:0:0:0:
64,192,87168,1,0,0:0:0:0:
448,192,87168,1,0,0:0:0:0:
320,192,87232,1,0,0:0:0:0:
448,192,87296,1,0,0:0:0:0:
320,192,87360,1,0,0:0:0:0:
64,192,87424,1,0,0:0:0:0:
320,192,87488,1,0,0:0:0:0:
448,192,87553,1,0,0:0:0:0:
64,192,87553,1,0,0:0:0:0:
320,192,87617,1,0,0:0:0:0:
64,192,87681,1,0,0:0:0:0:
448,192,87745,1,0,0:0:0:0:
320,192,87809,1,0,0:0:0:0:
64,192,87873,1,0,0:0:0:0:
320,192,87937,1,0,0:0:0:0:
448,192,87937,1,0,0:0:0:0:
64,192,88001,1,0,0:0:0:0:
320,192,88065,1,0,0:0:0:0:
448,192,88130,1,0,0:0:0:0:
320,192,88194,1,0,0:0:0:0:
64,192,88258,1,0,0:0:0:0:
448,192,88322,1,0,0:0:0:0:
320,192,88322,128,0,89283:0:0:0:0:
192,192,88386,1,0,0:0:0:0:
64,192,88450,1,0,0:0:0:0:
192,192,88514,1,0,0:0:0:0:
448,192,88514,1,0,0:0:0:0:
64,192,88578,1,0,0:0:0:0:
192,192,88642,1,0,0:0:0:0:
448,192,88706,1,0,0:0:0:0:
64,192,88706,1,0,0:0:0:0:
192,192,88771,1,0,0:0:0:0:
448,192,88835,1,0,0:0:0:0:
192,192,88899,1,0,0:0:0:0:
64,192,88899,1,0,0:0:0:0:
448,192,88963,1,0,0:0:0:0:
192,192,89027,1,0,0:0:0:0:
64,192,89091,1,0,0:0:0:0:
448,192,89091,1,0,0:0:0:0:
192,192,89155,1,0,0:0:0:0:
64,192,89219,1,0,0:0:0:0:
192,192,89283,1,0,0:0:0:0:
448,192,89283,1,0,0:0:0:0:
64,192,89347,1,0,0:0:0:0:
192,192,89412,1,0,0:0:0:0:
64,192,89476,1,0,0:0:0:0:
320,192,89476,1,0,0:0:0:0:
448,192,89476,1,0,0:0:0:0:
192,192,89524,1,0,0:0:0:0:
320,192,89572,1,0,0:0:0:0:
448,192,89620,1,0,0:0:0:0:
64,192,89668,1,0,0:0:0:0:
192,192,89668,1,0,0:0:0:0:
320,192,89668,1,0,0:0:0:0:
448,192,89716,1,0,0:0:0:0:
320,192,89764,1,0,0:0:0:0:
192,192,89812,1,0,0:0:0:0:
64,192,89860,1,0,0:0:0:0:
320,192,89860,1,0,0:0:0:0:
448,192,89860,1,0,0:0:0:0:
192,192,89924,1,0,0:0:0:0:
320,192,89988,1,0,0:0:0:0:
448,192,90053,1,0,0:0:0:0:
192,192,90053,1,0,0:0:0:0:
64,192,90053,1,0,0:0:0:0:
320,192,90117,1,0,0:0:0:0:
192,192,90181,1,0,0:0:0:0:
64,192,90245,1,0,0:0:0:0:
320,192,90245,1,0,0:0:0:0:
448,192,90245,1,0,0:0:0:0:
192,192,90309,1,0,0:0:0:0:
320,192,90373,1,0,0:0:0:0:
448,192,90437,1,0,0:0:0:0:
192,192,90437,1,0,0:0:0:0:
64,192,90437,1,0,0:0:0:0:
320,192,90501,1,0,0:0:0:0:
192,192,90565,1,0,0:0:0:0:
64,192,90630,1,0,0:0:0:0:
320,192,90630,1,0,0:0:0:0:
448,192,90630,1,0,0:0:0:0:
192,192,90694,1,0,0:0:0:0:
320,192,90758,1,0,0:0:0:0:
192,192,90822,1,0,0:0:0:0:
64,192,90822,1,0,0:0:0:0:
448,192,90822,1,0,0:0:0:0:
320,192,90886,1,0,0:0:0:0:
192,192,90950,1,0,0:0:0:0:
64,192,91014,1,0,0:0:0:0:
320,192,91014,1,0,0:0:0:0:
448,192,91014,1,0,0:0:0:0:
192,192,91078,1,0,0:0:0:0:
448,192,91142,1,0,0:0:0:0:
320,192,91206,1,0,0:0:0:0:
192,192,91206,1,0,0:0:0:0:
64,192,91206,1,0,0:0:0:0:
448,192,91271,1,0,0:0:0:0:
320,192,91335,1,0,0:0:0:0:
192,192,91399,1,0,0:0:0:0:
64,192,91399,1,0,0:0:0:0:
448,192,91399,1,0,0:0:0:0:
320,192,91463,1,0,0:0:0:0:
448,192,91527,1,0,0:0:0:0:
64,192,91591,1,0,0:0:0:0:
192,192,91591,1,0,0:0:0:0:
320,192,91591,1,0,0:0:0:0:
448,192,91655,1,0,0:0:0:0:
320,192,91719,1,0,0:0:0:0:
192,192,91783,1,0,0:0:0:0:
64,192,91783,1,0,0:0:0:0:
448,192,91783,1,0,0:0:0:0:
320,192,91847,1,0,0:0:0:0:
64,192,91912,1,0,0:0:0:0:
448,192,91976,1,0,0:0:0:0:
192,192,91976,1,0,0:0:0:0:
320,192,91976,1,0,0:0:0:0:
64,192,92040,1,0,0:0:0:0:
448,192,92104,1,0,0:0:0:0:
320,192,92168,1,0,0:0:0:0:
192,192,92168,1,0,0:0:0:0:
64,192,92168,1,0,0:0:0:0:
448,192,92232,1,0,0:0:0:0:
64,192,92296,1,0,0:0:0:0:
192,192,92360,1,0,0:0:0:0:
320,192,92360,1,0,0:0:0:0:
448,192,92360,1,0,0:0:0:0:
64,192,92424,1,0,0:0:0:0:
192,192,92488,1,0,0:0:0:0:
448,192,92553,1,0,0:0:0:0:
320,192,92553,1,0,0:0:0:0:
64,192,92553,1,0,0:0:0:0:
192,192,92617,1,0,0:0:0:0:
320,192,92681,1,0,0:0:0:0:
448,192,92745,1,0,0:0:0:0:
192,192,92745,1,0,0:0:0:0:
64,192,92745,1,0,0:0:0:0:
320,192,92809,1,0,0:0:0:0:
192,192,92873,1,0,0:0:0:0:
64,192,92937,1,0,0:0:0:0:
320,192,92937,1,0,0:0:0:0:
448,192,92937,1,0,0:0:0:0:
192,192,93001,1,0,0:0:0:0:
320,192,93065,1,0,0:0:0:0:
448,192,93130,1,0,0:0:0:0:
192,192,93130,1,0,0:0:0:0:
64,192,93130,1,0,0:0:0:0:
320,192,93194,1,0,0:0:0:0:
192,192,93258,1,0,0:0:0:0:
64,192,93322,1,0,0:0:0:0:
448,192,93322,1,0,0:0:0:0:
320,192,93322,1,0,0:0:0:0:
192,192,93386,1,0,0:0:0:0:
320,192,93450,1,0,0:0:0:0:
448,192,93514,1,0,0:0:0:0:
192,192,93514,1,0,0:0:0:0:
64,192,93514,1,0,0:0:0:0:
320,192,93578,1,0,0:0:0:0:
448,192,93642,1,0,0:0:0:0:
320,192,93706,1,0,0:0:0:0:
192,192,93706,1,0,0:0:0:0:
64,192,93706,1,0,0:0:0:0:
448,192,93771,1,0,0:0:0:0:
320,192,93835,1,0,0:0:0:0:
64,192,93899,1,0,0:0:0:0:
192,192,93899,1,0,0:0:0:0:
448,192,93899,1,0,0:0:0:0:
320,192,93963,1,0,0:0:0:0:
192,192,94027,1,0,0:0:0:0:
64,192,94091,1,0,0:0:0:0:
320,192,94091,1,0,0:0:0:0:
448,192,94091,1,0,0:0:0:0:
192,192,94155,1,0,0:0:0:0:
64,192,94219,1,0,0:0:0:0:
192,192,94283,1,0,0:0:0:0:
320,192,94283,1,0,0:0:0:0:
448,192,94283,1,0,0:0:0:0:
64,192,94347,1,0,0:0:0:0:
192,192,94412,1,0,0:0:0:0:
448,192,94476,1,0,0:0:0:0:
320,192,94476,1,0,0:0:0:0:
64,192,94476,1,0,0:0:0:0:
192,192,94540,1,0,0:0:0:0:
320,192,94604,1,0,0:0:0:0:
448,192,94668,1,0,0:0:0:0:
192,192,94668,1,0,0:0:0:0:
64,192,94668,1,0,0:0:0:0:
320,192,94732,1,0,0:0:0:0:
192,192,94796,1,0,0:0:0:0:
64,192,94860,1,0,0:0:0:0:
448,192,94860,1,0,0:0:0:0:
320,192,94860,1,0,0:0:0:0:
192,192,94924,1,0,0:0:0:0:
320,192,94988,1,0,0:0:0:0:
448,192,95053,1,0,0:0:0:0:
192,192,95053,1,0,0:0:0:0:
64,192,95053,1,0,0:0:0:0:
320,192,95117,1,0,0:0:0:0:
192,192,95181,1,0,0:0:0:0:
64,192,95245,1,0,0:0:0:0:
320,192,95245,1,0,0:0:0:0:
448,192,95245,1,0,0:0:0:0:
192,192,95309,1,0,0:0:0:0:
320,192,95373,1,0,0:0:0:0:
448,192,95437,1,0,0:0:0:0:
192,192,95437,1,0,0:0:0:0:
64,192,95437,1,0,0:0:0:0:
320,192,95501,1,0,0:0:0:0:
192,192,95565,1,0,0:0:0:0:
64,192,95630,1,0,0:0:0:0:
320,192,95630,1,0,0:0:0:0:
448,192,95630,1,0,0:0:0:0:
192,192,95694,1,0,0:0:0:0:
64,192,95758,1,0,0:0:0:0:
192,192,95822,1,0,0:0:0:0:
320,192,95822,1,0,0:0:0:0:
448,192,95822,1,0,0:0:0:0:
64,192,95886,1,0,0:0:0:0:
192,192,95950,1,0,0:0:0:0:
448,192,96014,1,0,0:0:0:0:
320,192,96014,1,0,0:0:0:0:
64,192,96014,1,0,0:0:0:0:
192,192,96078,1,0,0:0:0:0:
320,192,96142,1,0,0:0:0:0:
448,192,96206,1,0,0:0:0:0:
192,192,96206,1,0,0:0:0:0:
64,192,96206,1,0,0:0:0:0:
320,192,96271,1,0,0:0:0:0:
448,192,96335,1,0,0:0:0:0:
320,192,96399,1,0,0:0:0:0:
192,192,96399,1,0,0:0:0:0:
64,192,96399,1,0,0:0:0:0:
448,192,96463,1,0,0:0:0:0:
320,192,96527,1,0,0:0:0:0:
192,192,96591,1,0,0:0:0:0:
64,192,96591,1,0,0:0:0:0:
448,192,96591,1,0,0:0:0:0:
320,192,96655,1,0,0:0:0:0:
192,192,96719,1,0,0:0:0:0:
448,192,96783,1,0,0:0:0:0:
320,192,96783,1,0,0:0:0:0:
64,192,96783,1,0,0:0:0:0:
192,192,96847,1,0,0:0:0:0:
64,192,96912,1,0,0:0:0:0:
448,192,96976,1,0,0:0:0:0:
320,192,96976,1,0,0:0:0:0:
192,192,96976,1,0,0:0:0:0:
64,192,97040,1,0,0:0:0:0:
320,192,97104,1,0,0:0:0:0:
448,192,97168,1,0,0:0:0:0:
192,192,97168,1,0,0:0:0:0:
64,192,97168,1,0,0:0:0:0:
320,192,97232,1,0,0:0:0:0:
192,192,97296,1,0,0:0:0:0:
64,192,97360,1,0,0:0:0:0:
320,192,97360,1,0,0:0:0:0:
448,192,97360,1,0,0:0:0:0:
192,192,97424,1,0,0:0:0:0:
320,192,97488,1,0,0:0:0:0:
448,192,97553,1,0,0:0:0:0:
192,192,97553,1,0,0:0:0:0:
64,192,97553,1,0,0:0:0:0:
320,192,97617,1,0,0:0:0:0:
192,192,97681,1,0,0:0:0:0:
64,192,97745,1,0,0:0:0:0:
320,192,97745,1,0,0:0:0:0:
448,192,97745,1,0,0:0:0:0:
192,192,97809,1,0,0:0:0:0:
320,192,97873,1,0,0:0:0:0:
448,192,97937,1,0,0:0:0:0:
192,192,97937,1,0,0:0:0:0:
64,192,97937,1,0,0:0:0:0:
320,192,98001,1,0,0:0:0:0:
192,192,98065,1,0,0:0:0:0:
64,192,98130,1,0,0:0:0:0:
320,192,98130,1,0,0:0:0:0:
448,192,98130,1,0,0:0:0:0:
192,192,98194,1,0,0:0:0:0:
64,192,98258,1,0,0:0:0:0:
192,192,98322,1,0,0:0:0:0:
320,192,98322,1,0,0:0:0:0:
448,192,98322,1,0,0:0:0:0:
64,192,98386,1,0,0:0:0:0:
192,192,98450,1,0,0:0:0:0:
448,192,98514,1,0,0:0:0:0:
320,192,98514,1,0,0:0:0:0:
64,192,98514,1,0,0:0:0:0:
192,192,98578,1,0,0:0:0:0:
320,192,98642,1,0,0:0:0:0:
448,192,98706,1,0,0:0:0:0:
192,192,98706,1,0,0:0:0:0:
64,192,98706,1,0,0:0:0:0:
320,192,98771,1,0,0:0:0:0:
448,192,98835,1,0,0:0:0:0:
320,192,98899,1,0,0:0:0:0:
192,192,98899,1,0,0:0:0:0:
64,192,98899,1,0,0:0:0:0:
448,192,98963,1,0,0:0:0:0:
320,192,99027,1,0,0:0:0:0:
192,192,99091,1,0,0:0:0:0:
64,192,99091,1,0,0:0:0:0:
448,192,99091,1,0,0:0:0:0:
320,192,99155,1,0,0:0:0:0:
192,192,99219,1,0,0:0:0:0:
64,192,99283,1,0,0:0:0:0:
320,192,99283,1,0,0:0:0:0:
448,192,99283,1,0,0:0:0:0:
192,192,99347,1,0,0:0:0:0:
320,192,99412,1,0,0:0:0:0:
448,192,99476,5,0,0:0:0:0:
64,192,99476,1,0,0:0:0:0:
192,192,99476,1,0,0:0:0:0:
320,192,99540,1,0,0:0:0:0:
192,192,99604,1,0,0:0:0:0:
64,192,99668,1,0,0:0:0:0:
320,192,99668,1,0,0:0:0:0:
448,192,99668,1,0,0:0:0:0:
192,192,99732,1,0,0:0:0:0:
320,192,99796,1,0,0:0:0:0:
448,192,99860,1,0,0:0:0:0:
192,192,99860,1,0,0:0:0:0:
64,192,99860,1,0,0:0:0:0:
320,192,99924,1,0,0:0:0:0:
448,192,99988,1,0,0:0:0:0:
320,192,100053,1,0,0:0:0:0:
192,192,100053,1,0,0:0:0:0:
64,192,100053,1,0,0:0:0:0:
448,192,100117,1,0,0:0:0:0:
320,192,100181,1,0,0:0:0:0:
192,192,100245,1,0,0:0:0:0:
64,192,100245,1,0,0:0:0:0:
448,192,100245,1,0,0:0:0:0:
320,192,100309,1,0,0:0:0:0:
192,192,100373,1,0,0:0:0:0:
64,192,100437,1,0,0:0:0:0:
320,192,100437,1,0,0:0:0:0:
448,192,100437,1,0,0:0:0:0:
192,192,100501,1,0,0:0:0:0:
320,192,100565,1,0,0:0:0:0:
64,192,100630,128,0,100694:0:0:0:0:
192,192,100630,128,0,100694:0:0:0:0:
448,192,100694,128,0,100758:0:0:0:0:
320,192,100758,128,0,100822:0:0:0:0:
192,192,100822,128,0,100886:0:0:0:0:
64,192,100822,128,0,100886:0:0:0:0:
448,192,100886,128,0,100950:0:0:0:0:
64,192,100950,128,0,101014:0:0:0:0:
192,192,101014,128,0,101078:0:0:0:0:
448,192,101014,128,0,101078:0:0:0:0:
320,192,101078,128,0,101142:0:0:0:0:
448,192,101142,128,0,101206:0:0:0:0:
192,192,101206,128,0,101271:0:0:0:0:
64,192,101206,128,0,101271:0:0:0:0:
320,192,101271,128,0,101335:0:0:0:0:
448,192,101335,128,0,101399:0:0:0:0:
64,192,101399,128,0,101463:0:0:0:0:
320,192,101399,128,0,101463:0:0:0:0:
192,192,101463,128,0,101527:0:0:0:0:
320,192,101527,128,0,101591:0:0:0:0:
64,192,101591,128,0,101655:0:0:0:0:
192,192,101591,128,0,101655:0:0:0:0:
448,192,101655,128,0,101719:0:0:0:0:
320,192,101719,128,0,101783:0:0:0:0:
192,192,101783,128,0,101847:0:0:0:0:
448,192,101783,128,0,101847:0:0:0:0:
64,192,101847,128,0,101912:0:0:0:0:
192,192,101912,128,0,101976:0:0:0:0:
320,192,101976,128,0,102040:0:0:0:0:
64,192,101976,128,0,102040:0:0:0:0:
448,192,102040,128,0,102104:0:0:0:0:
192,192,102104,128,0,102168:0:0:0:0:
448,192,102168,128,0,102745:0:0:0:0:
320,192,102168,128,0,102360:0:0:0:0:
64,192,102168,1,0,0:0:0:0:
192,192,102264,1,0,0:0:0:0:
64,192,102360,128,0,102553:0:0:0:0:
192,192,102360,1,0,0:0:0:0:
320,192,102456,1,0,0:0:0:0:
320,192,102553,128,0,102745:0:0:0:0:
192,192,102553,1,0,0:0:0:0:
64,192,102649,1,0,0:0:0:0:
64,192,102745,128,0,102809:0:0:0:0:
192,192,102809,128,0,102873:0:0:0:0:
320,192,102873,128,0,102937:0:0:0:0:
448,192,102937,128,0,103514:0:0:0:0:
64,192,102937,128,0,103130:0:0:0:0:
192,192,103033,1,0,0:0:0:0:
192,192,103130,128,0,103322:0:0:0:0:
320,192,103130,1,0,0:0:0:0:
64,192,103226,1,0,0:0:0:0:
320,192,103322,128,0,103514:0:0:0:0:
64,192,103322,1,0,0:0:0:0:
192,192,103418,1,0,0:0:0:0:
64,192,103514,128,0,103578:0:0:0:0:
192,192,103578,128,0,103642:0:0:0:0:
320,192,103642,128,0,103706:0:0:0:0:
448,192,103706,128,0,104283:0:0:0:0:
64,192,103706,128,0,103899:0:0:0:0:
192,192,103803,1,0,0:0:0:0:
192,192,103899,128,0,104091:0:0:0:0:
320,192,103899,1,0,0:0:0:0:
64,192,103995,1,0,0:0:0:0:
320,192,104091,128,0,104283:0:0:0:0:
64,192,104091,1,0,0:0:0:0:
192,192,104187,1,0,0:0:0:0:
192,192,104283,128,0,104347:0:0:0:0:
64,192,104347,128,0,104412:0:0:0:0:
192,192,104412,128,0,104476:0:0:0:0:
320,192,104476,128,0,105053:0:0:0:0:
448,192,104476,128,0,104668:0:0:0:0:
64,192,104572,1,0,0:0:0:0:
192,192,104668,128,0,104860:0:0:0:0:
64,192,104668,1,0,0:0:0:0:
448,192,104764,1,0,0:0:0:0:
64,192,104860,128,0,105053:0:0:0:0:
448,192,104860,1,0,0:0:0:0:
192,192,104956,1,0,0:0:0:0:
448,192,105053,1,0,0:0:0:0:
320,192,105149,1,0,0:0:0:0:
448,192,105245,128,0,106591:0:0:0:0:
64,192,105245,128,0,106591:0:0:0:0:
192,192,105245,1,0,0:0:0:0:
320,192,105309,1,0,0:0:0:0:
192,192,105373,1,0,0:0:0:0:
320,192,105437,1,0,0:0:0:0:
192,192,105501,1,0,0:0:0:0:
320,192,105565,1,0,0:0:0:0:
192,192,105630,1,0,0:0:0:0:
320,192,105694,1,0,0:0:0:0:
192,192,105758,1,0,0:0:0:0:
320,192,105822,1,0,0:0:0:0:
192,192,105886,1,0,0:0:0:0:
320,192,105950,1,0,0:0:0:0:
192,192,106014,1,0,0:0:0:0:
320,192,106078,1,0,0:0:0:0:
192,192,106142,1,0,0:0:0:0:
320,192,106206,1,0,0:0:0:0:
192,192,106271,1,0,0:0:0:0:
320,192,106335,1,0,0:0:0:0:
192,192,106399,1,0,0:0:0:0:
320,192,106463,1,0,0:0:0:0:
192,192,106527,1,0,0:0:0:0:
320,192,106591,1,0,0:0:0:0:
192,192,106687,1,0,0:0:0:0:
320,192,106783,1,0,0:0:0:0:
448,192,106783,1,0,0:0:0:0:
64,192,106783,1,0,0:0:0:0:
192,192,106880,1,0,0:0:0:0:
320,192,106976,128,0,107360:0:0:0:0:
64,192,106976,1,0,0:0:0:0:
448,192,107072,1,0,0:0:0:0:
64,192,107168,128,0,107553:0:0:0:0:
192,192,107168,1,0,0:0:0:0:
448,192,107264,1,0,0:0:0:0:
448,192,107360,128,0,107553:0:0:0:0:
192,192,107360,1,0,0:0:0:0:
320,192,107456,1,0,0:0:0:0:
320,192,107553,128,0,107937:0:0:0:0:
192,192,107553,1,0,0:0:0:0:
64,192,107649,1,0,0:0:0:0:
192,192,107745,128,0,107937:0:0:0:0:
448,192,107745,1,0,0:0:0:0:
64,192,107841,1,0,0:0:0:0:
448,192,107937,128,0,108130:0:0:0:0:
64,192,107937,1,0,0:0:0:0:
192,192,108033,1,0,0:0:0:0:
320,192,108130,1,0,0:0:0:0:
448,192,108226,1,0,0:0:0:0:
64,192,108322,128,0,108899:0:0:0:0:
192,192,108322,128,0,108514:0:0:0:0:
320,192,108322,1,0,0:0:0:0:
448,192,108418,1,0,0:0:0:0:
448,192,108514,128,0,108706:0:0:0:0:
320,192,108514,1,0,0:0:0:0:
192,192,108610,1,0,0:0:0:0:
320,192,108706,128,0,108899:0:0:0:0:
192,192,108706,1,0,0:0:0:0:
448,192,108803,1,0,0:0:0:0:
448,192,108899,128,0,108963:0:0:0:0:
320,192,108963,128,0,109027:0:0:0:0:
192,192,109027,128,0,109091:0:0:0:0:
64,192,109091,128,0,109668:0:0:0:0:
448,192,109091,128,0,109283:0:0:0:0:
320,192,109187,1,0,0:0:0:0:
320,192,109283,128,0,109476:0:0:0:0:
192,192,109283,1,0,0:0:0:0:
448,192,109380,1,0,0:0:0:0:
192,192,109476,128,0,109668:0:0:0:0:
448,192,109476,1,0,0:0:0:0:
320,192,109572,1,0,0:0:0:0:
448,192,109668,128,0,109732:0:0:0:0:
320,192,109732,128,0,109796:0:0:0:0:
192,192,109796,128,0,109860:0:0:0:0:
64,192,109860,128,0,110437:0:0:0:0:
448,192,109860,128,0,110053:0:0:0:0:
320,192,109956,1,0,0:0:0:0:
320,192,110053,128,0,110245:0:0:0:0:
192,192,110053,1,0,0:0:0:0:
448,192,110149,1,0,0:0:0:0:
192,192,110245,128,0,110437:0:0:0:0:
448,192,110245,1,0,0:0:0:0:
320,192,110341,1,0,0:0:0:0:
448,192,110437,128,0,110630:0:0:0:0:
320,192,110437,1,0,0:0:0:0:
64,192,110533,1,0,0:0:0:0:
192,192,110630,128,0,111206:0:0:0:0:
64,192,110630,128,0,110822:0:0:0:0:
320,192,110630,1,0,0:0:0:0:
448,192,110726,1,0,0:0:0:0:
320,192,110822,128,0,111014:0:0:0:0:
448,192,110918,1,0,0:0:0:0:
448,192,111014,128,0,111399:0:0:0:0:
64,192,111014,1,0,0:0:0:0:
320,192,111110,1,0,0:0:0:0:
64,192,111206,1,0,0:0:0:0:
320,192,111303,1,0,0:0:0:0:
64,192,111399,1,0,0:0:0:0:
192,192,111399,1,0,0:0:0:0:
320,192,111399,1,0,0:0:0:0:
448,192,111463,1,0,0:0:0:0:
320,192,111527,1,0,0:0:0:0:
192,192,111591,1,0,0:0:0:0:
64,192,111591,1,0,0:0:0:0:
448,192,111591,1,0,0:0:0:0:
320,192,111655,1,0,0:0:0:0:
192,192,111719,1,0,0:0:0:0:
64,192,111783,1,0,0:0:0:0:
320,192,111783,1,0,0:0:0:0:
448,192,111783,1,0,0:0:0:0:
192,192,111847,1,0,0:0:0:0:
320,192,111912,1,0,0:0:0:0:
448,192,111976,1,0,0:0:0:0:
192,192,111976,1,0,0:0:0:0:
64,192,111976,1,0,0:0:0:0:
320,192,112040,1,0,0:0:0:0:
192,192,112104,1,0,0:0:0:0:
448,192,112168,1,0,0:0:0:0:
320,192,112168,1,0,0:0:0:0:
64,192,112168,1,0,0:0:0:0:
192,192,112232,1,0,0:0:0:0:
64,192,112296,1,0,0:0:0:0:
192,192,112360,1,0,0:0:0:0:
320,192,112360,1,0,0:0:0:0:
448,192,112360,1,0,0:0:0:0:
64,192,112424,1,0,0:0:0:0:
192,192,112488,1,0,0:0:0:0:
448,192,112553,1,0,0:0:0:0:
320,192,112553,1,0,0:0:0:0:
64,192,112553,1,0,0:0:0:0:
192,192,112617,1,0,0:0:0:0:
320,192,112681,1,0,0:0:0:0:
448,192,112745,1,0,0:0:0:0:
192,192,112745,1,0,0:0:0:0:
64,192,112745,1,0,0:0:0:0:
320,192,112809,1,0,0:0:0:0:
448,192,112873,1,0,0:0:0:0:
320,192,112937,128,0,113001:0:0:0:0:
64,192,113001,128,0,113065:0:0:0:0:
448,192,113065,128,0,113130:0:0:0:0:
192,192,113130,128,0,113194:0:0:0:0:
448,192,113194,128,0,113258:0:0:0:0:
64,192,113258,128,0,113322:0:0:0:0:
320,192,113322,128,0,113386:0:0:0:0:
192,192,113386,128,0,113450:0:0:0:0:
448,192,113450,128,0,113514:0:0:0:0:
64,192,113514,128,0,113578:0:0:0:0:
320,192,113578,128,0,113642:0:0:0:0:
192,192,113642,128,0,113706:0:0:0:0:
448,192,113706,128,0,113771:0:0:0:0:
64,192,113771,128,0,113835:0:0:0:0:
320,192,113835,128,0,113899:0:0:0:0:
448,192,113899,128,0,113963:0:0:0:0:
192,192,113963,128,0,114027:0:0:0:0:
64,192,114027,128,0,114091:0:0:0:0:
320,192,114091,128,0,114155:0:0:0:0:
64,192,114155,128,0,114219:0:0:0:0:
448,192,114219,128,0,114283:0:0:0:0:
192,192,114283,128,0,114347:0:0:0:0:
64,192,114347,128,0,114412:0:0:0:0:
448,192,114412,128,0,114476:0:0:0:0:
320,192,114476,1,0,0:0:0:0:
192,192,114476,1,0,0:0:0:0:
64,192,114476,1,0,0:0:0:0:
64,192,115053,1,0,0:0:0:0:
448,192,115245,1,0,0:0:0:0:
192,192,115822,1,0,0:0:0:0:
320,192,116014,1,0,0:0:0:0:
64,192,116591,1,0,0:0:0:0:
448,192,116783,1,0,0:0:0:0:
448,192,117553,128,0,118706:0:0:0:0:
320,192,119283,1,0,0:0:0:0:
192,192,119476,1,0,0:0:0:0:
64,192,119668,1,0,0:0:0:0:
192,192,119860,1,0,0:0:0:0:
320,192,120053,1,0,0:0:0:0:
448,192,120245,1,0,0:0:0:0:
192,192,120630,1,0,0:0:0:0:
448,192,121206,1,0,0:0:0:0:
64,192,121399,1,0,0:0:0:0:
320,192,121976,1,0,0:0:0:0:
192,192,122168,1,0,0:0:0:0:
320,192,122745,1,0,0:0:0:0:
448,192,123130,1,0,0:0:0:0:
320,192,123322,1,0,0:0:0:0:
64,192,123706,128,0,124668:0:0:0:0:
192,192,124668,1,0,0:0:0:0:
320,192,124860,1,0,0:0:0:0:
448,192,125053,1,0,0:0:0:0:
192,192,125245,128,0,126014:0:0:0:0:
64,192,126014,1,0,0:0:0:0:
192,192,126206,1,0,0:0:0:0:
320,192,126399,1,0,0:0:0:0:
448,192,126591,1,0,0:0:0:0:
64,192,126783,128,0,126976:0:0:0:0:
192,192,126976,128,0,127168:0:0:0:0:
64,192,127168,128,0,127360:0:0:0:0:
320,192,127360,128,0,127553:0:0:0:0:
448,192,127553,128,0,127745:0:0:0:0:
320,192,127745,128,0,127937:0:0:0:0:
64,192,127937,128,0,128130:0:0:0:0:
192,192,128130,128,0,128322:0:0:0:0:
448,192,128322,128,0,128706:0:0:0:0:
320,192,128514,128,0,128706:0:0:0:0:
64,192,128706,128,0,129091:0:0:0:0:
192,192,128899,128,0,129091:0:0:0:0:
448,192,129091,128,0,129283:0:0:0:0:
320,192,129283,128,0,129476:0:0:0:0:
64,192,129476,128,0,129860:0:0:0:0:
192,192,129668,128,0,129860:0:0:0:0:
320,192,129860,128,0,130245:0:0:0:0:
448,192,130053,128,0,130245:0:0:0:0:
192,192,130245,128,0,130437:0:0:0:0:
64,192,130437,128,0,130630:0:0:0:0:
448,192,130630,128,0,131014:0:0:0:0:
192,192,130822,128,0,131014:0:0:0:0:
320,192,131014,128,0,131399:0:0:0:0:
64,192,131206,128,0,131399:0:0:0:0:
448,192,131399,128,0,131976:0:0:0:0:
320,192,131591,128,0,131976:0:0:0:0:
192,192,131783,128,0,131976:0:0:0:0:
64,192,131976,128,0,132168:0:0:0:0:
320,192,132168,128,0,132745:0:0:0:0:
448,192,132360,128,0,132745:0:0:0:0:
64,192,132553,128,0,132745:0:0:0:0:
192,192,132745,128,0,132937:0:0:0:0:
64,192,132937,128,0,133322:0:0:0:0:
192,192,133130,128,0,133322:0:0:0:0:
448,192,133322,128,0,133706:0:0:0:0:
320,192,133514,128,0,133706:0:0:0:0:
192,192,133706,128,0,134091:0:0:0:0:
64,192,133899,128,0,134091:0:0:0:0:
448,192,134091,128,0,134476:0:0:0:0:
320,192,134283,128,0,134476:0:0:0:0:
64,192,134668,128,0,135053:0:0:0:0:
192,192,134860,128,0,135245:0:0:0:0:
320,192,135053,128,0,135533:0:0:0:0:
448,192,135245,128,0,136014:0:0:0:0:
192,192,135533,128,0,136014:0:0:0:0:
64,192,135822,128,0,136014:0:0:0:0:
64,192,136206,128,0,136591:0:0:0:0:
192,192,136399,128,0,136591:0:0:0:0:
448,192,136591,128,0,136783:0:0:0:0:
320,192,136783,128,0,137360:0:0:0:0:
192,192,137072,128,0,137360:0:0:0:0:
448,192,137360,128,0,137745:0:0:0:0:
64,192,137745,128,0,138130:0:0:0:0:
320,192,137937,128,0,138322:0:0:0:0:
448,192,138130,128,0,138322:0:0:0:0:
64,192,138322,128,0,138995:0:0:0:0:
192,192,138514,128,0,138995:0:0:0:0:
320,192,138706,128,0,138995:0:0:0:0:
448,192,138899,128,0,138995:0:0:0:0:
448,192,139091,128,0,139956:0:0:0:0:
64,192,139091,128,0,139380:0:0:0:0:
192,192,139283,128,0,139572:0:0:0:0:
320,192,139283,128,0,139572:0:0:0:0:
64,192,139476,128,0,139572:0:0:0:0:
192,192,139668,128,0,139956:0:0:0:0:
320,192,139860,128,0,139956:0:0:0:0:
64,192,139860,128,0,140630:0:0:0:0:
320,192,140053,128,0,140341:0:0:0:0:
448,192,140053,128,0,140341:0:0:0:0:
192,192,140245,128,0,140341:0:0:0:0:
192,192,140437,128,0,140630:0:0:0:0:
448,192,140630,128,0,141495:0:0:0:0:
320,192,140630,128,0,141110:0:0:0:0:
64,192,140822,128,0,141110:0:0:0:0:
192,192,141014,128,0,141110:0:0:0:0:
64,192,141206,128,0,141495:0:0:0:0:
192,192,141399,128,0,141495:0:0:0:0:
320,192,141399,128,0,142264:0:0:0:0:
448,192,141591,128,0,141880:0:0:0:0:
64,192,141591,128,0,141783:0:0:0:0:
192,192,141783,128,0,142072:0:0:0:0:
448,192,141976,128,0,142072:0:0:0:0:
64,192,141976,128,0,142264:0:0:0:0:
192,192,142168,128,0,142360:0:0:0:0:
448,192,142168,128,0,143033:0:0:0:0:
320,192,142360,128,0,142649:0:0:0:0:
64,192,142360,128,0,142649:0:0:0:0:
192,192,142553,128,0,142649:0:0:0:0:
64,192,142745,128,0,143033:0:0:0:0:
192,192,142937,128,0,143033:0:0:0:0:
320,192,142937,128,0,143803:0:0:0:0:
448,192,143130,128,0,143418:0:0:0:0:
64,192,143130,128,0,143322:0:0:0:0:
192,192,143322,128,0,143610:0:0:0:0:
64,192,143514,128,0,143610:0:0:0:0:
448,192,143514,128,0,143803:0:0:0:0:
192,192,143706,128,0,143803:0:0:0:0:
64,192,143706,128,0,143995:0:0:0:0:
192,192,143899,128,0,143995:0:0:0:0:
320,192,143899,128,0,144187:0:0:0:0:
448,192,144091,128,0,144187:0:0:0:0:
64,192,144091,128,0,144380:0:0:0:0:
192,192,144283,128,0,144476:0:0:0:0:
448,192,144283,128,0,144380:0:0:0:0:
320,192,144476,128,0,144668:0:0:0:0:
448,192,144572,128,0,144668:0:0:0:0:
192,192,144668,128,0,144860:0:0:0:0:
64,192,144764,128,0,145149:0:0:0:0:
448,192,144860,128,0,145149:0:0:0:0:
320,192,144956,128,0,145149:0:0:0:0:
192,192,145053,128,0,145149:0:0:0:0:
192,192,145245,128,0,145726:0:0:0:0:
448,192,145245,128,0,145341:0:0:0:0:
64,192,145437,128,0,145726:0:0:0:0:
320,192,145630,128,0,145726:0:0:0:0:
448,192,145630,128,0,146110:0:0:0:0:
192,192,145822,128,0,146110:0:0:0:0:
64,192,145822,128,0,145918:0:0:0:0:
320,192,146014,128,0,146591:0:0:0:0:
64,192,146206,128,0,146591:0:0:0:0:
448,192,146206,128,0,146303:0:0:0:0:
448,192,146399,128,0,146783:0:0:0:0:
192,192,146591,128,0,146783:0:0:0:0:
320,192,146783,128,0,147264:0:0:0:0:
64,192,146783,128,0,146976:0:0:0:0:
448,192,146976,128,0,147072:0:0:0:0:
192,192,146976,128,0,147264:0:0:0:0:
64,192,147168,128,0,147264:0:0:0:0:
448,192,147168,128,0,147649:0:0:0:0:
320,192,147360,128,0,147649:0:0:0:0:
192,192,147553,128,0,147649:0:0:0:0:
64,192,147553,128,0,148033:0:0:0:0:
192,192,147745,128,0,148033:0:0:0:0:
320,192,147937,128,0,148226:0:0:0:0:
448,192,147937,128,0,148322:0:0:0:0:
64,192,148130,128,0,148226:0:0:0:0:
192,192,148130,128,0,148226:0:0:0:0:
192,192,148322,128,0,148610:0:0:0:0:
320,192,148514,128,0,148610:0:0:0:0:
448,192,148514,128,0,148803:0:0:0:0:
64,192,148706,128,0,148995:0:0:0:0:
320,192,148706,128,0,148995:0:0:0:0:
192,192,148899,128,0,148995:0:0:0:0:
448,192,149091,128,0,149380:0:0:0:0:
320,192,149283,128,0,149380:0:0:0:0:
64,192,149283,128,0,149572:0:0:0:0:
192,192,149476,128,0,149572:0:0:0:0:
448,192,149476,128,0,149764:0:0:0:0:
320,192,149668,128,0,149764:0:0:0:0:
64,192,149668,128,0,150053:0:0:0:0:
192,192,149860,128,0,150053:0:0:0:0:
320,192,149860,128,0,150245:0:0:0:0:
448,192,150053,128,0,150437:0:0:0:0:
64,192,150245,128,0,150341:0:0:0:0:
192,192,150245,128,0,150437:0:0:0:0:
320,192,150437,128,0,150533:0:0:0:0:
64,192,150437,128,0,150822:0:0:0:0:
448,192,150533,128,0,150630:0:0:0:0:
192,192,150630,128,0,150822:0:0:0:0:
448,192,150726,128,0,150822:0:0:0:0:
320,192,150822,128,0,151303:0:0:0:0:
64,192,150918,128,0,151014:0:0:0:0:
192,192,151014,128,0,151303:0:0:0:0:
448,192,151110,128,0,151206:0:0:0:0:
64,192,151206,128,0,151303:0:0:0:0:
448,192,151303,128,0,151399:0:0:0:0:
64,192,151399,128,0,151687:0:0:0:0:
192,192,151399,128,0,151591:0:0:0:0:
320,192,151591,128,0,151687:0:0:0:0:
448,192,151591,128,0,151783:0:0:0:0:
192,192,151783,128,0,152072:0:0:0:0:
320,192,151783,128,0,151976:0:0:0:0:
448,192,151976,128,0,152168:0:0:0:0:
64,192,151976,128,0,152072:0:0:0:0:
320,192,152168,128,0,152649:0:0:0:0:
192,192,152168,128,0,152360:0:0:0:0:
64,192,152168,128,0,152649:0:0:0:0:
448,192,152360,128,0,152649:0:0:0:0:
192,192,152553,128,0,152841:0:0:0:0:
448,192,152745,128,0,152841:0:0:0:0:
320,192,152745,128,0,152841:0:0:0:0:
64,192,152937,128,0,153418:0:0:0:0:
192,192,153130,128,0,153322:0:0:0:0:
320,192,153130,128,0,153610:0:0:0:0:
448,192,153322,128,0,153610:0:0:0:0:
192,192,153514,128,0,153610:0:0:0:0:
64,192,153514,128,0,153610:0:0:0:0:
448,192,153706,128,0,154187:0:0:0:0:
64,192,153706,128,0,154187:0:0:0:0:
192,192,153995,128,0,154187:0:0:0:0:
320,192,153995,128,0,154187:0:0:0:0:
320,192,154283,128,0,154476:0:0:0:0:
192,192,154283,128,0,154476:0:0:0:0:
448,192,154476,128,0,154956:0:0:0:0:
320,192,154668,128,0,154860:0:0:0:0:
64,192,154668,128,0,155149:0:0:0:0:
192,192,154860,128,0,155149:0:0:0:0:
320,192,155053,128,0,155149:0:0:0:0:
448,192,155053,128,0,155149:0:0:0:0:
320,192,155245,128,0,155726:0:0:0:0:
64,192,155245,128,0,155726:0:0:0:0:
192,192,155533,128,0,155726:0:0:0:0:
448,192,155533,128,0,155726:0:0:0:0:
320,192,155822,128,0,156014:0:0:0:0:
192,192,155822,128,0,156014:0:0:0:0:
448,192,155822,128,0,156495:0:0:0:0:
64,192,155822,128,0,156206:0:0:0:0:
192,192,156206,128,0,156495:0:0:0:0:
320,192,156399,128,0,156495:0:0:0:0:
64,192,156399,128,0,156783:0:0:0:0:
448,192,156591,128,0,156783:0:0:0:0:
192,192,156591,128,0,156783:0:0:0:0:
320,192,156783,128,0,157072:0:0:0:0:
192,192,156880,128,0,156976:0:0:0:0:
448,192,156976,128,0,157168:0:0:0:0:
192,192,157072,128,0,157264:0:0:0:0:
64,192,157168,128,0,157456:0:0:0:0:
320,192,157264,128,0,157360:0:0:0:0:
448,192,157360,128,0,157456:0:0:0:0:
192,192,157456,128,0,157553:0:0:0:0:
320,192,157553,128,0,157841:0:0:0:0:
448,192,157553,128,0,157649:0:0:0:0:
64,192,157553,128,0,157841:0:0:0:0:
192,192,157745,128,0,158033:0:0:0:0:
448,192,157745,128,0,158130:0:0:0:0:
320,192,157937,128,0,158033:0:0:0:0:
64,192,157937,128,0,158418:0:0:0:0:
192,192,158130,128,0,158418:0:0:0:0:
448,192,158322,128,0,158514:0:0:0:0:
320,192,158322,128,0,158803:0:0:0:0:
64,192,158514,128,0,158803:0:0:0:0:
192,192,158514,128,0,158899:0:0:0:0:
448,192,158706,128,0,159091:0:0:0:0:
320,192,158899,128,0,159091:0:0:0:0:
64,192,159091,128,0,159283:0:0:0:0:
192,192,159091,128,0,159476:0:0:0:0:
448,192,159283,128,0,159572:0:0:0:0:
320,192,159283,128,0,159764:0:0:0:0:
64,192,159476,128,0,159860:0:0:0:0:
448,192,159668,128,0,159764:0:0:0:0:
192,192,159668,128,0,159860:0:0:0:0:
448,192,159860,128,0,160149:0:0:0:0:
320,192,159860,128,0,160149:0:0:0:0:
192,192,160053,128,0,160149:0:0:0:0:
64,192,160053,128,0,160533:0:0:0:0:
320,192,160245,128,0,160533:0:0:0:0:
448,192,160245,128,0,160533:0:0:0:0:
192,192,160437,128,0,160533:0:0:0:0:
448,192,160630,128,0,161014:0:0:0:0:
64,192,160630,128,0,160822:0:0:0:0:
320,192,160822,128,0,161014:0:0:0:0:
192,192,160822,128,0,161303:0:0:0:0:
64,192,161014,128,0,161303:0:0:0:0:
448,192,161206,128,0,161303:0:0:0:0:
320,192,161206,128,0,161687:0:0:0:0:
448,192,161399,128,0,161783:0:0:0:0:
192,192,161591,128,0,161687:0:0:0:0:
64,192,161591,128,0,161880:0:0:0:0:
192,192,161783,128,0,161880:0:0:0:0:
320,192,161783,128,0,162168:0:0:0:0:
448,192,161976,128,0,162168:0:0:0:0:
64,192,161976,128,0,162168:0:0:0:0:
192,192,162168,1,0,0:0:0:0:
64,192,162360,128,0,162745:0:0:0:0:
192,192,162360,128,0,162553:0:0:0:0:
448,192,162360,128,0,162745:0:0:0:0:
320,192,162553,128,0,162745:0:0:0:0:
192,192,162745,128,0,162937:0:0:0:0:
448,192,162937,128,0,163514:0:0:0:0:
320,192,162937,128,0,163130:0:0:0:0:
64,192,162937,128,0,163322:0:0:0:0:
192,192,163130,128,0,163322:0:0:0:0:
320,192,163322,128,0,163706:0:0:0:0:
64,192,163514,1,0,0:0:0:0:
192,192,163514,1,0,0:0:0:0:
448,192,163706,1,0,0:0:0:0:
192,192,163706,1,0,0:0:0:0:
64,192,163706,1,0,0:0:0:0:
192,192,163899,1,0,0:0:0:0:
320,192,163899,1,0,0:0:0:0:
448,192,163899,1,0,0:0:0:0:
64,192,164091,1,0,0:0:0:0:
192,192,164091,1,0,0:0:0:0:
448,192,164091,1,0,0:0:0:0:
448,192,164283,1,0,0:0:0:0:
320,192,164283,1,0,0:0:0:0:
64,192,164283,1,0,0:0:0:0:
192,192,164476,1,0,0:0:0:0:
320,192,164476,1,0,0:0:0:0:
448,192,164476,1,0,0:0:0:0:
64,192,164668,1,0,0:0:0:0:
192,192,164668,1,0,0:0:0:0:
448,192,164668,1,0,0:0:0:0:
448,192,164860,1,0,0:0:0:0:
320,192,164860,1,0,0:0:0:0:
192,192,164860,1,0,0:0:0:0:
64,192,165053,1,0,0:0:0:0:
192,192,165053,1,0,0:0:0:0:
320,192,165053,1,0,0:0:0:0:
448,192,165245,1,0,0:0:0:0:
320,192,165245,1,0,0:0:0:0:
192,192,165341,1,0,0:0:0:0:
64,192,165341,1,0,0:0:0:0:
320,192,165437,1,0,0:0:0:0:
448,192,165437,1,0,0:0:0:0:
192,192,165533,1,0,0:0:0:0:
64,192,165533,1,0,0:0:0:0:
320,192,165630,1,0,0:0:0:0:
448,192,165630,1,0,0:0:0:0:
192,192,165726,1,0,0:0:0:0:
64,192,165726,1,0,0:0:0:0:
320,192,165822,1,0,0:0:0:0:
448,192,165822,1,0,0:0:0:0:
192,192,165918,1,0,0:0:0:0:
64,192,165918,1,0,0:0:0:0:
320,192,166014,1,0,0:0:0:0:
448,192,166014,1,0,0:0:0:0:
448,192,166062,1,0,0:0:0:0:
320,192,166062,1,0,0:0:0:0:
192,192,166110,1,0,0:0:0:0:
64,192,166110,1,0,0:0:0:0:
448,192,166206,1,0,0:0:0:0:
320,192,166206,1,0,0:0:0:0:
192,192,166303,1,0,0:0:0:0:
64,192,166303,1,0,0:0:0:0:
320,192,166399,1,0,0:0:0:0:
448,192,166399,1,0,0:0:0:0:
192,192,166495,1,0,0:0:0:0:
64,192,166495,1,0,0:0:0:0:
320,192,166591,1,0,0:0:0:0:
448,192,166591,1,0,0:0:0:0:
192,192,166687,1,0,0:0:0:0:
64,192,166687,1,0,0:0:0:0:
448,192,166783,128,0,167360:0:0:0:0:
320,192,166783,1,0,0:0:0:0:
192,192,166847,1,0,0:0:0:0:
64,192,166912,1,0,0:0:0:0:
192,192,166976,1,0,0:0:0:0:
64,192,167040,1,0,0:0:0:0:
192,192,167104,1,0,0:0:0:0:
320,192,167168,1,0,0:0:0:0:
64,192,167168,1,0,0:0:0:0:
192,192,167232,1,0,0:0:0:0:
320,192,167296,1,0,0:0:0:0:
64,192,167360,128,0,167553:0:0:0:0:
192,192,167424,1,0,0:0:0:0:
320,192,167488,1,0,0:0:0:0:
192,192,167553,128,0,168130:0:0:0:0:
448,192,167553,1,0,0:0:0:0:
320,192,167617,1,0,0:0:0:0:
448,192,167681,1,0,0:0:0:0:
320,192,167745,1,0,0:0:0:0:
64,192,167809,1,0,0:0:0:0:
320,192,167873,1,0,0:0:0:0:
448,192,167937,1,0,0:0:0:0:
64,192,167937,1,0,0:0:0:0:
320,192,168001,1,0,0:0:0:0:
64,192,168065,1,0,0:0:0:0:
448,192,168130,128,0,168322:0:0:0:0:
320,192,168194,1,0,0:0:0:0:
192,192,168258,1,0,0:0:0:0:
64,192,168322,128,0,168899:0:0:0:0:
320,192,168322,1,0,0:0:0:0:
192,192,168386,1,0,0:0:0:0:
320,192,168450,1,0,0:0:0:0:
448,192,168514,1,0,0:0:0:0:
320,192,168578,1,0,0:0:0:0:
192,192,168642,1,0,0:0:0:0:
320,192,168706,1,0,0:0:0:0:
448,192,168706,1,0,0:0:0:0:
192,192,168771,1,0,0:0:0:0:
320,192,168835,1,0,0:0:0:0:
192,192,168899,128,0,169091:0:0:0:0:
448,192,168963,1,0,0:0:0:0:
320,192,169027,1,0,0:0:0:0:
448,192,169091,128,0,169860:0:0:0:0:
64,192,169091,1,0,0:0:0:0:
192,192,169155,1,0,0:0:0:0:
320,192,169219,1,0,0:0:0:0:
64,192,169283,1,0,0:0:0:0:
192,192,169347,1,0,0:0:0:0:
320,192,169412,1,0,0:0:0:0:
64,192,169476,1,0,0:0:0:0:
192,192,169476,1,0,0:0:0:0:
320,192,169540,1,0,0:0:0:0:
192,192,169604,1,0,0:0:0:0:
64,192,169668,1,0,0:0:0:0:
320,192,169732,1,0,0:0:0:0:
192,192,169796,1,0,0:0:0:0:
64,192,169860,128,0,171206:0:0:0:0:
320,192,169860,1,0,0:0:0:0:
192,192,169924,1,0,0:0:0:0:
320,192,169988,1,0,0:0:0:0:
448,192,170053,1,0,0:0:0:0:
192,192,170117,1,0,0:0:0:0:
320,192,170181,1,0,0:0:0:0:
448,192,170245,1,0,0:0:0:0:
192,192,170245,1,0,0:0:0:0:
320,192,170309,1,0,0:0:0:0:
448,192,170373,1,0,0:0:0:0:
320,192,170437,1,0,0:0:0:0:
192,192,170501,1,0,0:0:0:0:
320,192,170565,1,0,0:0:0:0:
448,192,170630,1,0,0:0:0:0:
192,192,170630,1,0,0:0:0:0:
320,192,170694,1,0,0:0:0:0:
448,192,170758,1,0,0:0:0:0:
320,192,170822,1,0,0:0:0:0:
192,192,170886,1,0,0:0:0:0:
320,192,170950,1,0,0:0:0:0:
448,192,171014,1,0,0:0:0:0:
192,192,171014,1,0,0:0:0:0:
320,192,171078,1,0,0:0:0:0:
192,192,171142,1,0,0:0:0:0:
320,192,171206,1,0,0:0:0:0:
448,192,171271,1,0,0:0:0:0:
320,192,171335,1,0,0:0:0:0:
192,192,171399,1,0,0:0:0:0:
64,192,171399,1,0,0:0:0:0:
448,192,171463,1,0,0:0:0:0:
320,192,171527,1,0,0:0:0:0:
448,192,171591,128,0,171783:0:0:0:0:
192,192,171591,1,0,0:0:0:0:
64,192,171655,1,0,0:0:0:0:
192,192,171719,1,0,0:0:0:0:
320,192,171783,128,0,171976:0:0:0:0:
64,192,171783,1,0,0:0:0:0:
192,192,171847,1,0,0:0:0:0:
448,192,171912,1,0,0:0:0:0:
192,192,171976,128,0,172168:0:0:0:0:
64,192,171976,1,0,0:0:0:0:
448,192,172040,1,0,0:0:0:0:
320,192,172104,1,0,0:0:0:0:
64,192,172168,128,0,172360:0:0:0:0:
448,192,172168,1,0,0:0:0:0:
320,192,172232,1,0,0:0:0:0:
192,192,172296,1,0,0:0:0:0:
448,192,172360,128,0,172553:0:0:0:0:
320,192,172360,1,0,0:0:0:0:
192,192,172424,1,0,0:0:0:0:
64,192,172488,1,0,0:0:0:0:
192,192,172553,128,0,172937:0:0:0:0:
320,192,172553,1,0,0:0:0:0:
448,192,172617,1,0,0:0:0:0:
320,192,172681,1,0,0:0:0:0:
448,192,172745,1,0,0:0:0:0:
320,192,172809,1,0,0:0:0:0:
448,192,172873,1,0,0:0:0:0:
64,192,172937,128,0,173514:0:0:0:0:
320,192,172937,1,0,0:0:0:0:
448,192,173001,1,0,0:0:0:0:
320,192,173065,1,0,0:0:0:0:
192,192,173130,1,0,0:0:0:0:
320,192,173194,1,0,0:0:0:0:
448,192,173258,1,0,0:0:0:0:
320,192,173322,1,0,0:0:0:0:
192,192,173322,1,0,0:0:0:0:
448,192,173386,1,0,0:0:0:0:
320,192,173450,1,0,0:0:0:0:
448,192,173514,128,0,173706:0:0:0:0:
192,192,173578,1,0,0:0:0:0:
64,192,173642,1,0,0:0:0:0:
320,192,173706,128,0,174283:0:0:0:0:
192,192,173706,1,0,0:0:0:0:
64,192,173771,1,0,0:0:0:0:
192,192,173835,1,0,0:0:0:0:
448,192,173899,1,0,0:0:0:0:
192,192,173963,1,0,0:0:0:0:
64,192,174027,1,0,0:0:0:0:
448,192,174091,1,0,0:0:0:0:
192,192,174091,1,0,0:0:0:0:
64,192,174155,1,0,0:0:0:0:
192,192,174219,1,0,0:0:0:0:
448,192,174283,128,0,174476:0:0:0:0:
320,192,174347,1,0,0:0:0:0:
64,192,174412,1,0,0:0:0:0:
192,192,174476,128,0,175053:0:0:0:0:
320,192,174476,1,0,0:0:0:0:
448,192,174540,1,0,0:0:0:0:
320,192,174604,1,0,0:0:0:0:
64,192,174668,1,0,0:0:0:0:
320,192,174732,1,0,0:0:0:0:
448,192,174796,1,0,0:0:0:0:
320,192,174860,1,0,0:0:0:0:
64,192,174860,1,0,0:0:0:0:
448,192,174924,1,0,0:0:0:0:
320,192,174988,1,0,0:0:0:0:
64,192,175053,128,0,175245:0:0:0:0:
448,192,175117,1,0,0:0:0:0:
320,192,175181,1,0,0:0:0:0:
192,192,175245,1,0,0:0:0:0:
448,192,175245,1,0,0:0:0:0:
320,192,175309,1,0,0:0:0:0:
64,192,175373,1,0,0:0:0:0:
320,192,175437,128,0,175630:0:0:0:0:
192,192,175501,1,0,0:0:0:0:
64,192,175565,1,0,0:0:0:0:
448,192,175630,128,0,176014:0:0:0:0:
192,192,175630,1,0,0:0:0:0:
64,192,175694,1,0,0:0:0:0:
192,192,175758,1,0,0:0:0:0:
320,192,175822,1,0,0:0:0:0:
64,192,175886,1,0,0:0:0:0:
320,192,175950,1,0,0:0:0:0:
192,192,176014,128,0,177360:0:0:0:0:
64,192,176014,1,0,0:0:0:0:
320,192,176078,1,0,0:0:0:0:
448,192,176142,1,0,0:0:0:0:
64,192,176206,1,0,0:0:0:0:
320,192,176271,1,0,0:0:0:0:
448,192,176335,1,0,0:0:0:0:
64,192,176399,1,0,0:0:0:0:
320,192,176399,1,0,0:0:0:0:
448,192,176463,1,0,0:0:0:0:
320,192,176527,1,0,0:0:0:0:
64,192,176591,1,0,0:0:0:0:
448,192,176655,1,0,0:0:0:0:
320,192,176719,1,0,0:0:0:0:
64,192,176783,1,0,0:0:0:0:
448,192,176783,1,0,0:0:0:0:
320,192,176847,1,0,0:0:0:0:
64,192,176912,1,0,0:0:0:0:
320,192,176976,1,0,0:0:0:0:
448,192,177040,1,0,0:0:0:0:
320,192,177104,1,0,0:0:0:0:
64,192,177168,1,0,0:0:0:0:
448,192,177168,1,0,0:0:0:0:
320,192,177232,1,0,0:0:0:0:
64,192,177296,1,0,0:0:0:0:
320,192,177360,1,0,0:0:0:0:
448,192,177424,1,0,0:0:0:0:
320,192,177488,1,0,0:0:0:0:
192,192,177553,1,0,0:0:0:0:
64,192,177553,1,0,0:0:0:0:
448,192,177553,1,0,0:0:0:0:
320,192,177617,1,0,0:0:0:0:
192,192,177681,1,0,0:0:0:0:
64,192,177745,1,0,0:0:0:0:
320,192,177745,1,0,0:0:0:0:
448,192,177745,1,0,0:0:0:0:
192,192,177809,1,0,0:0:0:0:
320,192,177873,1,0,0:0:0:0:
448,192,177937,1,0,0:0:0:0:
192,192,177937,1,0,0:0:0:0:
64,192,177937,1,0,0:0:0:0:
320,192,178001,1,0,0:0:0:0:
192,192,178065,1,0,0:0:0:0:
64,192,178130,1,0,0:0:0:0:
320,192,178130,1,0,0:0:0:0:
448,192,178130,1,0,0:0:0:0:
192,192,178194,1,0,0:0:0:0:
320,192,178258,1,0,0:0:0:0:
448,192,178322,1,0,0:0:0:0:
192,192,178322,1,0,0:0:0:0:
64,192,178322,1,0,0:0:0:0:
320,192,178386,1,0,0:0:0:0:
192,192,178450,1,0,0:0:0:0:
64,192,178514,1,0,0:0:0:0:
320,192,178514,1,0,0:0:0:0:
448,192,178514,1,0,0:0:0:0:
192,192,178578,1,0,0:0:0:0:
320,192,178642,1,0,0:0:0:0:
448,192,178706,1,0,0:0:0:0:
192,192,178706,1,0,0:0:0:0:
64,192,178706,1,0,0:0:0:0:
320,192,178771,1,0,0:0:0:0:
192,192,178835,1,0,0:0:0:0:
64,192,178899,1,0,0:0:0:0:
320,192,178899,1,0,0:0:0:0:
448,192,178899,1,0,0:0:0:0:
192,192,178963,1,0,0:0:0:0:
320,192,179027,1,0,0:0:0:0:
64,192,179091,128,0,179668:0:0:0:0:
448,192,179091,1,0,0:0:0:0:
320,192,179155,1,0,0:0:0:0:
192,192,179219,1,0,0:0:0:0:
320,192,179283,1,0,0:0:0:0:
448,192,179347,1,0,0:0:0:0:
320,192,179412,1,0,0:0:0:0:
192,192,179476,1,0,0:0:0:0:
448,192,179476,1,0,0:0:0:0:
320,192,179540,1,0,0:0:0:0:
448,192,179604,1,0,0:0:0:0:
320,192,179668,128,0,179860:0:0:0:0:
192,192,179732,1,0,0:0:0:0:
448,192,179796,1,0,0:0:0:0:
64,192,179860,128,0,180437:0:0:0:0:
192,192,179860,1,0,0:0:0:0:
320,192,179924,1,0,0:0:0:0:
448,192,179988,1,0,0:0:0:0:
320,192,180053,1,0,0:0:0:0:
192,192,180117,1,0,0:0:0:0:
320,192,180181,1,0,0:0:0:0:
448,192,180245,1,0,0:0:0:0:
192,192,180245,1,0,0:0:0:0:
320,192,180309,1,0,0:0:0:0:
192,192,180373,1,0,0:0:0:0:
448,192,180437,128,0,180630:0:0:0:0:
320,192,180501,1,0,0:0:0:0:
64,192,180565,1,0,0:0:0:0:
192,192,180630,128,0,181206:0:0:0:0:
320,192,180630,1,0,0:0:0:0:
448,192,180694,1,0,0:0:0:0:
320,192,180758,1,0,0:0:0:0:
64,192,180822,1,0,0:0:0:0:
448,192,180886,1,0,0:0:0:0:
320,192,180950,1,0,0:0:0:0:
64,192,181014,1,0,0:0:0:0:
448,192,181014,1,0,0:0:0:0:
320,192,181078,1,0,0:0:0:0:
64,192,181142,1,0,0:0:0:0:
320,192,181206,128,0,181399:0:0:0:0:
448,192,181271,1,0,0:0:0:0:
192,192,181335,1,0,0:0:0:0:
64,192,181399,128,0,182168:0:0:0:0:
448,192,181399,1,0,0:0:0:0:
320,192,181463,1,0,0:0:0:0:
192,192,181527,1,0,0:0:0:0:
448,192,181591,1,0,0:0:0:0:
320,192,181655,1,0,0:0:0:0:
192,192,181719,1,0,0:0:0:0:
320,192,181783,1,0,0:0:0:0:
448,192,181783,1,0,0:0:0:0:
192,192,181847,1,0,0:0:0:0:
320,192,181912,1,0,0:0:0:0:
448,192,181976,1,0,0:0:0:0:
192,192,182040,1,0,0:0:0:0:
320,192,182104,1,0,0:0:0:0:
448,192,182168,128,0,183514:0:0:0:0:
192,192,182168,1,0,0:0:0:0:
320,192,182232,1,0,0:0:0:0:
192,192,182296,1,0,0:0:0:0:
64,192,182360,1,0,0:0:0:0:
192,192,182424,1,0,0:0:0:0:
320,192,182488,1,0,0:0:0:0:
192,192,182553,1,0,0:0:0:0:
64,192,182553,1,0,0:0:0:0:
320,192,182617,1,0,0:0:0:0:
192,192,182681,1,0,0:0:0:0:
64,192,182745,1,0,0:0:0:0:
192,192,182809,1,0,0:0:0:0:
320,192,182873,1,0,0:0:0:0:
192,192,182937,1,0,0:0:0:0:
64,192,182937,1,0,0:0:0:0:
320,192,183001,1,0,0:0:0:0:
192,192,183065,1,0,0:0:0:0:
64,192,183130,1,0,0:0:0:0:
320,192,183194,1,0,0:0:0:0:
192,192,183258,1,0,0:0:0:0:
64,192,183322,1,0,0:0:0:0:
320,192,183322,1,0,0:0:0:0:
192,192,183386,1,0,0:0:0:0:
320,192,183450,1,0,0:0:0:0:
192,192,183514,1,0,0:0:0:0:
64,192,183578,1,0,0:0:0:0:
192,192,183642,1,0,0:0:0:0:
320,192,183706,1,0,0:0:0:0:
448,192,183706,1,0,0:0:0:0:
64,192,183706,1,0,0:0:0:0:
192,192,183771,1,0,0:0:0:0:
320,192,183835,1,0,0:0:0:0:
192,192,183899,128,0,184091:0:0:0:0:
64,192,183963,1,0,0:0:0:0:
320,192,184027,1,0,0:0:0:0:
448,192,184091,128,0,184283:0:0:0:0:
64,192,184091,1,0,0:0:0:0:
192,192,184155,1,0,0:0:0:0:
320,192,184219,1,0,0:0:0:0:
64,192,184283,128,0,184476:0:0:0:0:
192,192,184347,1,0,0:0:0:0:
320,192,184412,1,0,0:0:0:0:
192,192,184476,128,0,184668:0:0:0:0:
448,192,184476,1,0,0:0:0:0:
320,192,184540,1,0,0:0:0:0:
64,192,184604,1,0,0:0:0:0:
320,192,184668,128,0,184860:0:0:0:0:
64,192,184732,1,0,0:0:0:0:
192,192,184796,1,0,0:0:0:0:
448,192,184860,128,0,185245:0:0:0:0:
64,192,184860,1,0,0:0:0:0:
192,192,184924,1,0,0:0:0:0:
320,192,184988,1,0,0:0:0:0:
192,192,185053,1,0,0:0:0:0:
64,192,185117,1,0,0:0:0:0:
192,192,185181,1,0,0:0:0:0:
64,192,185245,128,0,185822:0:0:0:0:
320,192,185245,1,0,0:0:0:0:
192,192,185309,1,0,0:0:0:0:
320,192,185373,1,0,0:0:0:0:
448,192,185437,1,0,0:0:0:0:
192,192,185501,1,0,0:0:0:0:
320,192,185565,1,0,0:0:0:0:
448,192,185630,1,0,0:0:0:0:
192,192,185630,1,0,0:0:0:0:
320,192,185694,1,0,0:0:0:0:
448,192,185758,1,0,0:0:0:0:
192,192,185822,128,0,186014:0:0:0:0:
320,192,185886,1,0,0:0:0:0:
64,192,185950,1,0,0:0:0:0:
448,192,186014,128,0,186591:0:0:0:0:
320,192,186014,1,0,0:0:0:0:
192,192,186078,1,0,0:0:0:0:
64,192,186142,1,0,0:0:0:0:
320,192,186206,1,0,0:0:0:0:
192,192,186271,1,0,0:0:0:0:
64,192,186335,1,0,0:0:0:0:
192,192,186399,1,0,0:0:0:0:
320,192,186399,1,0,0:0:0:0:
64,192,186463,1,0,0:0:0:0:
192,192,186527,1,0,0:0:0:0:
64,192,186591,128,0,186783:0:0:0:0:
320,192,186655,1,0,0:0:0:0:
192,192,186719,1,0,0:0:0:0:
320,192,186783,128,0,187360:0:0:0:0:
448,192,186783,1,0,0:0:0:0:
192,192,186847,1,0,0:0:0:0:
64,192,186912,1,0,0:0:0:0:
448,192,186976,1,0,0:0:0:0:
192,192,187040,1,0,0:0:0:0:
64,192,187104,1,0,0:0:0:0:
448,192,187168,1,0,0:0:0:0:
192,192,187168,1,0,0:0:0:0:
64,192,187232,1,0,0:0:0:0:
192,192,187296,1,0,0:0:0:0:
448,192,187360,128,0,187553:0:0:0:0:
192,192,187424,1,0,0:0:0:0:
64,192,187488,1,0,0:0:0:0:
192,192,187553,1,0,0:0:0:0:
320,192,187553,1,0,0:0:0:0:
64,192,187617,1,0,0:0:0:0:
320,192,187681,1,0,0:0:0:0:
192,192,187745,128,0,187937:0:0:0:0:
64,192,187809,1,0,0:0:0:0:
448,192,187873,1,0,0:0:0:0:
320,192,187937,128,0,188322:0:0:0:0:
64,192,187937,1,0,0:0:0:0:
192,192,188001,1,0,0:0:0:0:
448,192,188065,1,0,0:0:0:0:
64,192,188130,1,0,0:0:0:0:
192,192,188194,1,0,0:0:0:0:
448,192,188258,1,0,0:0:0:0:
64,192,188322,128,0,189668:0:0:0:0:
192,192,188322,1,0,0:0:0:0:
320,192,188386,1,0,0:0:0:0:
448,192,188450,1,0,0:0:0:0:
192,192,188514,1,0,0:0:0:0:
320,192,188578,1,0,0:0:0:0:
448,192,188642,1,0,0:0:0:0:
192,192,188706,1,0,0:0:0:0:
320,192,188706,1,0,0:0:0:0:
448,192,188771,1,0,0:0:0:0:
320,192,188835,1,0,0:0:0:0:
192,192,188899,1,0,0:0:0:0:
320,192,188963,1,0,0:0:0:0:
448,192,189027,1,0,0:0:0:0:
320,192,189091,1,0,0:0:0:0:
192,192,189091,1,0,0:0:0:0:
448,192,189155,1,0,0:0:0:0:
320,192,189219,1,0,0:0:0:0:
192,192,189283,1,0,0:0:0:0:
448,192,189347,1,0,0:0:0:0:
320,192,189412,1,0,0:0:0:0:
192,192,189476,1,0,0:0:0:0:
448,192,189476,1,0,0:0:0:0:
320,192,189540,1,0,0:0:0:0:
192,192,189604,1,0,0:0:0:0:
320,192,189668,1,0,0:0:0:0:
448,192,189732,1,0,0:0:0:0:
320,192,189796,1,0,0:0:0:0:
192,192,189860,1,0,0:0:0:0:
64,192,189860,1,0,0:0:0:0:
448,192,189860,1,0,0:0:0:0:
320,192,189924,1,0,0:0:0:0:
192,192,189988,1,0,0:0:0:0:
64,192,190053,1,0,0:0:0:0:
320,192,190053,1,0,0:0:0:0:
448,192,190053,1,0,0:0:0:0:
192,192,190117,1,0,0:0:0:0:
320,192,190181,1,0,0:0:0:0:
448,192,190245,1,0,0:0:0:0:
192,192,190245,1,0,0:0:0:0:
64,192,190245,1,0,0:0:0:0:
320,192,190309,1,0,0:0:0:0:
192,192,190373,1,0,0:0:0:0:
64,192,190437,1,0,0:0:0:0:
320,192,190437,1,0,0:0:0:0:
448,192,190437,1,0,0:0:0:0:
192,192,190501,1,0,0:0:0:0:
320,192,190565,1,0,0:0:0:0:
448,192,190630,1,0,0:0:0:0:
192,192,190630,1,0,0:0:0:0:
64,192,190630,1,0,0:0:0:0:
320,192,190678,1,0,0:0:0:0:
192,192,190726,1,0,0:0:0:0:
64,192,190774,1,0,0:0:0:0:
192,192,190822,1,0,0:0:0:0:
320,192,190822,1,0,0:0:0:0:
448,192,190822,1,0,0:0:0:0:
64,192,190870,1,0,0:0:0:0:
192,192,190918,1,0,0:0:0:0:
320,192,190966,1,0,0:0:0:0:
192,192,191014,1,0,0:0:0:0:
64,192,191014,1,0,0:0:0:0:
448,192,191014,1,0,0:0:0:0:
320,192,191062,1,0,0:0:0:0:
192,192,191110,1,0,0:0:0:0:
64,192,191158,1,0,0:0:0:0:
192,192,191206,1,0,0:0:0:0:
320,192,191206,1,0,0:0:0:0:
448,192,191206,1,0,0:0:0:0:
64,192,191271,1,0,0:0:0:0:
192,192,191335,1,0,0:0:0:0:
448,192,191399,1,0,0:0:0:0:
320,192,191399,1,0,0:0:0:0:
64,192,191399,1,0,0:0:0:0:
192,192,191463,1,0,0:0:0:0:
320,192,191527,1,0,0:0:0:0:
448,192,191591,1,0,0:0:0:0:
192,192,191591,1,0,0:0:0:0:
64,192,191591,1,0,0:0:0:0:
320,192,191655,1,0,0:0:0:0:
192,192,191719,1,0,0:0:0:0:
64,192,191783,1,0,0:0:0:0:
320,192,191783,1,0,0:0:0:0:
448,192,191783,1,0,0:0:0:0:
192,192,191847,1,0,0:0:0:0:
320,192,191912,1,0,0:0:0:0:
448,192,191976,1,0,0:0:0:0:
192,192,191976,1,0,0:0:0:0:
64,192,191976,1,0,0:0:0:0:
320,192,192040,1,0,0:0:0:0:
192,192,192104,1,0,0:0:0:0:
64,192,192168,1,0,0:0:0:0:
320,192,192168,1,0,0:0:0:0:
448,192,192168,1,0,0:0:0:0:
192,192,192232,1,0,0:0:0:0:
64,192,192296,1,0,0:0:0:0:
192,192,192360,1,0,0:0:0:0:
448,192,192360,1,0,0:0:0:0:
320,192,192360,1,0,0:0:0:0:
64,192,192424,1,0,0:0:0:0:
192,192,192488,1,0,0:0:0:0:
448,192,192553,1,0,0:0:0:0:
320,192,192553,1,0,0:0:0:0:
64,192,192553,1,0,0:0:0:0:
192,192,192617,1,0,0:0:0:0:
320,192,192681,1,0,0:0:0:0:
448,192,192745,1,0,0:0:0:0:
64,192,192745,1,0,0:0:0:0:
192,192,192745,1,0,0:0:0:0:
320,192,192809,1,0,0:0:0:0:
448,192,192873,1,0,0:0:0:0:
320,192,192937,1,0,0:0:0:0:
192,192,192937,1,0,0:0:0:0:
64,192,192937,1,0,0:0:0:0:
448,192,193001,1,0,0:0:0:0:
320,192,193065,1,0,0:0:0:0:
192,192,193130,1,0,0:0:0:0:
448,192,193130,1,0,0:0:0:0:
64,192,193130,1,0,0:0:0:0:
320,192,193194,1,0,0:0:0:0:
192,192,193258,1,0,0:0:0:0:
64,192,193322,1,0,0:0:0:0:
448,192,193322,1,0,0:0:0:0:
320,192,193322,1,0,0:0:0:0:
192,192,193386,1,0,0:0:0:0:
320,192,193450,1,0,0:0:0:0:
448,192,193514,1,0,0:0:0:0:
192,192,193514,1,0,0:0:0:0:
64,192,193514,1,0,0:0:0:0:
320,192,193578,1,0,0:0:0:0:
192,192,193642,1,0,0:0:0:0:
64,192,193706,1,0,0:0:0:0:
320,192,193706,1,0,0:0:0:0:
448,192,193706,1,0,0:0:0:0:
192,192,193771,1,0,0:0:0:0:
320,192,193835,1,0,0:0:0:0:
448,192,193899,1,0,0:0:0:0:
192,192,193899,1,0,0:0:0:0:
64,192,193899,1,0,0:0:0:0:
320,192,193963,1,0,0:0:0:0:
192,192,194027,1,0,0:0:0:0:
64,192,194091,1,0,0:0:0:0:
320,192,194091,1,0,0:0:0:0:
448,192,194091,1,0,0:0:0:0:
192,192,194155,1,0,0:0:0:0:
320,192,194219,1,0,0:0:0:0:
448,192,194283,1,0,0:0:0:0:
192,192,194283,1,0,0:0:0:0:
64,192,194283,1,0,0:0:0:0:
320,192,194347,1,0,0:0:0:0:
192,192,194412,1,0,0:0:0:0:
64,192,194476,1,0,0:0:0:0:
320,192,194476,1,0,0:0:0:0:
448,192,194476,1,0,0:0:0:0:
192,192,194540,1,0,0:0:0:0:
320,192,194604,1,0,0:0:0:0:
192,192,194668,1,0,0:0:0:0:
64,192,194668,1,0,0:0:0:0:
448,192,194668,1,0,0:0:0:0:
320,192,194732,1,0,0:0:0:0:
448,192,194796,1,0,0:0:0:0:
320,192,194860,1,0,0:0:0:0:
192,192,194860,1,0,0:0:0:0:
64,192,194860,1,0,0:0:0:0:
448,192,194924,1,0,0:0:0:0:
320,192,194988,1,0,0:0:0:0:
64,192,195053,1,0,0:0:0:0:
192,192,195053,1,0,0:0:0:0:
448,192,195053,1,0,0:0:0:0:
320,192,195117,1,0,0:0:0:0:
192,192,195181,1,0,0:0:0:0:
64,192,195245,1,0,0:0:0:0:
320,192,195245,1,0,0:0:0:0:
448,192,195245,1,0,0:0:0:0:
192,192,195309,1,0,0:0:0:0:
64,192,195373,1,0,0:0:0:0:
192,192,195437,1,0,0:0:0:0:
320,192,195437,1,0,0:0:0:0:
448,192,195437,1,0,0:0:0:0:
64,192,195501,1,0,0:0:0:0:
192,192,195565,1,0,0:0:0:0:
448,192,195630,1,0,0:0:0:0:
320,192,195630,1,0,0:0:0:0:
64,192,195630,1,0,0:0:0:0:
192,192,195694,1,0,0:0:0:0:
320,192,195758,1,0,0:0:0:0:
448,192,195822,1,0,0:0:0:0:
192,192,195822,1,0,0:0:0:0:
64,192,195822,1,0,0:0:0:0:
320,192,195886,1,0,0:0:0:0:
192,192,195950,1,0,0:0:0:0:
64,192,196014,1,0,0:0:0:0:
320,192,196014,1,0,0:0:0:0:
448,192,196014,1,0,0:0:0:0:
192,192,196078,1,0,0:0:0:0:
64,192,196142,1,0,0:0:0:0:
192,192,196206,1,0,0:0:0:0:
320,192,196206,1,0,0:0:0:0:
448,192,196206,1,0,0:0:0:0:
64,192,196271,1,0,0:0:0:0:
192,192,196335,1,0,0:0:0:0:
448,192,196399,1,0,0:0:0:0:
320,192,196399,1,0,0:0:0:0:
64,192,196399,1,0,0:0:0:0:
192,192,196463,1,0,0:0:0:0:
320,192,196527,1,0,0:0:0:0:
448,192,196591,1,0,0:0:0:0:
192,192,196591,1,0,0:0:0:0:
64,192,196591,1,0,0:0:0:0:
320,192,196655,1,0,0:0:0:0:
448,192,196719,1,0,0:0:0:0:
320,192,196783,1,0,0:0:0:0:
192,192,196783,1,0,0:0:0:0:
64,192,196783,1,0,0:0:0:0:
448,192,196847,1,0,0:0:0:0:
320,192,196912,1,0,0:0:0:0:
64,192,196976,1,0,0:0:0:0:
192,192,196976,1,0,0:0:0:0:
448,192,196976,1,0,0:0:0:0:
320,192,197040,1,0,0:0:0:0:
448,192,197104,1,0,0:0:0:0:
320,192,197168,1,0,0:0:0:0:
192,192,197168,1,0,0:0:0:0:
64,192,197168,1,0,0:0:0:0:
448,192,197232,1,0,0:0:0:0:
320,192,197296,1,0,0:0:0:0:
192,192,197360,1,0,0:0:0:0:
64,192,197360,1,0,0:0:0:0:
448,192,197360,1,0,0:0:0:0:
320,192,197424,1,0,0:0:0:0:
192,192,197488,1,0,0:0:0:0:
64,192,197553,1,0,0:0:0:0:
320,192,197553,1,0,0:0:0:0:
448,192,197553,1,0,0:0:0:0:
192,192,197617,1,0,0:0:0:0:
320,192,197681,1,0,0:0:0:0:
448,192,197745,1,0,0:0:0:0:
192,192,197745,1,0,0:0:0:0:
64,192,197745,1,0,0:0:0:0:
320,192,197809,1,0,0:0:0:0:
192,192,197873,1,0,0:0:0:0:
64,192,197937,1,0,0:0:0:0:
320,192,197937,1,0,0:0:0:0:
448,192,197937,1,0,0:0:0:0:
192,192,198001,1,0,0:0:0:0:
320,192,198065,1,0,0:0:0:0:
448,192,198130,1,0,0:0:0:0:
192,192,198130,1,0,0:0:0:0:
64,192,198130,1,0,0:0:0:0:
320,192,198194,1,0,0:0:0:0:
192,192,198258,1,0,0:0:0:0:
64,192,198322,1,0,0:0:0:0:
320,192,198322,1,0,0:0:0:0:
448,192,198322,1,0,0:0:0:0:
192,192,198386,1,0,0:0:0:0:
320,192,198450,1,0,0:0:0:0:
448,192,198514,1,0,0:0:0:0:
192,192,198514,1,0,0:0:0:0:
64,192,198514,1,0,0:0:0:0:
320,192,198578,1,0,0:0:0:0:
448,192,198642,1,0,0:0:0:0:
320,192,198706,1,0,0:0:0:0:
192,192,198706,1,0,0:0:0:0:
64,192,198706,1,0,0:0:0:0:
448,192,198771,1,0,0:0:0:0:
320,192,198835,1,0,0:0:0:0:
192,192,198899,1,0,0:0:0:0:
64,192,198899,1,0,0:0:0:0:
448,192,198899,1,0,0:0:0:0:
320,192,198963,1,0,0:0:0:0:
192,192,199027,1,0,0:0:0:0:
64,192,199091,1,0,0:0:0:0:
320,192,199091,1,0,0:0:0:0:
448,192,199091,1,0,0:0:0:0:
192,192,199155,1,0,0:0:0:0:
64,192,199219,1,0,0:0:0:0:
192,192,199283,1,0,0:0:0:0:
320,192,199283,1,0,0:0:0:0:
448,192,199283,1,0,0:0:0:0:
64,192,199347,1,0,0:0:0:0:
192,192,199412,1,0,0:0:0:0:
320,192,199476,1,0,0:0:0:0:
64,192,199476,1,0,0:0:0:0:
448,192,199476,1,0,0:0:0:0:
192,192,199540,1,0,0:0:0:0:
320,192,199604,1,0,0:0:0:0:
448,192,199668,1,0,0:0:0:0:
192,192,199668,1,0,0:0:0:0:
64,192,199668,1,0,0:0:0:0:
320,192,199732,1,0,0:0:0:0:
448,192,199796,1,0,0:0:0:0:
320,192,199860,1,0,0:0:0:0:
192,192,199860,1,0,0:0:0:0:
64,192,199860,1,0,0:0:0:0:
448,192,199924,1,0,0:0:0:0:
320,192,199988,1,0,0:0:0:0:
192,192,200053,1,0,0:0:0:0:
64,192,200053,1,0,0:0:0:0:
448,192,200053,1,0,0:0:0:0:
320,192,200117,1,0,0:0:0:0:
192,192,200181,1,0,0:0:0:0:
64,192,200245,1,0,0:0:0:0:
320,192,200245,1,0,0:0:0:0:
448,192,200245,1,0,0:0:0:0:
192,192,200309,1,0,0:0:0:0:
320,192,200373,1,0,0:0:0:0:
448,192,200437,1,0,0:0:0:0:
192,192,200437,1,0,0:0:0:0:
64,192,200437,1,0,0:0:0:0:
320,192,200501,1,0,0:0:0:0:
192,192,200565,1,0,0:0:0:0:
64,192,200630,1,0,0:0:0:0:
320,192,200630,1,0,0:0:0:0:
448,192,200630,1,0,0:0:0:0:
192,192,200694,1,0,0:0:0:0:
320,192,200758,1,0,0:0:0:0:
448,192,200822,1,0,0:0:0:0:
192,192,200822,1,0,0:0:0:0:
64,192,200822,1,0,0:0:0:0:
320,192,200886,1,0,0:0:0:0:
448,192,200950,1,0,0:0:0:0:
320,192,201014,1,0,0:0:0:0:
192,192,201014,1,0,0:0:0:0:
64,192,201014,1,0,0:0:0:0:
448,192,201078,1,0,0:0:0:0:
320,192,201142,1,0,0:0:0:0:
192,192,201206,1,0,0:0:0:0:
448,192,201206,1,0,0:0:0:0:
64,192,201206,1,0,0:0:0:0:
320,192,201271,1,0,0:0:0:0:
192,192,201335,1,0,0:0:0:0:
64,192,201399,1,0,0:0:0:0:
448,192,201399,1,0,0:0:0:0:
320,192,201399,1,0,0:0:0:0:
192,192,201463,1,0,0:0:0:0:
320,192,201527,1,0,0:0:0:0:
448,192,201591,1,0,0:0:0:0:
192,192,201591,1,0,0:0:0:0:
64,192,201591,1,0,0:0:0:0:
320,192,201655,1,0,0:0:0:0:
192,192,201719,1,0,0:0:0:0:
64,192,201783,1,0,0:0:0:0:
320,192,201783,1,0,0:0:0:0:
448,192,201783,1,0,0:0:0:0:
192,192,201847,1,0,0:0:0:0:
320,192,201912,1,0,0:0:0:0:
448,192,201976,1,0,0:0:0:0:
192,192,201976,1,0,0:0:0:0:
64,192,201976,1,0,0:0:0:0:
320,192,202040,1,0,0:0:0:0:
192,192,202104,1,0,0:0:0:0:
64,192,202168,128,0,202232:0:0:0:0:
448,192,202168,128,0,202232:0:0:0:0:
320,192,202232,128,0,202296:0:0:0:0:
192,192,202232,128,0,202296:0:0:0:0:
448,192,202296,128,0,202360:0:0:0:0:
64,192,202296,128,0,202360:0:0:0:0:
192,192,202360,128,0,202424:0:0:0:0:
320,192,202360,128,0,202424:0:0:0:0:
64,192,202424,128,0,202488:0:0:0:0:
448,192,202424,128,0,202488:0:0:0:0:
320,192,202488,128,0,202553:0:0:0:0:
192,192,202488,128,0,202553:0:0:0:0:
448,192,202553,128,0,202617:0:0:0:0:
64,192,202553,128,0,202617:0:0:0:0:
192,192,202617,128,0,202681:0:0:0:0:
320,192,202617,128,0,202681:0:0:0:0:
448,192,202681,128,0,202745:0:0:0:0:
64,192,202681,128,0,202745:0:0:0:0:
192,192,202745,1,0,0:0:0:0:
320,192,202745,1,0,0:0:0:0:
64,192,202809,1,0,0:0:0:0:
448,192,202809,1,0,0:0:0:0:
192,192,202873,1,0,0:0:0:0:
320,192,202873,1,0,0:0:0:0:
64,192,202937,1,0,0:0:0:0:
448,192,202937,128,0,203610:0:0:0:0:
192,192,203033,1,0,0:0:0:0:
64,192,203130,1,0,0:0:0:0:
320,192,203226,128,0,203610:0:0:0:0:
192,192,203226,1,0,0:0:0:0:
64,192,203322,1,0,0:0:0:0:
192,192,203418,1,0,0:0:0:0:
192,192,203514,128,0,203610:0:0:0:0:
64,192,203514,1,0,0:0:0:0:
64,192,203610,1,0,0:0:0:0:
448,192,203706,128,0,204283:0:0:0:0:
320,192,203706,128,0,203899:0:0:0:0:
192,192,203706,1,0,0:0:0:0:
64,192,203803,1,0,0:0:0:0:
64,192,203899,128,0,204091:0:0:0:0:
192,192,203899,1,0,0:0:0:0:
320,192,203995,1,0,0:0:0:0:
320,192,204091,128,0,204283:0:0:0:0:
192,192,204091,1,0,0:0:0:0:
64,192,204187,1,0,0:0:0:0:
192,192,204283,128,0,204347:0:0:0:0:
320,192,204347,128,0,204412:0:0:0:0:
448,192,204412,128,0,204476:0:0:0:0:
64,192,204476,128,0,205053:0:0:0:0:
192,192,204476,128,0,204668:0:0:0:0:
448,192,204572,1,0,0:0:0:0:
448,192,204668,128,0,204860:0:0:0:0:
320,192,204668,1,0,0:0:0:0:
192,192,204764,1,0,0:0:0:0:
320,192,204860,128,0,205053:0:0:0:0:
192,192,204860,1,0,0:0:0:0:
448,192,204956,1,0,0:0:0:0:
192,192,205053,128,0,205117:0:0:0:0:
320,192,205117,128,0,205181:0:0:0:0:
448,192,205181,128,0,205245:0:0:0:0:
192,192,205245,128,0,205822:0:0:0:0:
64,192,205245,128,0,205437:0:0:0:0:
448,192,205341,1,0,0:0:0:0:
320,192,205437,128,0,205630:0:0:0:0:
448,192,205437,1,0,0:0:0:0:
64,192,205533,1,0,0:0:0:0:
448,192,205630,128,0,205822:0:0:0:0:
64,192,205630,1,0,0:0:0:0:
320,192,205726,1,0,0:0:0:0:
320,192,205822,128,0,205886:0:0:0:0:
64,192,205886,128,0,205950:0:0:0:0:
448,192,205950,128,0,206014:0:0:0:0:
64,192,206014,128,0,206591:0:0:0:0:
320,192,206014,128,0,206206:0:0:0:0:
192,192,206110,1,0,0:0:0:0:
448,192,206206,128,0,206399:0:0:0:0:
192,192,206206,1,0,0:0:0:0:
320,192,206303,1,0,0:0:0:0:
320,192,206399,128,0,206591:0:0:0:0:
192,192,206399,1,0,0:0:0:0:
448,192,206495,1,0,0:0:0:0:
192,192,206591,128,0,206655:0:0:0:0:
448,192,206655,128,0,206719:0:0:0:0:
320,192,206719,128,0,206783:0:0:0:0:
64,192,206783,128,0,208130:0:0:0:0:
448,192,206783,128,0,208130:0:0:0:0:
192,192,206783,1,0,0:0:0:0:
320,192,206847,1,0,0:0:0:0:
192,192,206912,1,0,0:0:0:0:
320,192,206976,1,0,0:0:0:0:
192,192,207040,1,0,0:0:0:0:
320,192,207104,1,0,0:0:0:0:
192,192,207168,1,0,0:0:0:0:
320,192,207232,1,0,0:0:0:0:
192,192,207296,1,0,0:0:0:0:
320,192,207360,1,0,0:0:0:0:
192,192,207424,1,0,0:0:0:0:
320,192,207488,1,0,0:0:0:0:
192,192,207553,1,0,0:0:0:0:
320,192,207617,1,0,0:0:0:0:
192,192,207681,1,0,0:0:0:0:
320,192,207745,1,0,0:0:0:0:
192,192,207809,1,0,0:0:0:0:
320,192,207873,1,0,0:0:0:0:
192,192,207937,1,0,0:0:0:0:
320,192,208001,1,0,0:0:0:0:
192,192,208065,1,0,0:0:0:0:
320,192,208130,1,0,0:0:0:0:
192,192,208194,1,0,0:0:0:0:
320,192,208258,1,0,0:0:0:0:
448,192,208322,1,0,0:0:0:0:
192,192,208322,1,0,0:0:0:0:
64,192,208322,1,0,0:0:0:0:
320,192,208386,1,0,0:0:0:0:
192,192,208450,1,0,0:0:0:0:
320,192,208514,128,0,208899:0:0:0:0:
64,192,208514,1,0,0:0:0:0:
192,192,208610,1,0,0:0:0:0:
64,192,208706,128,0,209091:0:0:0:0:
448,192,208706,1,0,0:0:0:0:
192,192,208803,1,0,0:0:0:0:
448,192,208899,128,0,209091:0:0:0:0:
192,192,208899,1,0,0:0:0:0:
320,192,208995,1,0,0:0:0:0:
320,192,209091,128,0,209476:0:0:0:0:
192,192,209091,1,0,0:0:0:0:
64,192,209187,1,0,0:0:0:0:
192,192,209283,128,0,209476:0:0:0:0:
448,192,209283,1,0,0:0:0:0:
64,192,209380,1,0,0:0:0:0:
64,192,209476,128,0,209668:0:0:0:0:
448,192,209476,1,0,0:0:0:0:
320,192,209572,1,0,0:0:0:0:
192,192,209668,1,0,0:0:0:0:
320,192,209764,1,0,0:0:0:0:
192,192,209860,128,0,210053:0:0:0:0:
64,192,209860,128,0,210437:0:0:0:0:
448,192,209860,1,0,0:0:0:0:
320,192,209956,1,0,0:0:0:0:
448,192,210053,128,0,210245:0:0:0:0:
320,192,210053,1,0,0:0:0:0:
192,192,210149,1,0,0:0:0:0:
192,192,210245,128,0,210437:0:0:0:0:
320,192,210245,1,0,0:0:0:0:
448,192,210341,1,0,0:0:0:0:
448,192,210437,128,0,210501:0:0:0:0:
320,192,210501,128,0,210565:0:0:0:0:
192,192,210565,128,0,210630:0:0:0:0:
64,192,210630,128,0,211206:0:0:0:0:
448,192,210630,128,0,210822:0:0:0:0:
320,192,210726,1,0,0:0:0:0:
320,192,210822,128,0,211014:0:0:0:0:
192,192,210822,1,0,0:0:0:0:
448,192,210918,1,0,0:0:0:0:
448,192,211014,128,0,211206:0:0:0:0:
192,192,211014,1,0,0:0:0:0:
320,192,211110,1,0,0:0:0:0:
320,192,211206,128,0,211271:0:0:0:0:
192,192,211271,128,0,211335:0:0:0:0:
64,192,211335,128,0,211399:0:0:0:0:
448,192,211399,128,0,211976:0:0:0:0:
320,192,211399,128,0,211591:0:0:0:0:
192,192,211495,1,0,0:0:0:0:
192,192,211591,128,0,211783:0:0:0:0:
64,192,211591,1,0,0:0:0:0:
320,192,211687,1,0,0:0:0:0:
320,192,211783,128,0,211976:0:0:0:0:
64,192,211783,1,0,0:0:0:0:
192,192,211880,1,0,0:0:0:0:
64,192,211976,128,0,212168:0:0:0:0:
192,192,211976,128,0,212168:0:0:0:0:
448,192,212072,1,0,0:0:0:0:
448,192,212168,128,0,212745:0:0:0:0:
320,192,212168,128,0,212360:0:0:0:0:
64,192,212264,1,0,0:0:0:0:
192,192,212360,128,0,212553:0:0:0:0:
320,192,212456,1,0,0:0:0:0:
64,192,212553,128,0,212745:0:0:0:0:
320,192,212649,1,0,0:0:0:0:
192,192,212745,1,0,0:0:0:0:
320,192,212809,1,0,0:0:0:0:
448,192,212873,1,0,0:0:0:0:
320,192,212937,1,0,0:0:0:0:
192,192,212937,1,0,0:0:0:0:
64,192,212937,1,0,0:0:0:0:
448,192,213001,1,0,0:0:0:0:
320,192,213065,1,0,0:0:0:0:
192,192,213130,1,0,0:0:0:0:
64,192,213130,1,0,0:0:0:0:
448,192,213130,1,0,0:0:0:0:
320,192,213194,1,0,0:0:0:0:
192,192,213258,1,0,0:0:0:0:
64,192,213322,1,0,0:0:0:0:
320,192,213322,1,0,0:0:0:0:
448,192,213322,1,0,0:0:0:0:
192,192,213386,1,0,0:0:0:0:
64,192,213450,1,0,0:0:0:0:
192,192,213514,1,0,0:0:0:0:
320,192,213514,1,0,0:0:0:0:
448,192,213514,1,0,0:0:0:0:
64,192,213578,1,0,0:0:0:0:
192,192,213642,1,0,0:0:0:0:
448,192,213706,1,0,0:0:0:0:
320,192,213706,1,0,0:0:0:0:
64,192,213706,1,0,0:0:0:0:
192,192,213771,1,0,0:0:0:0:
320,192,213835,1,0,0:0:0:0:
448,192,213899,1,0,0:0:0:0:
192,192,213899,1,0,0:0:0:0:
64,192,213899,1,0,0:0:0:0:
320,192,213963,1,0,0:0:0:0:
448,192,214027,1,0,0:0:0:0:
320,192,214091,1,0,0:0:0:0:
192,192,214091,1,0,0:0:0:0:
64,192,214091,1,0,0:0:0:0:
448,192,214155,1,0,0:0:0:0:
320,192,214219,1,0,0:0:0:0:
192,192,214283,1,0,0:0:0:0:
64,192,214283,1,0,0:0:0:0:
448,192,214283,1,0,0:0:0:0:
320,192,214347,1,0,0:0:0:0:
192,192,214412,1,0,0:0:0:0:
448,192,214476,128,0,214540:0:0:0:0:
192,192,214540,128,0,214604:0:0:0:0:
320,192,214604,128,0,214668:0:0:0:0:
64,192,214668,128,0,214732:0:0:0:0:
448,192,214732,128,0,214796:0:0:0:0:
320,192,214796,128,0,214860:0:0:0:0:
192,192,214860,128,0,214924:0:0:0:0:
448,192,214924,128,0,214988:0:0:0:0:
64,192,214988,128,0,215053:0:0:0:0:
320,192,215053,128,0,215117:0:0:0:0:
192,192,215117,1,0,0:0:0:0:
64,192,215181,1,0,0:0:0:0:
192,192,215245,1,0,0:0:0:0:
320,192,215245,1,0,0:0:0:0:
448,192,215245,1,0,0:0:0:0:
64,192,215293,1,0,0:0:0:0:
192,192,215341,1,0,0:0:0:0:
320,192,215389,1,0,0:0:0:0:
448,192,215437,1,0,0:0:0:0:
192,192,215437,1,0,0:0:0:0:
64,192,215437,1,0,0:0:0:0:
320,192,215501,1,0,0:0:0:0:
192,192,215565,1,0,0:0:0:0:
64,192,215630,1,0,0:0:0:0:
320,192,215630,1,0,0:0:0:0:
448,192,215630,1,0,0:0:0:0:
192,192,215694,1,0,0:0:0:0:
320,192,215758,1,0,0:0:0:0:
448,192,215822,1,0,0:0:0:0:
192,192,215822,1,0,0:0:0:0:
64,192,215822,1,0,0:0:0:0:
320,192,215886,1,0,0:0:0:0:
192,192,215950,1,0,0:0:0:0:
64,192,216014,1,0,0:0:0:0:
320,192,216014,1,0,0:0:0:0:
448,192,216014,1,0,0:0:0:0:
64,192,216591,1,0,0:0:0:0:
320,192,216783,1,0,0:0:0:0:
448,192,217360,1,0,0:0:0:0:
192,192,217553,1,0,0:0:0:0:
448,192,218130,1,0,0:0:0:0:
64,192,218322,1,0,0:0:0:0:
192,192,219091,128,0,220245:0:0:0:0:
448,192,220822,1,0,0:0:0:0:
320,192,221014,1,0,0:0:0:0:
192,192,221206,1,0,0:0:0:0:
320,192,221399,1,0,0:0:0:0:
192,192,221591,1,0,0:0:0:0:
64,192,221783,1,0,0:0:0:0:
448,192,222168,1,0,0:0:0:0:
320,192,222168,1,0,0:0:0:0:
64,192,222168,1,0,0:0:0:0:
192,192,222360,1,0,0:0:0:0:
320,192,222553,1,0,0:0:0:0:
448,192,222553,1,0,0:0:0:0:
192,192,222745,1,0,0:0:0:0:
64,192,222745,1,0,0:0:0:0:
320,192,222937,1,0,0:0:0:0:
448,192,222937,1,0,0:0:0:0:
192,192,222937,1,0,0:0:0:0:
64,192,223130,1,0,0:0:0:0:
320,192,223322,1,0,0:0:0:0:
448,192,223322,1,0,0:0:0:0:
192,192,223514,1,0,0:0:0:0:
320,192,223514,1,0,0:0:0:0:
64,192,223706,1,0,0:0:0:0:
192,192,223706,1,0,0:0:0:0:
448,192,223706,1,0,0:0:0:0:
320,192,223899,1,0,0:0:0:0:
192,192,224091,1,0,0:0:0:0:
320,192,224091,1,0,0:0:0:0:
448,192,224283,1,0,0:0:0:0:
192,192,224283,1,0,0:0:0:0:
64,192,224476,1,0,0:0:0:0:
192,192,224476,1,0,0:0:0:0:
320,192,224668,1,0,0:0:0:0:
448,192,224668,1,0,0:0:0:0:
192,192,224860,1,0,0:0:0:0:
64,192,224860,1,0,0:0:0:0:
320,192,224860,1,0,0:0:0:0:
448,192,225053,1,0,0:0:0:0:
448,192,225245,128,0,226206:0:0:0:0:
64,192,225245,1,0,0:0:0:0:
192,192,225309,1,0,0:0:0:0:
320,192,225373,1,0,0:0:0:0:
192,192,225437,1,0,0:0:0:0:
64,192,225501,1,0,0:0:0:0:
320,192,225565,1,0,0:0:0:0:
192,192,225630,1,0,0:0:0:0:
64,192,225694,1,0,0:0:0:0:
320,192,225758,1,0,0:0:0:0:
192,192,225822,1,0,0:0:0:0:
320,192,225886,1,0,0:0:0:0:
192,192,225950,1,0,0:0:0:0:
64,192,226014,1,0,0:0:0:0:
192,192,226078,1,0,0:0:0:0:
320,192,226142,1,0,0:0:0:0:
192,192,226206,1,0,0:0:0:0:
448,192,226271,1,0,0:0:0:0:
320,192,226335,1,0,0:0:0:0:
192,192,226399,1,0,0:0:0:0:
448,192,226463,1,0,0:0:0:0:
320,192,226527,1,0,0:0:0:0:
64,192,226591,1,0,0:0:0:0:
192,192,226655,1,0,0:0:0:0:
320,192,226719,1,0,0:0:0:0:
192,192,226783,1,0,0:0:0:0:
64,192,226783,1,0,0:0:0:0:
448,192,226783,128,0,227553:0:0:0:0:
320,192,226880,1,0,0:0:0:0:
192,192,226976,1,0,0:0:0:0:
64,192,226976,1,0,0:0:0:0:
320,192,227072,1,0,0:0:0:0:
192,192,227168,1,0,0:0:0:0:
64,192,227168,1,0,0:0:0:0:
320,192,227264,1,0,0:0:0:0:
192,192,227360,1,0,0:0:0:0:
64,192,227360,1,0,0:0:0:0:
320,192,227456,1,0,0:0:0:0:
192,192,227553,1,0,0:0:0:0:
64,192,227553,1,0,0:0:0:0:
448,192,227649,1,0,0:0:0:0:
320,192,227649,1,0,0:0:0:0:
192,192,227745,1,0,0:0:0:0:
64,192,227745,1,0,0:0:0:0:
448,192,227841,1,0,0:0:0:0:
320,192,227841,1,0,0:0:0:0:
192,192,227937,1,0,0:0:0:0:
64,192,227937,1,0,0:0:0:0:
320,192,228033,1,0,0:0:0:0:
448,192,228033,1,0,0:0:0:0:
192,192,228130,1,0,0:0:0:0:
64,192,228130,1,0,0:0:0:0:
320,192,228226,1,0,0:0:0:0:
448,192,228226,1,0,0:0:0:0:
64,192,228322,128,0,228418:0:0:0:0:
192,192,228322,128,0,228610:0:0:0:0:
448,192,228322,128,0,229572:0:0:0:0:
320,192,228514,128,0,228610:0:0:0:0:
64,192,228514,128,0,228803:0:0:0:0:
192,192,228706,128,0,228803:0:0:0:0:
320,192,228706,128,0,228995:0:0:0:0:
192,192,228899,128,0,228995:0:0:0:0:
64,192,228899,128,0,229187:0:0:0:0:
320,192,229091,128,0,229187:0:0:0:0:
192,192,229091,128,0,229380:0:0:0:0:
64,192,229283,128,0,229380:0:0:0:0:
320,192,229283,128,0,229572:0:0:0:0:
192,192,229476,128,0,229572:0:0:0:0:
64,192,229668,1,0,0:0:0:0:
192,192,229668,1,0,0:0:0:0:
448,192,229668,1,0,0:0:0:0:
448,192,229860,128,0,229956:0:0:0:0:
320,192,229860,128,0,229956:0:0:0:0:
192,192,229956,128,0,230053:0:0:0:0:
64,192,229956,128,0,230053:0:0:0:0:
320,192,230053,128,0,230149:0:0:0:0:
448,192,230053,128,0,230149:0:0:0:0:
192,192,230149,128,0,230245:0:0:0:0:
64,192,230149,128,0,230245:0:0:0:0:
320,192,230245,128,0,230341:0:0:0:0:
448,192,230245,128,0,230341:0:0:0:0:
64,192,230341,128,0,230437:0:0:0:0:
192,192,230437,128,0,230533:0:0:0:0:
448,192,230437,128,0,230533:0:0:0:0:
320,192,230533,128,0,230630:0:0:0:0:
64,192,230630,128,0,230726:0:0:0:0:
448,192,230630,128,0,230726:0:0:0:0:
320,192,230726,128,0,230822:0:0:0:0:
192,192,230726,128,0,230822:0:0:0:0:
448,192,230822,128,0,230918:0:0:0:0:
320,192,230918,128,0,231014:0:0:0:0:
64,192,231014,128,0,231303:0:0:0:0:
192,192,231110,128,0,231303:0:0:0:0:
448,192,231206,1,0,0:0:0:0:
320,192,231303,1,0,0:0:0:0:
320,192,231399,128,0,232745:0:0:0:0:
448,192,231399,128,0,232745:0:0:0:0:
64,192,231399,1,0,0:0:0:0:
192,192,231495,1,0,0:0:0:0:
64,192,231591,1,0,0:0:0:0:
192,192,231687,1,0,0:0:0:0:
64,192,231783,1,0,0:0:0:0:
192,192,231880,1,0,0:0:0:0:
64,192,231976,1,0,0:0:0:0:
192,192,232072,1,0,0:0:0:0:
64,192,232168,1,0,0:0:0:0:
192,192,232264,1,0,0:0:0:0:
64,192,232360,1,0,0:0:0:0:
192,192,232456,1,0,0:0:0:0:
64,192,232553,1,0,0:0:0:0:
192,192,232649,1,0,0:0:0:0:
64,192,232745,1,0,0:0:0:0:
192,192,232841,1,0,0:0:0:0:
448,192,232937,128,0,233033:0:0:0:0:
64,192,232937,128,0,233033:0:0:0:0:
192,192,233033,128,0,233130:0:0:0:0:
320,192,233033,128,0,233130:0:0:0:0:
448,192,233130,128,0,233226:0:0:0:0:
64,192,233130,128,0,233226:0:0:0:0:
192,192,233226,128,0,233322:0:0:0:0:
320,192,233226,128,0,233322:0:0:0:0:
448,192,233322,128,0,233418:0:0:0:0:
64,192,233322,128,0,233418:0:0:0:0:
320,192,233418,128,0,233514:0:0:0:0:
64,192,233514,128,0,233610:0:0:0:0:
192,192,233514,128,0,233610:0:0:0:0:
320,192,233610,128,0,233706:0:0:0:0:
448,192,233706,128,0,233803:0:0:0:0:
192,192,233706,128,0,233803:0:0:0:0:
64,192,233803,128,0,233899:0:0:0:0:
320,192,233803,128,0,233899:0:0:0:0:
192,192,233899,128,0,233995:0:0:0:0:
320,192,233995,128,0,234091:0:0:0:0:
448,192,234091,128,0,234187:0:0:0:0:
192,192,234091,128,0,234187:0:0:0:0:
64,192,234187,128,0,234283:0:0:0:0:
192,192,234283,128,0,234380:0:0:0:0:
320,192,234380,128,0,234476:0:0:0:0:
448,192,234476,128,0,234668:0:0:0:0:
64,192,234476,128,0,234668:0:0:0:0:
192,192,234572,1,0,0:0:0:0:
320,192,234668,128,0,234764:0:0:0:0:
192,192,234764,128,0,234860:0:0:0:0:
64,192,234860,128,0,234956:0:0:0:0:
320,192,234956,128,0,235053:0:0:0:0:
448,192,235053,128,0,235149:0:0:0:0:
192,192,235149,128,0,235245:0:0:0:0:
320,192,235245,128,0,236014:0:0:0:0:
64,192,235341,1,0,0:0:0:0:
192,192,235437,1,0,0:0:0:0:
448,192,235533,1,0,0:0:0:0:
64,192,235630,1,0,0:0:0:0:
192,192,235726,1,0,0:0:0:0:
64,192,235822,1,0,0:0:0:0:
448,192,235918,1,0,0:0:0:0:
192,192,236014,128,0,236110:0:0:0:0:
64,192,236014,128,0,236110:0:0:0:0:
320,192,236110,1,0,0:0:0:0:
448,192,236110,1,0,0:0:0:0:
192,192,236206,128,0,236303:0:0:0:0:
64,192,236206,128,0,236303:0:0:0:0:
320,192,236303,1,0,0:0:0:0:
448,192,236303,1,0,0:0:0:0:
64,192,236399,128,0,236495:0:0:0:0:
192,192,236399,128,0,236495:0:0:0:0:
320,192,236495,1,0,0:0:0:0:
448,192,236495,1,0,0:0:0:0:
192,192,236591,128,0,236687:0:0:0:0:
64,192,236591,128,0,236687:0:0:0:0:
320,192,236687,1,0,0:0:0:0:
448,192,236687,1,0,0:0:0:0:
64,192,236783,128,0,236976:0:0:0:0:
192,192,236783,128,0,236976:0:0:0:0:
320,192,236880,1,0,0:0:0:0:
448,192,236976,128,0,237072:0:0:0:0:
320,192,237072,128,0,237168:0:0:0:0:
192,192,237168,128,0,237264:0:0:0:0:
64,192,237264,128,0,237360:0:0:0:0:
448,192,237360,128,0,237553:0:0:0:0:
192,192,237456,1,0,0:0:0:0:
320,192,237553,128,0,237745:0:0:0:0:
192,192,237649,1,0,0:0:0:0:
64,192,237745,128,0,237841:0:0:0:0:
192,192,237841,128,0,237937:0:0:0:0:
320,192,237937,128,0,238130:0:0:0:0:
64,192,238033,1,0,0:0:0:0:
448,192,238130,128,0,238322:0:0:0:0:
320,192,238226,1,0,0:0:0:0:
192,192,238322,128,0,238418:0:0:0:0:
64,192,238322,1,0,0:0:0:0:
320,192,238418,128,0,238514:0:0:0:0:
448,192,238418,1,0,0:0:0:0:
64,192,238514,128,0,238610:0:0:0:0:
192,192,238514,1,0,0:0:0:0:
192,192,238610,128,0,238706:0:0:0:0:
320,192,238610,1,0,0:0:0:0:
320,192,238706,128,0,238803:0:0:0:0:
448,192,238706,1,0,0:0:0:0:
448,192,238803,128,0,238899:0:0:0:0:
192,192,238803,1,0,0:0:0:0:
320,192,238899,128,0,238995:0:0:0:0:
64,192,238899,1,0,0:0:0:0:
192,192,238995,128,0,239091:0:0:0:0:
448,192,238995,1,0,0:0:0:0:
64,192,239091,128,0,239187:0:0:0:0:
320,192,239091,1,0,0:0:0:0:
448,192,239187,128,0,239283:0:0:0:0:
320,192,239187,1,0,0:0:0:0:
320,192,239283,128,0,239668:0:0:0:0:
192,192,239283,128,0,239380:0:0:0:0:
64,192,239380,128,0,239476:0:0:0:0:
448,192,239476,128,0,239668:0:0:0:0:
64,192,239572,1,0,0:0:0:0:
192,192,239668,128,0,239860:0:0:0:0:
64,192,239764,128,0,239860:0:0:0:0:
448,192,239860,128,0,239956:0:0:0:0:
320,192,239956,128,0,240053:0:0:0:0:
192,192,240053,128,0,240149:0:0:0:0:
64,192,240149,1,0,0:0:0:0:
448,192,240149,1,0,0:0:0:0:
320,192,240245,128,0,240341:0:0:0:0:
448,192,240341,128,0,240437:0:0:0:0:
192,192,240437,128,0,240533:0:0:0:0:
320,192,240533,1,0,0:0:0:0:
64,192,240533,1,0,0:0:0:0:
448,192,240630,128,0,241206:0:0:0:0:
64,192,240630,128,0,240918:0:0:0:0:
192,192,240822,128,0,240918:0:0:0:0:
320,192,240822,128,0,241110:0:0:0:0:
64,192,241014,128,0,241110:0:0:0:0:
192,192,241014,128,0,241303:0:0:0:0:
64,192,241206,128,0,241495:0:0:0:0:
320,192,241206,128,0,241783:0:0:0:0:
192,192,241399,128,0,241495:0:0:0:0:
448,192,241399,128,0,241687:0:0:0:0:
192,192,241591,128,0,241687:0:0:0:0:
64,192,241591,128,0,241783:0:0:0:0:
448,192,241783,128,0,241976:0:0:0:0:
192,192,241783,128,0,241976:0:0:0:0:
320,192,241976,128,0,242168:0:0:0:0:
64,192,241976,128,0,242168:0:0:0:0:
192,192,242168,1,0,0:0:0:0:
448,192,242168,1,0,0:0:0:0:
64,192,242360,128,0,242841:0:0:0:0:
448,192,242360,128,0,242456:0:0:0:0:
320,192,242553,128,0,242649:0:0:0:0:
192,192,242553,128,0,242841:0:0:0:0:
448,192,242745,128,0,242841:0:0:0:0:
320,192,242937,128,0,243418:0:0:0:0:
448,192,242937,128,0,243226:0:0:0:0:
64,192,242937,128,0,243033:0:0:0:0:
192,192,243130,128,0,243226:0:0:0:0:
64,192,243130,128,0,243514:0:0:0:0:
448,192,243322,128,0,243418:0:0:0:0:
192,192,243322,128,0,243706:0:0:0:0:
448,192,243514,128,0,243706:0:0:0:0:
320,192,243706,128,0,243803:0:0:0:0:
64,192,243706,128,0,245822:0:0:0:0:
192,192,243803,128,0,243899:0:0:0:0:
320,192,243899,128,0,243995:0:0:0:0:
448,192,243995,128,0,244091:0:0:0:0:
320,192,244091,128,0,244187:0:0:0:0:
192,192,244187,128,0,244283:0:0:0:0:
320,192,244283,128,0,244380:0:0:0:0:
448,192,244380,128,0,244476:0:0:0:0:
320,192,244476,128,0,244572:0:0:0:0:
192,192,244572,128,0,244668:0:0:0:0:
320,192,244668,128,0,244764:0:0:0:0:
448,192,244764,128,0,244860:0:0:0:0:
320,192,244860,128,0,244956:0:0:0:0:
192,192,244956,128,0,245053:0:0:0:0:
320,192,245053,128,0,245149:0:0:0:0:
448,192,245149,128,0,245245:0:0:0:0:
192,192,245245,128,0,245341:0:0:0:0:
320,192,245341,128,0,245437:0:0:0:0:
448,192,245437,128,0,245533:0:0:0:0:
320,192,245533,128,0,245630:0:0:0:0:
192,192,245630,128,0,245726:0:0:0:0:
448,192,245726,128,0,245822:0:0:0:0:
320,192,245822,128,0,246110:0:0:0:0:
192,192,245918,128,0,246206:0:0:0:0:
64,192,246014,128,0,246303:0:0:0:0:
448,192,246110,128,0,246206:0:0:0:0:
320,192,246206,128,0,246303:0:0:0:0:
192,192,246303,128,0,246399:0:0:0:0:
64,192,246399,128,0,246495:0:0:0:0:
448,192,246399,128,0,246591:0:0:0:0:
320,192,246495,128,0,246783:0:0:0:0:
192,192,246591,128,0,246783:0:0:0:0:
64,192,246687,128,0,246783:0:0:0:0:
448,192,246783,128,0,246976:0:0:0:0:
320,192,246976,128,0,247168:0:0:0:0:
192,192,247072,128,0,247168:0:0:0:0:
448,192,247168,128,0,247360:0:0:0:0:
64,192,247360,128,0,247553:0:0:0:0:
192,192,247456,128,0,247553:0:0:0:0:
320,192,247553,128,0,247745:0:0:0:0:
448,192,247745,128,0,247937:0:0:0:0:
64,192,247841,128,0,247937:0:0:0:0:
192,192,247937,128,0,248130:0:0:0:0:
320,192,248130,128,0,248322:0:0:0:0:
448,192,248226,128,0,248322:0:0:0:0:
64,192,248322,128,0,248514:0:0:0:0:
192,192,248418,128,0,248610:0:0:0:0:
320,192,248514,128,0,248706:0:0:0:0:
64,192,248610,128,0,248803:0:0:0:0:
448,192,248706,1,0,0:0:0:0:
192,192,248803,128,0,249091:0:0:0:0:
448,192,248803,128,0,248899:0:0:0:0:
64,192,248899,128,0,249476:0:0:0:0:
320,192,248899,128,0,248995:0:0:0:0:
448,192,248995,128,0,249091:0:0:0:0:
320,192,249091,128,0,249187:0:0:0:0:
192,192,249187,128,0,249764:0:0:0:0:
448,192,249187,128,0,249283:0:0:0:0:
320,192,249283,128,0,249380:0:0:0:0:
448,192,249380,128,0,249476:0:0:0:0:
320,192,249476,128,0,249764:0:0:0:0:
448,192,249572,128,0,249764:0:0:0:0:
64,192,249668,128,0,249764:0:0:0:0:
64,192,249860,128,0,251206:0:0:0:0:
192,192,249860,1,0,0:0:0:0:
448,192,249860,1,0,0:0:0:0:
320,192,249956,1,0,0:0:0:0:
192,192,250053,1,0,0:0:0:0:
448,192,250053,1,0,0:0:0:0:
320,192,250149,1,0,0:0:0:0:
192,192,250245,1,0,0:0:0:0:
448,192,250245,1,0,0:0:0:0:
320,192,250341,1,0,0:0:0:0:
192,192,250437,1,0,0:0:0:0:
448,192,250437,1,0,0:0:0:0:
320,192,250533,1,0,0:0:0:0:
192,192,250630,1,0,0:0:0:0:
448,192,250630,1,0,0:0:0:0:
320,192,250726,1,0,0:0:0:0:
192,192,250822,1,0,0:0:0:0:
448,192,250822,1,0,0:0:0:0:
320,192,250918,1,0,0:0:0:0:
192,192,251014,1,0,0:0:0:0:
448,192,251014,1,0,0:0:0:0:
320,192,251110,1,0,0:0:0:0:
192,192,251206,1,0,0:0:0:0:
448,192,251206,1,0,0:0:0:0:
320,192,251303,1,0,0:0:0:0:
64,192,251399,128,0,252745:0:0:0:0:
448,192,251399,1,0,0:0:0:0:
192,192,251399,128,0,252745:0:0:0:0:
320,192,251495,1,0,0:0:0:0:
448,192,251591,1,0,0:0:0:0:
320,192,251687,1,0,0:0:0:0:
448,192,251783,1,0,0:0:0:0:
320,192,251880,1,0,0:0:0:0:
448,192,251976,1,0,0:0:0:0:
320,192,252072,1,0,0:0:0:0:
448,192,252168,1,0,0:0:0:0:
320,192,252264,1,0,0:0:0:0:
448,192,252360,1,0,0:0:0:0:
320,192,252456,1,0,0:0:0:0:
448,192,252553,1,0,0:0:0:0:
320,192,252601,1,0,0:0:0:0:
448,192,252649,1,0,0:0:0:0:
320,192,252745,1,0,0:0:0:0:
192,192,252841,1,0,0:0:0:0:
64,192,252937,128,0,257553:0:0:0:0:
448,192,252937,128,0,257553:0:0:0:0:
320,192,252937,1,0,0:0:0:0:
192,192,253033,1,0,0:0:0:0:
320,192,253130,1,0,0:0:0:0:
192,192,253226,1,0,0:0:0:0:
320,192,253322,1,0,0:0:0:0:
192,192,253418,1,0,0:0:0:0:
320,192,253514,1,0,0:0:0:0:
192,192,253610,1,0,0:0:0:0:
320,192,253706,1,0,0:0:0:0:
192,192,253803,1,0,0:0:0:0:
320,192,253899,1,0,0:0:0:0:
192,192,253995,1,0,0:0:0:0:
320,192,254091,1,0,0:0:0:0:
192,192,254187,1,0,0:0:0:0:
320,192,254283,1,0,0:0:0:0:
192,192,254380,1,0,0:0:0:0:
320,192,254476,1,0,0:0:0:0:
192,192,254572,1,0,0:0:0:0:
320,192,254668,1,0,0:0:0:0:
192,192,254764,1,0,0:0:0:0:
320,192,254860,1,0,0:0:0:0:
192,192,254956,1,0,0:0:0:0:
320,192,255053,1,0,0:0:0:0:
192,192,255149,1,0,0:0:0:0:
320,192,255245,1,0,0:0:0:0:
192,192,255341,1,0,0:0:0:0:
320,192,255437,1,0,0:0:0:0:
192,192,255533,1,0,0:0:0:0:
320,192,255630,1,0,0:0:0:0:
192,192,255726,1,0,0:0:0:0:
320,192,255822,1,0,0:0:0:0:
192,192,255918,1,0,0:0:0:0:
320,192,256014,1,0,0:0:0:0:
192,192,256110,1,0,0:0:0:0:
320,192,256206,1,0,0:0:0:0:
192,192,256303,1,0,0:0:0:0:
320,192,256399,5,0,0:0:0:0:
192,192,256495,1,0,0:0:0:0:
320,192,256591,1,0,0:0:0:0:
192,192,256687,1,0,0:0:0:0:
320,192,256783,1,0,0:0:0:0:
192,192,256880,1,0,0:0:0:0:
320,192,256976,1,0,0:0:0:0:
192,192,257072,1,0,0:0:0:0:
320,192,257168,1,0,0:0:0:0:
192,192,257264,1,0,0:0:0:0:
320,192,257360,1,0,0:0:0:0:
192,192,257456,1,0,0:0:0:0:
192,192,257553,5,0,0:0:0:0:
320,192,257553,1,0,0:0:0:0:
192,192,257649,1,0,0:0:0:0:
64,192,257649,1,0,0:0:0:0:
320,192,257745,1,0,0:0:0:0:
448,192,257745,1,0,0:0:0:0:
192,192,257841,1,0,0:0:0:0:
64,192,257841,1,0,0:0:0:0:
320,192,257937,1,0,0:0:0:0:
448,192,257937,1,0,0:0:0:0:
64,192,258033,1,0,0:0:0:0:
192,192,258033,1,0,0:0:0:0:
320,192,258130,1,0,0:0:0:0:
448,192,258130,1,0,0:0:0:0:
192,192,258226,1,0,0:0:0:0:
64,192,258226,1,0,0:0:0:0:
320,192,258322,1,0,0:0:0:0:
448,192,258322,1,0,0:0:0:0:
192,192,258418,1,0,0:0:0:0:
64,192,258418,1,0,0:0:0:0:
320,192,258514,1,0,0:0:0:0:
448,192,258514,1,0,0:0:0:0:
192,192,258610,1,0,0:0:0:0:
64,192,258610,1,0,0:0:0:0:
320,192,258706,1,0,0:0:0:0:
448,192,258706,1,0,0:0:0:0:
192,192,258803,1,0,0:0:0:0:
64,192,258803,1,0,0:0:0:0:
320,192,258899,1,0,0:0:0:0:
448,192,258899,1,0,0:0:0:0:
64,192,258995,1,0,0:0:0:0:
192,192,258995,1,0,0:0:0:0:
448,192,259091,128,0,259476:0:0:0:0:
64,192,259476,1,0,0:0:0:0:
320,192,259476,1,0,0:0:0:0:
192,192,259540,1,0,0:0:0:0:
320,192,259604,1,0,0:0:0:0:
448,192,259668,1,0,0:0:0:0:
192,192,259668,1,0,0:0:0:0:
64,192,259732,1,0,0:0:0:0:
192,192,259796,1,0,0:0:0:0:
320,192,259860,1,0,0:0:0:0:
64,192,259860,1,0,0:0:0:0:
448,192,259924,1,0,0:0:0:0:
320,192,259988,1,0,0:0:0:0:
192,192,260053,1,0,0:0:0:0:
448,192,260053,1,0,0:0:0:0:
64,192,260117,1,0,0:0:0:0:
448,192,260181,1,0,0:0:0:0:
320,192,260245,1,0,0:0:0:0:
64,192,260245,1,0,0:0:0:0:
192,192,260309,1,0,0:0:0:0:
64,192,260373,1,0,0:0:0:0:
192,192,260437,1,0,0:0:0:0:
448,192,260437,1,0,0:0:0:0:
320,192,260501,1,0,0:0:0:0:
192,192,260565,1,0,0:0:0:0:
320,192,260630,1,0,0:0:0:0:
64,192,260630,1,0,0:0:0:0:
448,192,260694,1,0,0:0:0:0:
320,192,260758,1,0,0:0:0:0:
192,192,260822,1,0,0:0:0:0:
448,192,260822,1,0,0:0:0:0:
64,192,260886,1,0,0:0:0:0:
192,192,260950,1,0,0:0:0:0:
320,192,261014,1,0,0:0:0:0:
64,192,261014,1,0,0:0:0:0:
448,192,261078,1,0,0:0:0:0:
320,192,261142,1,0,0:0:0:0:
192,192,261206,1,0,0:0:0:0:
448,192,261206,1,0,0:0:0:0:
64,192,261271,1,0,0:0:0:0:
192,192,261335,1,0,0:0:0:0:
320,192,261399,1,0,0:0:0:0:
64,192,261399,1,0,0:0:0:0:
448,192,261463,1,0,0:0:0:0:
64,192,261527,1,0,0:0:0:0:
320,192,261591,1,0,0:0:0:0:
448,192,261591,1,0,0:0:0:0:
64,192,261655,1,0,0:0:0:0:
320,192,261719,1,0,0:0:0:0:
64,192,261783,1,0,0:0:0:0:
192,192,261783,1,0,0:0:0:0:
320,192,261847,1,0,0:0:0:0:
448,192,261912,1,0,0:0:0:0:
192,192,261976,1,0,0:0:0:0:
64,192,261976,1,0,0:0:0:0:
448,192,262040,1,0,0:0:0:0:
192,192,262104,1,0,0:0:0:0:
448,192,262168,1,0,0:0:0:0:
320,192,262168,1,0,0:0:0:0:
64,192,262232,1,0,0:0:0:0:
448,192,262296,1,0,0:0:0:0:
64,192,262360,1,0,0:0:0:0:
192,192,262360,1,0,0:0:0:0:
448,192,262424,1,0,0:0:0:0:
64,192,262488,1,0,0:0:0:0:
448,192,262553,1,0,0:0:0:0:
320,192,262553,1,0,0:0:0:0:
64,192,262617,1,0,0:0:0:0:
448,192,262681,1,0,0:0:0:0:
64,192,262745,1,0,0:0:0:0:
192,192,262745,1,0,0:0:0:0:
448,192,262809,1,0,0:0:0:0:
64,192,262873,1,0,0:0:0:0:
448,192,262937,1,0,0:0:0:0:
320,192,262937,1,0,0:0:0:0:
64,192,263001,1,0,0:0:0:0:
448,192,263065,1,0,0:0:0:0:
64,192,263130,1,0,0:0:0:0:
192,192,263130,1,0,0:0:0:0:
448,192,263194,1,0,0:0:0:0:
64,192,263258,1,0,0:0:0:0:
448,192,263322,1,0,0:0:0:0:
320,192,263322,1,0,0:0:0:0:
64,192,263386,1,0,0:0:0:0:
448,192,263450,1,0,0:0:0:0:
64,192,263514,1,0,0:0:0:0:
192,192,263514,1,0,0:0:0:0:
448,192,263578,1,0,0:0:0:0:
64,192,263642,1,0,0:0:0:0:
192,192,263706,1,0,0:0:0:0:
448,192,263706,1,0,0:0:0:0:
320,192,263771,1,0,0:0:0:0:
448,192,263835,1,0,0:0:0:0:
320,192,263899,1,0,0:0:0:0:
64,192,263899,1,0,0:0:0:0:
192,192,263963,1,0,0:0:0:0:
320,192,264027,1,0,0:0:0:0:
192,192,264091,1,0,0:0:0:0:
448,192,264091,1,0,0:0:0:0:
64,192,264155,1,0,0:0:0:0:
192,192,264219,1,0,0:0:0:0:
320,192,264283,1,0,0:0:0:0:
448,192,264283,1,0,0:0:0:0:
192,192,264347,1,0,0:0:0:0:
64,192,264412,1,0,0:0:0:0:
192,192,264476,1,0,0:0:0:0:
448,192,264476,1,0,0:0:0:0:
320,192,264540,1,0,0:0:0:0:
192,192,264604,1,0,0:0:0:0:
64,192,264668,1,0,0:0:0:0:
320,192,264668,1,0,0:0:0:0:
448,192,264732,1,0,0:0:0:0:
320,192,264796,1,0,0:0:0:0:
192,192,264860,1,0,0:0:0:0:
64,192,264860,1,0,0:0:0:0:
320,192,264924,1,0,0:0:0:0:
448,192,264988,1,0,0:0:0:0:
320,192,265053,1,0,0:0:0:0:
64,192,265053,1,0,0:0:0:0:
192,192,265117,1,0,0:0:0:0:
320,192,265181,1,0,0:0:0:0:
448,192,265245,1,0,0:0:0:0:
64,192,265245,1,0,0:0:0:0:
192,192,265309,1,0,0:0:0:0:
320,192,265373,1,0,0:0:0:0:
448,192,265437,1,0,0:0:0:0:
64,192,265437,1,0,0:0:0:0:
192,192,265501,1,0,0:0:0:0:
320,192,265565,1,0,0:0:0:0:
448,192,265630,1,0,0:0:0:0:
64,192,265630,1,0,0:0:0:0:
192,192,265694,1,0,0:0:0:0:
320,192,265758,1,0,0:0:0:0:
448,192,265822,1,0,0:0:0:0:
64,192,265822,1,0,0:0:0:0:
192,192,265886,1,0,0:0:0:0:
320,192,265950,1,0,0:0:0:0:
448,192,266014,1,0,0:0:0:0:
64,192,266014,1,0,0:0:0:0:
320,192,266078,1,0,0:0:0:0:
192,192,266142,1,0,0:0:0:0:
64,192,266206,1,0,0:0:0:0:
448,192,266206,1,0,0:0:0:0:
320,192,266271,1,0,0:0:0:0:
192,192,266335,1,0,0:0:0:0:
64,192,266399,1,0,0:0:0:0:
448,192,266399,1,0,0:0:0:0:
320,192,266463,1,0,0:0:0:0:
192,192,266527,1,0,0:0:0:0:
64,192,266591,1,0,0:0:0:0:
448,192,266591,1,0,0:0:0:0:
320,192,266655,1,0,0:0:0:0:
192,192,266719,1,0,0:0:0:0:
64,192,266783,1,0,0:0:0:0:
320,192,266783,1,0,0:0:0:0:
448,192,266847,1,0,0:0:0:0:
320,192,266912,1,0,0:0:0:0:
64,192,266976,1,0,0:0:0:0:
448,192,266976,1,0,0:0:0:0:
192,192,267040,1,0,0:0:0:0:
320,192,267104,1,0,0:0:0:0:
448,192,267168,1,0,0:0:0:0:
192,192,267168,1,0,0:0:0:0:
64,192,267232,1,0,0:0:0:0:
192,192,267296,1,0,0:0:0:0:
320,192,267360,1,0,0:0:0:0:
64,192,267360,1,0,0:0:0:0:
192,192,267424,1,0,0:0:0:0:
320,192,267488,1,0,0:0:0:0:
448,192,267553,1,0,0:0:0:0:
192,192,267553,1,0,0:0:0:0:
320,192,267617,1,0,0:0:0:0:
192,192,267681,1,0,0:0:0:0:
320,192,267745,1,0,0:0:0:0:
448,192,267745,1,0,0:0:0:0:
192,192,267809,1,0,0:0:0:0:
64,192,267873,1,0,0:0:0:0:
192,192,267937,1,0,0:0:0:0:
448,192,267937,1,0,0:0:0:0:
320,192,268001,1,0,0:0:0:0:
64,192,268065,1,0,0:0:0:0:
192,192,268130,1,0,0:0:0:0:
448,192,268130,1,0,0:0:0:0:
320,192,268194,1,0,0:0:0:0:
192,192,268258,1,0,0:0:0:0:
64,192,268322,1,0,0:0:0:0:
448,192,268322,1,0,0:0:0:0:
320,192,268386,1,0,0:0:0:0:
192,192,268450,1,0,0:0:0:0:
64,192,268514,1,0,0:0:0:0:
320,192,268514,1,0,0:0:0:0:
448,192,268578,1,0,0:0:0:0:
320,192,268642,1,0,0:0:0:0:
192,192,268706,1,0,0:0:0:0:
64,192,268706,1,0,0:0:0:0:
320,192,268771,1,0,0:0:0:0:
448,192,268835,1,0,0:0:0:0:
320,192,268899,1,0,0:0:0:0:
192,192,268899,1,0,0:0:0:0:
64,192,268963,1,0,0:0:0:0:
192,192,269027,1,0,0:0:0:0:
320,192,269091,1,0,0:0:0:0:
448,192,269091,1,0,0:0:0:0:
192,192,269155,1,0,0:0:0:0:
64,192,269219,1,0,0:0:0:0:
192,192,269283,1,0,0:0:0:0:
448,192,269283,1,0,0:0:0:0:
320,192,269347,1,0,0:0:0:0:
192,192,269412,1,0,0:0:0:0:
64,192,269476,1,0,0:0:0:0:
448,192,269476,1,0,0:0:0:0:
320,192,269540,1,0,0:0:0:0:
192,192,269604,1,0,0:0:0:0:
320,192,269668,1,0,0:0:0:0:
448,192,269668,1,0,0:0:0:0:
192,192,269732,1,0,0:0:0:0:
64,192,269796,1,0,0:0:0:0:
448,192,269860,1,0,0:0:0:0:
320,192,269860,1,0,0:0:0:0:
192,192,269924,1,0,0:0:0:0:
64,192,269924,1,0,0:0:0:0:
320,192,269988,1,0,0:0:0:0:
448,192,269988,1,0,0:0:0:0:
192,192,270053,1,0,0:0:0:0:
64,192,270053,1,0,0:0:0:0:
320,192,270117,1,0,0:0:0:0:
448,192,270117,1,0,0:0:0:0:
192,192,270181,1,0,0:0:0:0:
64,192,270181,1,0,0:0:0:0:
320,192,270245,1,0,0:0:0:0:
448,192,270245,1,0,0:0:0:0:
192,192,270309,1,0,0:0:0:0:
64,192,270309,1,0,0:0:0:0:
320,192,270373,1,0,0:0:0:0:
448,192,270373,1,0,0:0:0:0:
192,192,270437,1,0,0:0:0:0:
64,192,270437,1,0,0:0:0:0:
320,192,270501,1,0,0:0:0:0:
448,192,270501,1,0,0:0:0:0:
192,192,270565,1,0,0:0:0:0:
64,192,270565,1,0,0:0:0:0:
320,192,270630,1,0,0:0:0:0:
448,192,270630,1,0,0:0:0:0:
192,192,270694,1,0,0:0:0:0:
64,192,270694,1,0,0:0:0:0:
320,192,270758,1,0,0:0:0:0:
448,192,270758,1,0,0:0:0:0:
192,192,270822,1,0,0:0:0:0:
64,192,270822,1,0,0:0:0:0:
320,192,270886,1,0,0:0:0:0:
448,192,270886,1,0,0:0:0:0:
192,192,270950,1,0,0:0:0:0:
64,192,270950,1,0,0:0:0:0:
320,192,271014,1,0,0:0:0:0:
448,192,271014,1,0,0:0:0:0:
192,192,271078,1,0,0:0:0:0:
64,192,271078,1,0,0:0:0:0:
320,192,271142,1,0,0:0:0:0:
448,192,271142,1,0,0:0:0:0:
192,192,271206,1,0,0:0:0:0:
64,192,271206,1,0,0:0:0:0:
320,192,271271,1,0,0:0:0:0:
448,192,271271,1,0,0:0:0:0:
192,192,271335,1,0,0:0:0:0:
64,192,271335,1,0,0:0:0:0:
448,192,271399,1,0,0:0:0:0:
320,192,271399,1,0,0:0:0:0:
64,192,271399,1,0,0:0:0:0:
192,192,271463,1,0,0:0:0:0:
64,192,271527,1,0,0:0:0:0:
192,192,271591,1,0,0:0:0:0:
320,192,271591,1,0,0:0:0:0:
448,192,271591,1,0,0:0:0:0:
64,192,271655,1,0,0:0:0:0:
192,192,271719,1,0,0:0:0:0:
448,192,271783,1,0,0:0:0:0:
320,192,271783,1,0,0:0:0:0:
64,192,271783,1,0,0:0:0:0:
192,192,271847,1,0,0:0:0:0:
320,192,271912,1,0,0:0:0:0:
448,192,271976,1,0,0:0:0:0:
192,192,271976,1,0,0:0:0:0:
64,192,271976,1,0,0:0:0:0:
320,192,272040,1,0,0:0:0:0:
192,192,272104,1,0,0:0:0:0:
64,192,272168,1,0,0:0:0:0:
320,192,272168,1,0,0:0:0:0:
448,192,272168,1,0,0:0:0:0:
192,192,272232,1,0,0:0:0:0:
320,192,272296,1,0,0:0:0:0:
448,192,272360,1,0,0:0:0:0:
192,192,272360,1,0,0:0:0:0:
64,192,272360,1,0,0:0:0:0:
320,192,272424,1,0,0:0:0:0:
192,192,272488,1,0,0:0:0:0:
64,192,272553,1,0,0:0:0:0:
320,192,272553,1,0,0:0:0:0:
448,192,272553,1,0,0:0:0:0:
192,192,272617,1,0,0:0:0:0:
320,192,272681,1,0,0:0:0:0:
448,192,272745,1,0,0:0:0:0:
192,192,272745,1,0,0:0:0:0:
64,192,272745,1,0,0:0:0:0:
320,192,272809,1,0,0:0:0:0:
192,192,272873,1,0,0:0:0:0:
64,192,272937,1,0,0:0:0:0:
320,192,272937,1,0,0:0:0:0:
448,192,272937,1,0,0:0:0:0:
192,192,273001,1,0,0:0:0:0:
320,192,273065,1,0,0:0:0:0:
448,192,273130,1,0,0:0:0:0:
192,192,273130,1,0,0:0:0:0:
64,192,273130,1,0,0:0:0:0:
320,192,273194,1,0,0:0:0:0:
448,192,273258,1,0,0:0:0:0:
320,192,273322,1,0,0:0:0:0:
192,192,273322,1,0,0:0:0:0:
64,192,273322,1,0,0:0:0:0:
448,192,273386,1,0,0:0:0:0:
320,192,273450,1,0,0:0:0:0:
192,192,273514,1,0,0:0:0:0:
64,192,273514,1,0,0:0:0:0:
448,192,273514,1,0,0:0:0:0:
320,192,273578,1,0,0:0:0:0:
192,192,273642,1,0,0:0:0:0:
64,192,273706,1,0,0:0:0:0:
320,192,273706,1,0,0:0:0:0:
448,192,273706,1,0,0:0:0:0:
192,192,273771,1,0,0:0:0:0:
64,192,273835,1,0,0:0:0:0:
320,192,273899,1,0,0:0:0:0:
448,192,273899,1,0,0:0:0:0:
192,192,273899,1,0,0:0:0:0:
64,192,273963,1,0,0:0:0:0:
192,192,274027,1,0,0:0:0:0:
320,192,274091,1,0,0:0:0:0:
64,192,274091,1,0,0:0:0:0:
448,192,274091,1,0,0:0:0:0:
192,192,274155,1,0,0:0:0:0:
320,192,274219,1,0,0:0:0:0:
448,192,274283,1,0,0:0:0:0:
192,192,274283,1,0,0:0:0:0:
64,192,274283,1,0,0:0:0:0:
320,192,274347,1,0,0:0:0:0:
448,192,274412,1,0,0:0:0:0:
320,192,274476,1,0,0:0:0:0:
192,192,274476,1,0,0:0:0:0:
64,192,274476,1,0,0:0:0:0:
448,192,274540,1,0,0:0:0:0:
64,192,274604,1,0,0:0:0:0:
192,192,274668,1,0,0:0:0:0:
320,192,274668,1,0,0:0:0:0:
448,192,274668,1,0,0:0:0:0:
64,192,274732,1,0,0:0:0:0:
448,192,274796,1,0,0:0:0:0:
320,192,274860,1,0,0:0:0:0:
192,192,274860,1,0,0:0:0:0:
64,192,274860,1,0,0:0:0:0:
448,192,274924,1,0,0:0:0:0:
64,192,274988,1,0,0:0:0:0:
448,192,275053,1,0,0:0:0:0:
320,192,275053,1,0,0:0:0:0:
192,192,275053,1,0,0:0:0:0:
64,192,275117,1,0,0:0:0:0:
448,192,275181,1,0,0:0:0:0:
64,192,275245,1,0,0:0:0:0:
192,192,275245,1,0,0:0:0:0:
320,192,275245,1,0,0:0:0:0:
448,192,275309,1,0,0:0:0:0:
64,192,275373,1,0,0:0:0:0:
448,192,275437,1,0,0:0:0:0:
320,192,275437,1,0,0:0:0:0:
192,192,275437,1,0,0:0:0:0:
64,192,275501,1,0,0:0:0:0:
448,192,275565,1,0,0:0:0:0:
64,192,275630,1,0,0:0:0:0:
192,192,275630,1,0,0:0:0:0:
320,192,275630,1,0,0:0:0:0:
448,192,275694,1,0,0:0:0:0:
64,192,275758,1,0,0:0:0:0:
448,192,275822,1,0,0:0:0:0:
320,192,275822,1,0,0:0:0:0:
192,192,275822,1,0,0:0:0:0:
64,192,275886,1,0,0:0:0:0:
448,192,275950,1,0,0:0:0:0:
64,192,276014,1,0,0:0:0:0:
192,192,276014,1,0,0:0:0:0:
320,192,276014,1,0,0:0:0:0:
448,192,276078,1,0,0:0:0:0:
320,192,276142,1,0,0:0:0:0:
192,192,276206,1,0,0:0:0:0:
64,192,276206,1,0,0:0:0:0:
448,192,276206,1,0,0:0:0:0:
320,192,276271,1,0,0:0:0:0:
192,192,276335,1,0,0:0:0:0:
64,192,276399,1,0,0:0:0:0:
320,192,276399,1,0,0:0:0:0:
448,192,276399,1,0,0:0:0:0:
192,192,276463,1,0,0:0:0:0:
64,192,276527,1,0,0:0:0:0:
192,192,276591,1,0,0:0:0:0:
320,192,276591,1,0,0:0:0:0:
448,192,276591,1,0,0:0:0:0:
64,192,276655,1,0,0:0:0:0:
192,192,276719,1,0,0:0:0:0:
448,192,276783,1,0,0:0:0:0:
64,192,276783,1,0,0:0:0:0:
320,192,276783,1,0,0:0:0:0:
192,192,276847,1,0,0:0:0:0:
320,192,276912,1,0,0:0:0:0:
448,192,276976,1,0,0:0:0:0:
192,192,276976,1,0,0:0:0:0:
64,192,276976,1,0,0:0:0:0:
320,192,277040,1,0,0:0:0:0:
448,192,277104,1,0,0:0:0:0:
320,192,277168,1,0,0:0:0:0:
64,192,277168,1,0,0:0:0:0:
192,192,277168,1,0,0:0:0:0:
448,192,277232,1,0,0:0:0:0:
320,192,277296,1,0,0:0:0:0:
192,192,277360,1,0,0:0:0:0:
64,192,277360,1,0,0:0:0:0:
448,192,277360,1,0,0:0:0:0:
320,192,277424,1,0,0:0:0:0:
192,192,277488,1,0,0:0:0:0:
64,192,277553,1,0,0:0:0:0:
448,192,277553,1,0,0:0:0:0:
320,192,277553,1,0,0:0:0:0:
192,192,277617,1,0,0:0:0:0:
320,192,277681,1,0,0:0:0:0:
448,192,277745,1,0,0:0:0:0:
192,192,277745,1,0,0:0:0:0:
64,192,277745,1,0,0:0:0:0:
320,192,277809,1,0,0:0:0:0:
192,192,277873,1,0,0:0:0:0:
64,192,277937,1,0,0:0:0:0:
320,192,277937,1,0,0:0:0:0:
448,192,277937,1,0,0:0:0:0:
192,192,278001,1,0,0:0:0:0:
320,192,278065,1,0,0:0:0:0:
448,192,278130,1,0,0:0:0:0:
192,192,278130,1,0,0:0:0:0:
64,192,278130,1,0,0:0:0:0:
320,192,278194,1,0,0:0:0:0:
192,192,278258,1,0,0:0:0:0:
64,192,278322,1,0,0:0:0:0:
320,192,278322,1,0,0:0:0:0:
448,192,278322,1,0,0:0:0:0:
192,192,278386,1,0,0:0:0:0:
320,192,278450,1,0,0:0:0:0:
448,192,278514,1,0,0:0:0:0:
192,192,278514,1,0,0:0:0:0:
64,192,278514,1,0,0:0:0:0:
320,192,278578,1,0,0:0:0:0:
192,192,278642,1,0,0:0:0:0:
64,192,278706,1,0,0:0:0:0:
320,192,278706,1,0,0:0:0:0:
448,192,278706,1,0,0:0:0:0:
192,192,278771,1,0,0:0:0:0:
320,192,278835,1,0,0:0:0:0:
448,192,278899,1,0,0:0:0:0:
192,192,278899,1,0,0:0:0:0:
64,192,278899,1,0,0:0:0:0:
320,192,278963,1,0,0:0:0:0:
192,192,279027,1,0,0:0:0:0:
64,192,279091,1,0,0:0:0:0:
320,192,279091,1,0,0:0:0:0:
448,192,279091,1,0,0:0:0:0:
192,192,279155,1,0,0:0:0:0:
320,192,279219,1,0,0:0:0:0:
448,192,279283,1,0,0:0:0:0:
192,192,279283,1,0,0:0:0:0:
64,192,279283,1,0,0:0:0:0:
320,192,279347,1,0,0:0:0:0:
192,192,279412,1,0,0:0:0:0:
320,192,279476,1,0,0:0:0:0:
448,192,279476,1,0,0:0:0:0:
64,192,279476,1,0,0:0:0:0:
192,192,279540,1,0,0:0:0:0:
64,192,279604,1,0,0:0:0:0:
192,192,279668,1,0,0:0:0:0:
320,192,279668,1,0,0:0:0:0:
448,192,279668,1,0,0:0:0:0:
64,192,279732,1,0,0:0:0:0:
192,192,279796,1,0,0:0:0:0:
448,192,279860,1,0,0:0:0:0:
320,192,279860,1,0,0:0:0:0:
64,192,279860,1,0,0:0:0:0:
192,192,279924,1,0,0:0:0:0:
320,192,279988,1,0,0:0:0:0:
448,192,280053,1,0,0:0:0:0:
192,192,280053,1,0,0:0:0:0:
64,192,280053,1,0,0:0:0:0:
320,192,280117,1,0,0:0:0:0:
192,192,280181,1,0,0:0:0:0:
64,192,280245,1,0,0:0:0:0:
448,192,280245,1,0,0:0:0:0:
320,192,280245,1,0,0:0:0:0:
192,192,280309,1,0,0:0:0:0:
64,192,280373,1,0,0:0:0:0:
192,192,280437,1,0,0:0:0:0:
320,192,280437,1,0,0:0:0:0:
448,192,280437,1,0,0:0:0:0:
64,192,280501,1,0,0:0:0:0:
192,192,280565,1,0,0:0:0:0:
448,192,280630,1,0,0:0:0:0:
320,192,280630,1,0,0:0:0:0:
64,192,280630,1,0,0:0:0:0:
192,192,280694,1,0,0:0:0:0:
320,192,280758,1,0,0:0:0:0:
192,192,280822,1,0,0:0:0:0:
64,192,280822,1,0,0:0:0:0:
448,192,280822,1,0,0:0:0:0:
320,192,280886,1,0,0:0:0:0:
192,192,280950,1,0,0:0:0:0:
320,192,281014,1,0,0:0:0:0:
448,192,281014,1,0,0:0:0:0:
64,192,281014,1,0,0:0:0:0:
192,192,281078,1,0,0:0:0:0:
320,192,281142,1,0,0:0:0:0:
192,192,281206,1,0,0:0:0:0:
64,192,281206,1,0,0:0:0:0:
448,192,281206,1,0,0:0:0:0:
320,192,281271,1,0,0:0:0:0:
192,192,281335,1,0,0:0:0:0:
320,192,281399,1,0,0:0:0:0:
448,192,281399,1,0,0:0:0:0:
64,192,281399,1,0,0:0:0:0:
192,192,281463,1,0,0:0:0:0:
320,192,281527,1,0,0:0:0:0:
192,192,281591,1,0,0:0:0:0:
64,192,281591,1,0,0:0:0:0:
448,192,281591,1,0,0:0:0:0:
320,192,281655,1,0,0:0:0:0:
192,192,281719,1,0,0:0:0:0:
320,192,281783,1,0,0:0:0:0:
448,192,281783,1,0,0:0:0:0:
64,192,281783,1,0,0:0:0:0:
192,192,281847,1,0,0:0:0:0:
320,192,281912,1,0,0:0:0:0:
192,192,281976,1,0,0:0:0:0:
64,192,281976,1,0,0:0:0:0:
448,192,281976,1,0,0:0:0:0:
320,192,282040,1,0,0:0:0:0:
192,192,282104,1,0,0:0:0:0:
448,192,282168,1,0,0:0:0:0:
320,192,282168,1,0,0:0:0:0:
192,192,282232,1,0,0:0:0:0:
320,192,282296,1,0,0:0:0:0:
448,192,282296,1,0,0:0:0:0:
192,192,282360,1,0,0:0:0:0:
320,192,282424,1,0,0:0:0:0:
448,192,282424,1,0,0:0:0:0:
192,192,282488,1,0,0:0:0:0:
320,192,282553,1,0,0:0:0:0:
448,192,282553,1,0,0:0:0:0:
192,192,282617,1,0,0:0:0:0:
320,192,282681,1,0,0:0:0:0:
448,192,282681,1,0,0:0:0:0:
192,192,282745,1,0,0:0:0:0:
320,192,282809,1,0,0:0:0:0:
448,192,282809,1,0,0:0:0:0:
192,192,282873,1,0,0:0:0:0:
320,192,282937,1,0,0:0:0:0:
448,192,282937,1,0,0:0:0:0:
192,192,283001,1,0,0:0:0:0:
64,192,283001,1,0,0:0:0:0:
320,192,283065,1,0,0:0:0:0:
448,192,283065,1,0,0:0:0:0:
192,192,283130,1,0,0:0:0:0:
64,192,283130,1,0,0:0:0:0:
320,192,283194,1,0,0:0:0:0:
448,192,283194,1,0,0:0:0:0:
192,192,283258,1,0,0:0:0:0:
64,192,283258,1,0,0:0:0:0:
320,192,283322,1,0,0:0:0:0:
448,192,283322,1,0,0:0:0:0:
192,192,283370,1,0,0:0:0:0:
64,192,283370,1,0,0:0:0:0:
320,192,283418,1,0,0:0:0:0:
448,192,283418,1,0,0:0:0:0:
192,192,283466,1,0,0:0:0:0:
64,192,283466,1,0,0:0:0:0:
320,192,283514,1,0,0:0:0:0:
448,192,283514,1,0,0:0:0:0:
192,192,283578,1,0,0:0:0:0:
64,192,283578,1,0,0:0:0:0:
320,192,283642,1,0,0:0:0:0:
448,192,283642,1,0,0:0:0:0:
192,192,283706,1,0,0:0:0:0:
64,192,283706,1,0,0:0:0:0:
320,192,283771,1,0,0:0:0:0:
448,192,283835,1,0,0:0:0:0:
320,192,283899,1,0,0:0:0:0:
64,192,283899,1,0,0:0:0:0:
192,192,283899,1,0,0:0:0:0:
448,192,283963,1,0,0:0:0:0:
320,192,284027,1,0,0:0:0:0:
192,192,284091,1,0,0:0:0:0:
64,192,284091,1,0,0:0:0:0:
448,192,284091,1,0,0:0:0:0:
320,192,284155,1,0,0:0:0:0:
192,192,284219,1,0,0:0:0:0:
64,192,284283,1,0,0:0:0:0:
320,192,284283,1,0,0:0:0:0:
448,192,284283,1,0,0:0:0:0:
192,192,284347,1,0,0:0:0:0:
320,192,284412,1,0,0:0:0:0:
448,192,284476,1,0,0:0:0:0:
192,192,284476,1,0,0:0:0:0:
64,192,284476,1,0,0:0:0:0:
320,192,284540,1,0,0:0:0:0:
192,192,284604,1,0,0:0:0:0:
64,192,284668,1,0,0:0:0:0:
320,192,284668,1,0,0:0:0:0:
448,192,284668,1,0,0:0:0:0:
192,192,284732,1,0,0:0:0:0:
320,192,284796,1,0,0:0:0:0:
448,192,284860,1,0,0:0:0:0:
192,192,284860,1,0,0:0:0:0:
64,192,284860,1,0,0:0:0:0:
320,192,284924,1,0,0:0:0:0:
192,192,284988,1,0,0:0:0:0:
64,192,285053,1,0,0:0:0:0:
320,192,285053,1,0,0:0:0:0:
448,192,285053,1,0,0:0:0:0:
192,192,285117,1,0,0:0:0:0:
64,192,285181,1,0,0:0:0:0:
192,192,285245,1,0,0:0:0:0:
320,192,285245,1,0,0:0:0:0:
448,192,285245,1,0,0:0:0:0:
64,192,285309,1,0,0:0:0:0:
192,192,285373,1,0,0:0:0:0:
448,192,285437,1,0,0:0:0:0:
320,192,285437,1,0,0:0:0:0:
64,192,285437,1,0,0:0:0:0:
192,192,285501,1,0,0:0:0:0:
320,192,285565,1,0,0:0:0:0:
448,192,285630,1,0,0:0:0:0:
192,192,285630,1,0,0:0:0:0:
64,192,285630,1,0,0:0:0:0:
320,192,285694,1,0,0:0:0:0:
192,192,285758,1,0,0:0:0:0:
64,192,285822,1,0,0:0:0:0:
320,192,285822,1,0,0:0:0:0:
448,192,285822,1,0,0:0:0:0:
192,192,285886,1,0,0:0:0:0:
320,192,285950,1,0,0:0:0:0:
448,192,286014,1,0,0:0:0:0:
192,192,286014,1,0,0:0:0:0:
64,192,286014,1,0,0:0:0:0:
320,192,286078,1,0,0:0:0:0:
192,192,286142,1,0,0:0:0:0:
64,192,286206,1,0,0:0:0:0:
320,192,286206,1,0,0:0:0:0:
448,192,286206,1,0,0:0:0:0:
192,192,286271,1,0,0:0:0:0:
320,192,286335,1,0,0:0:0:0:
448,192,286399,1,0,0:0:0:0:
192,192,286399,1,0,0:0:0:0:
64,192,286399,1,0,0:0:0:0:
320,192,286463,1,0,0:0:0:0:
192,192,286527,1,0,0:0:0:0:
64,192,286591,1,0,0:0:0:0:
320,192,286591,1,0,0:0:0:0:
448,192,286591,1,0,0:0:0:0:
192,192,286655,1,0,0:0:0:0:
64,192,286719,1,0,0:0:0:0:
192,192,286783,1,0,0:0:0:0:
320,192,286783,1,0,0:0:0:0:
448,192,286783,1,0,0:0:0:0:
64,192,286847,1,0,0:0:0:0:
448,192,286912,1,0,0:0:0:0:
64,192,286976,1,0,0:0:0:0:
320,192,286976,1,0,0:0:0:0:
192,192,286976,1,0,0:0:0:0:
448,192,287040,1,0,0:0:0:0:
64,192,287104,1,0,0:0:0:0:
448,192,287168,1,0,0:0:0:0:
192,192,287168,1,0,0:0:0:0:
320,192,287168,1,0,0:0:0:0:
64,192,287232,1,0,0:0:0:0:
448,192,287296,1,0,0:0:0:0:
64,192,287360,1,0,0:0:0:0:
192,192,287360,1,0,0:0:0:0:
320,192,287360,1,0,0:0:0:0:
448,192,287424,1,0,0:0:0:0:
64,192,287488,1,0,0:0:0:0:
448,192,287553,1,0,0:0:0:0:
320,192,287553,1,0,0:0:0:0:
192,192,287553,1,0,0:0:0:0:
64,192,287617,1,0,0:0:0:0:
448,192,287681,1,0,0:0:0:0:
64,192,287745,1,0,0:0:0:0:
192,192,287745,1,0,0:0:0:0:
320,192,287745,1,0,0:0:0:0:
448,192,287809,1,0,0:0:0:0:
64,192,287873,1,0,0:0:0:0:
448,192,287937,1,0,0:0:0:0:
320,192,287937,1,0,0:0:0:0:
192,192,287937,1,0,0:0:0:0:
64,192,288001,1,0,0:0:0:0:
448,192,288065,1,0,0:0:0:0:
64,192,288130,1,0,0:0:0:0:
192,192,288130,1,0,0:0:0:0:
320,192,288130,1,0,0:0:0:0:
448,192,288194,1,0,0:0:0:0:
64,192,288258,1,0,0:0:0:0:
192,192,288322,1,0,0:0:0:0:
320,192,288322,1,0,0:0:0:0:
448,192,288322,1,0,0:0:0:0:
64,192,288386,1,0,0:0:0:0:
192,192,288450,1,0,0:0:0:0:
320,192,288514,1,0,0:0:0:0:
448,192,288514,1,0,0:0:0:0:
64,192,288514,1,0,0:0:0:0:
192,192,288578,1,0,0:0:0:0:
320,192,288642,1,0,0:0:0:0:
448,192,288706,1,0,0:0:0:0:
192,192,288706,1,0,0:0:0:0:
64,192,288706,1,0,0:0:0:0:
320,192,288771,1,0,0:0:0:0:
448,192,288835,1,0,0:0:0:0:
320,192,288899,1,0,0:0:0:0:
192,192,288899,1,0,0:0:0:0:
64,192,288899,1,0,0:0:0:0:
448,192,288963,1,0,0:0:0:0:
320,192,289027,1,0,0:0:0:0:
192,192,289091,1,0,0:0:0:0:
64,192,289091,1,0,0:0:0:0:
448,192,289091,1,0,0:0:0:0:
320,192,289155,1,0,0:0:0:0:
192,192,289219,1,0,0:0:0:0:
64,192,289283,1,0,0:0:0:0:
320,192,289283,1,0,0:0:0:0:
448,192,289283,1,0,0:0:0:0:
192,192,289347,1,0,0:0:0:0:
64,192,289412,1,0,0:0:0:0:
192,192,289476,1,0,0:0:0:0:
320,192,289476,1,0,0:0:0:0:
448,192,289476,1,0,0:0:0:0:
64,192,289540,1,0,0:0:0:0:
192,192,289604,1,0,0:0:0:0:
320,192,289668,1,0,0:0:0:0:
448,192,289668,1,0,0:0:0:0:
64,192,289668,1,0,0:0:0:0:
192,192,289732,1,0,0:0:0:0:
320,192,289796,1,0,0:0:0:0:
64,192,289860,1,0,0:0:0:0:
192,192,289860,1,0,0:0:0:0:
448,192,289860,1,0,0:0:0:0:
320,192,289924,1,0,0:0:0:0:
448,192,289988,1,0,0:0:0:0:
320,192,290053,1,0,0:0:0:0:
64,192,290053,1,0,0:0:0:0:
192,192,290053,1,0,0:0:0:0:
448,192,290117,1,0,0:0:0:0:
320,192,290181,1,0,0:0:0:0:
192,192,290245,1,0,0:0:0:0:
64,192,290245,1,0,0:0:0:0:
448,192,290245,1,0,0:0:0:0:
320,192,290309,1,0,0:0:0:0:
192,192,290373,1,0,0:0:0:0:
64,192,290437,1,0,0:0:0:0:
320,192,290437,1,0,0:0:0:0:
448,192,290437,1,0,0:0:0:0:
192,192,290501,1,0,0:0:0:0:
64,192,290565,1,0,0:0:0:0:
192,192,290630,1,0,0:0:0:0:
320,192,290630,1,0,0:0:0:0:
448,192,290630,1,0,0:0:0:0:
64,192,290694,1,0,0:0:0:0:
192,192,290758,1,0,0:0:0:0:
448,192,290822,1,0,0:0:0:0:
320,192,290822,1,0,0:0:0:0:
64,192,290822,1,0,0:0:0:0:
192,192,290886,1,0,0:0:0:0:
320,192,290950,1,0,0:0:0:0:
448,192,291014,1,0,0:0:0:0:
192,192,291014,1,0,0:0:0:0:
64,192,291014,1,0,0:0:0:0:
320,192,291078,1,0,0:0:0:0:
192,192,291142,1,0,0:0:0:0:
64,192,291206,1,0,0:0:0:0:
320,192,291206,1,0,0:0:0:0:
448,192,291206,1,0,0:0:0:0:
192,192,291271,1,0,0:0:0:0:
320,192,291335,1,0,0:0:0:0:
448,192,291399,1,0,0:0:0:0:
192,192,291399,1,0,0:0:0:0:
64,192,291399,1,0,0:0:0:0:
320,192,291463,1,0,0:0:0:0:
192,192,291527,1,0,0:0:0:0:
64,192,291591,1,0,0:0:0:0:
320,192,291591,1,0,0:0:0:0:
448,192,291591,1,0,0:0:0:0:
192,192,291655,1,0,0:0:0:0:
64,192,291719,1,0,0:0:0:0:
192,192,291783,1,0,0:0:0:0:
320,192,291783,1,0,0:0:0:0:
448,192,291783,1,0,0:0:0:0:
64,192,291847,1,0,0:0:0:0:
192,192,291912,1,0,0:0:0:0:
448,192,291976,1,0,0:0:0:0:
320,192,291976,1,0,0:0:0:0:
64,192,291976,1,0,0:0:0:0:
192,192,292040,1,0,0:0:0:0:
320,192,292104,1,0,0:0:0:0:
448,192,292168,1,0,0:0:0:0:
192,192,292168,1,0,0:0:0:0:
64,192,292168,1,0,0:0:0:0:
320,192,292232,1,0,0:0:0:0:
192,192,292296,1,0,0:0:0:0:
64,192,292360,1,0,0:0:0:0:
320,192,292360,1,0,0:0:0:0:
448,192,292360,1,0,0:0:0:0:
192,192,292424,1,0,0:0:0:0:
320,192,292488,1,0,0:0:0:0:
448,192,292553,1,0,0:0:0:0:
192,192,292553,1,0,0:0:0:0:
64,192,292553,1,0,0:0:0:0:
320,192,292617,1,0,0:0:0:0:
192,192,292681,1,0,0:0:0:0:
64,192,292745,1,0,0:0:0:0:
320,192,292745,1,0,0:0:0:0:
448,192,292745,1,0,0:0:0:0:
192,192,292809,1,0,0:0:0:0:
320,192,292873,1,0,0:0:0:0:
448,192,292937,1,0,0:0:0:0:
192,192,292937,1,0,0:0:0:0:
64,192,292937,1,0,0:0:0:0:
320,192,293001,1,0,0:0:0:0:
192,192,293065,1,0,0:0:0:0:
320,192,293130,1,0,0:0:0:0:
64,192,293130,1,0,0:0:0:0:
448,192,293130,1,0,0:0:0:0:
192,192,293194,1,0,0:0:0:0:
320,192,293258,1,0,0:0:0:0:
192,192,293322,1,0,0:0:0:0:
64,192,293322,1,0,0:0:0:0:
448,192,293322,1,0,0:0:0:0:
320,192,293386,1,0,0:0:0:0:
192,192,293450,1,0,0:0:0:0:
320,192,293514,1,0,0:0:0:0:
64,192,293514,1,0,0:0:0:0:
448,192,293514,1,0,0:0:0:0:
192,192,293578,1,0,0:0:0:0:
320,192,293642,1,0,0:0:0:0:
192,192,293706,1,0,0:0:0:0:
64,192,293706,1,0,0:0:0:0:
448,192,293706,1,0,0:0:0:0:
320,192,293771,1,0,0:0:0:0:
192,192,293835,1,0,0:0:0:0:
320,192,293899,1,0,0:0:0:0:
64,192,293899,1,0,0:0:0:0:
448,192,293899,1,0,0:0:0:0:
192,192,293963,1,0,0:0:0:0:
320,192,294027,1,0,0:0:0:0:
192,192,294091,1,0,0:0:0:0:
64,192,294091,1,0,0:0:0:0:
448,192,294091,1,0,0:0:0:0:
320,192,294155,1,0,0:0:0:0:
192,192,294219,1,0,0:0:0:0:
320,192,294283,1,0,0:0:0:0:
64,192,294283,1,0,0:0:0:0:
448,192,294283,1,0,0:0:0:0:
192,192,294347,1,0,0:0:0:0:
320,192,294412,1,0,0:0:0:0:
64,192,294476,1,0,0:0:0:0:
192,192,294476,1,0,0:0:0:0:
448,192,294476,1,0,0:0:0:0:
320,192,294540,1,0,0:0:0:0:
192,192,294604,1,0,0:0:0:0:
448,192,294668,1,0,0:0:0:0:
64,192,294668,1,0,0:0:0:0:
320,192,294668,1,0,0:0:0:0:
192,192,294732,1,0,0:0:0:0:
320,192,294796,1,0,0:0:0:0:
64,192,294860,1,0,0:0:0:0:
448,192,294860,1,0,0:0:0:0:
192,192,294860,1,0,0:0:0:0:
320,192,294924,1,0,0:0:0:0:
448,192,294988,1,0,0:0:0:0:
320,192,295053,1,0,0:0:0:0:
192,192,295053,1,0,0:0:0:0:
64,192,295053,1,0,0:0:0:0:
448,192,295117,1,0,0:0:0:0:
320,192,295181,1,0,0:0:0:0:
64,192,295245,1,0,0:0:0:0:
192,192,295245,1,0,0:0:0:0:
448,192,295245,1,0,0:0:0:0:
320,192,295309,1,0,0:0:0:0:
192,192,295373,1,0,0:0:0:0:
64,192,295437,1,0,0:0:0:0:
320,192,295437,1,0,0:0:0:0:
448,192,295437,1,0,0:0:0:0:
192,192,295501,1,0,0:0:0:0:
64,192,295565,1,0,0:0:0:0:
320,192,295630,1,0,0:0:0:0:
192,192,295630,1,0,0:0:0:0:
448,192,295630,1,0,0:0:0:0:
64,192,295694,1,0,0:0:0:0:
192,192,295758,1,0,0:0:0:0:
448,192,295822,1,0,0:0:0:0:
320,192,295822,1,0,0:0:0:0:
64,192,295822,1,0,0:0:0:0:
192,192,295886,1,0,0:0:0:0:
320,192,295950,1,0,0:0:0:0:
448,192,296014,1,0,0:0:0:0:
192,192,296014,1,0,0:0:0:0:
64,192,296014,1,0,0:0:0:0:
320,192,296078,1,0,0:0:0:0:
448,192,296142,1,0,0:0:0:0:
320,192,296206,1,0,0:0:0:0:
192,192,296206,1,0,0:0:0:0:
64,192,296206,1,0,0:0:0:0:
448,192,296271,1,0,0:0:0:0:
320,192,296335,1,0,0:0:0:0:
192,192,296399,1,0,0:0:0:0:
64,192,296399,1,0,0:0:0:0:
448,192,296399,1,0,0:0:0:0:
320,192,296463,1,0,0:0:0:0:
192,192,296527,1,0,0:0:0:0:
64,192,296591,1,0,0:0:0:0:
320,192,296591,1,0,0:0:0:0:
448,192,296591,1,0,0:0:0:0:
192,192,296655,1,0,0:0:0:0:
64,192,296719,1,0,0:0:0:0:
192,192,296783,1,0,0:0:0:0:
320,192,296783,1,0,0:0:0:0:
448,192,296783,1,0,0:0:0:0:
64,192,296847,1,0,0:0:0:0:
192,192,296912,1,0,0:0:0:0:
448,192,296976,1,0,0:0:0:0:
320,192,296976,1,0,0:0:0:0:
64,192,296976,1,0,0:0:0:0:
192,192,297040,1,0,0:0:0:0:
320,192,297104,1,0,0:0:0:0:
448,192,297168,1,0,0:0:0:0:
192,192,297168,1,0,0:0:0:0:
64,192,297168,1,0,0:0:0:0:
320,192,297232,1,0,0:0:0:0:
448,192,297296,1,0,0:0:0:0:
320,192,297360,1,0,0:0:0:0:
192,192,297360,1,0,0:0:0:0:
64,192,297360,1,0,0:0:0:0:
448,192,297424,1,0,0:0:0:0:
320,192,297488,1,0,0:0:0:0:
192,192,297553,1,0,0:0:0:0:
64,192,297553,1,0,0:0:0:0:
448,192,297553,1,0,0:0:0:0:
320,192,297617,1,0,0:0:0:0:
192,192,297681,1,0,0:0:0:0:
64,192,297745,1,0,0:0:0:0:
320,192,297745,1,0,0:0:0:0:
448,192,297745,1,0,0:0:0:0:
192,192,297809,1,0,0:0:0:0:
64,192,297873,1,0,0:0:0:0:
192,192,297937,1,0,0:0:0:0:
320,192,297937,1,0,0:0:0:0:
448,192,297937,1,0,0:0:0:0:
64,192,298001,1,0,0:0:0:0:
192,192,298065,1,0,0:0:0:0:
448,192,298130,1,0,0:0:0:0:
320,192,298130,1,0,0:0:0:0:
64,192,298130,1,0,0:0:0:0:
192,192,298194,1,0,0:0:0:0:
320,192,298258,1,0,0:0:0:0:
448,192,298322,1,0,0:0:0:0:
192,192,298322,1,0,0:0:0:0:
64,192,298322,1,0,0:0:0:0:
320,192,298386,1,0,0:0:0:0:
192,192,298450,1,0,0:0:0:0:
320,192,298514,1,0,0:0:0:0:
448,192,298514,1,0,0:0:0:0:
64,192,298514,1,0,0:0:0:0:
192,192,298578,1,0,0:0:0:0:
320,192,298642,1,0,0:0:0:0:
192,192,298706,1,0,0:0:0:0:
64,192,298706,1,0,0:0:0:0:
448,192,298706,1,0,0:0:0:0:
320,192,298771,1,0,0:0:0:0:
192,192,298835,1,0,0:0:0:0:
320,192,298899,1,0,0:0:0:0:
448,192,298899,1,0,0:0:0:0:
64,192,298899,1,0,0:0:0:0:
192,192,298963,1,0,0:0:0:0:
64,192,299027,1,0,0:0:0:0:
448,192,299091,1,0,0:0:0:0:
192,192,299091,1,0,0:0:0:0:
320,192,299091,1,0,0:0:0:0:
64,192,299155,1,0,0:0:0:0:
448,192,299219,1,0,0:0:0:0:
64,192,299283,1,0,0:0:0:0:
192,192,299283,1,0,0:0:0:0:
320,192,299283,1,0,0:0:0:0:
448,192,299347,1,0,0:0:0:0:
64,192,299412,1,0,0:0:0:0:
448,192,299476,1,0,0:0:0:0:
320,192,299476,1,0,0:0:0:0:
192,192,299476,1,0,0:0:0:0:
64,192,299540,1,0,0:0:0:0:
448,192,299604,1,0,0:0:0:0:
64,192,299668,1,0,0:0:0:0:
320,192,299668,1,0,0:0:0:0:
192,192,299668,1,0,0:0:0:0:
448,192,299732,1,0,0:0:0:0:
64,192,299796,1,0,0:0:0:0:
448,192,299860,1,0,0:0:0:0:
192,192,299860,1,0,0:0:0:0:
320,192,299860,1,0,0:0:0:0:
64,192,299924,1,0,0:0:0:0:
448,192,299988,1,0,0:0:0:0:
64,192,300053,1,0,0:0:0:0:
192,192,300053,1,0,0:0:0:0:
320,192,300053,1,0,0:0:0:0:
448,192,300117,1,0,0:0:0:0:
64,192,300181,1,0,0:0:0:0:
448,192,300245,1,0,0:0:0:0:
320,192,300245,1,0,0:0:0:0:
192,192,300245,1,0,0:0:0:0:
64,192,300309,1,0,0:0:0:0:
448,192,300373,1,0,0:0:0:0:
64,192,300437,1,0,0:0:0:0:
192,192,300437,1,0,0:0:0:0:
320,192,300437,1,0,0:0:0:0:
448,192,300501,1,0,0:0:0:0:
64,192,300565,1,0,0:0:0:0:
448,192,300630,1,0,0:0:0:0:
320,192,300630,1,0,0:0:0:0:
192,192,300630,1,0,0:0:0:0:
64,192,300694,1,0,0:0:0:0:
192,192,300758,1,0,0:0:0:0:
448,192,300822,1,0,0:0:0:0:
320,192,300822,1,0,0:0:0:0:
64,192,300822,1,0,0:0:0:0:
192,192,300886,1,0,0:0:0:0:
320,192,300950,1,0,0:0:0:0:
448,192,301014,1,0,0:0:0:0:
192,192,301014,1,0,0:0:0:0:
64,192,301014,1,0,0:0:0:0:
320,192,301078,1,0,0:0:0:0:
448,192,301142,1,0,0:0:0:0:
320,192,301206,1,0,0:0:0:0:
192,192,301206,1,0,0:0:0:0:
64,192,301206,1,0,0:0:0:0:
448,192,301271,1,0,0:0:0:0:
320,192,301335,1,0,0:0:0:0:
192,192,301399,1,0,0:0:0:0:
64,192,301399,1,0,0:0:0:0:
448,192,301399,1,0,0:0:0:0:
320,192,301463,1,0,0:0:0:0:
192,192,301527,1,0,0:0:0:0:
64,192,301591,1,0,0:0:0:0:
320,192,301591,1,0,0:0:0:0:
448,192,301591,1,0,0:0:0:0:
192,192,301655,1,0,0:0:0:0:
64,192,301719,1,0,0:0:0:0:
192,192,301783,1,0,0:0:0:0:
320,192,301783,1,0,0:0:0:0:
448,192,301783,1,0,0:0:0:0:
64,192,301847,1,0,0:0:0:0:
192,192,301912,1,0,0:0:0:0:
448,192,301976,1,0,0:0:0:0:
320,192,301976,1,0,0:0:0:0:
64,192,301976,1,0,0:0:0:0:
192,192,302040,1,0,0:0:0:0:
320,192,302104,1,0,0:0:0:0:
448,192,302168,1,0,0:0:0:0:
192,192,302168,1,0,0:0:0:0:
64,192,302168,1,0,0:0:0:0:
320,192,302232,1,0,0:0:0:0:
192,192,302296,1,0,0:0:0:0:
64,192,302360,1,0,0:0:0:0:
320,192,302360,1,0,0:0:0:0:
448,192,302360,1,0,0:0:0:0:
192,192,302424,1,0,0:0:0:0:
320,192,302488,1,0,0:0:0:0:
448,192,302553,1,0,0:0:0:0:
192,192,302553,1,0,0:0:0:0:
64,192,302553,1,0,0:0:0:0:
320,192,302617,1,0,0:0:0:0:
192,192,302681,1,0,0:0:0:0:
448,192,302745,1,0,0:0:0:0:
64,192,302745,1,0,0:0:0:0:
320,192,302745,1,0,0:0:0:0:
192,192,302809,1,0,0:0:0:0:
320,192,302873,1,0,0:0:0:0:
448,192,302937,1,0,0:0:0:0:
64,192,302937,1,0,0:0:0:0:
192,192,302937,1,0,0:0:0:0:
320,192,303001,1,0,0:0:0:0:
192,192,303065,1,0,0:0:0:0:
64,192,303130,1,0,0:0:0:0:
320,192,303130,1,0,0:0:0:0:
448,192,303130,1,0,0:0:0:0:
192,192,303194,1,0,0:0:0:0:
320,192,303258,1,0,0:0:0:0:
192,192,303322,1,0,0:0:0:0:
64,192,303322,1,0,0:0:0:0:
448,192,303322,1,0,0:0:0:0:
320,192,303386,1,0,0:0:0:0:
192,192,303450,1,0,0:0:0:0:
448,192,303514,1,0,0:0:0:0:
320,192,303514,1,0,0:0:0:0:
64,192,303514,1,0,0:0:0:0:
192,192,303578,1,0,0:0:0:0:
320,192,303642,1,0,0:0:0:0:
448,192,303706,1,0,0:0:0:0:
192,192,303706,1,0,0:0:0:0:
64,192,303706,1,0,0:0:0:0:
320,192,303771,1,0,0:0:0:0:
192,192,303835,1,0,0:0:0:0:
64,192,303899,1,0,0:0:0:0:
320,192,303899,1,0,0:0:0:0:
448,192,303899,1,0,0:0:0:0:
192,192,303963,1,0,0:0:0:0:
64,192,304027,1,0,0:0:0:0:
320,192,304091,1,0,0:0:0:0:
448,192,304091,1,0,0:0:0:0:
192,192,304091,1,0,0:0:0:0:
64,192,304155,1,0,0:0:0:0:
192,192,304219,1,0,0:0:0:0:
320,192,304283,1,0,0:0:0:0:
448,192,304283,1,0,0:0:0:0:
64,192,304283,1,0,0:0:0:0:
192,192,304347,1,0,0:0:0:0:
320,192,304412,1,0,0:0:0:0:
448,192,304476,1,0,0:0:0:0:
192,192,304476,1,0,0:0:0:0:
64,192,304476,1,0,0:0:0:0:
320,192,304540,1,0,0:0:0:0:
448,192,304604,1,0,0:0:0:0:
320,192,304668,1,0,0:0:0:0:
192,192,304668,1,0,0:0:0:0:
64,192,304668,1,0,0:0:0:0:
448,192,304732,1,0,0:0:0:0:
320,192,304796,1,0,0:0:0:0:
192,192,304860,1,0,0:0:0:0:
64,192,304860,1,0,0:0:0:0:
448,192,304860,1,0,0:0:0:0:
320,192,304924,1,0,0:0:0:0:
192,192,304988,1,0,0:0:0:0:
64,192,305053,1,0,0:0:0:0:
320,192,305053,1,0,0:0:0:0:
448,192,305053,1,0,0:0:0:0:
192,192,305117,1,0,0:0:0:0:
64,192,305181,1,0,0:0:0:0:
192,192,305245,1,0,0:0:0:0:
320,192,305245,1,0,0:0:0:0:
448,192,305245,1,0,0:0:0:0:
64,192,305309,1,0,0:0:0:0:
448,192,305373,1,0,0:0:0:0:
64,192,305437,1,0,0:0:0:0:
192,192,305437,1,0,0:0:0:0:
320,192,305437,1,0,0:0:0:0:
448,192,305501,1,0,0:0:0:0:
64,192,305565,1,0,0:0:0:0:
448,192,305630,1,0,0:0:0:0:
320,192,305630,1,0,0:0:0:0:
192,192,305630,1,0,0:0:0:0:
64,192,305694,1,0,0:0:0:0:
448,192,305758,1,0,0:0:0:0:
64,192,305822,1,0,0:0:0:0:
192,192,305822,1,0,0:0:0:0:
320,192,305822,1,0,0:0:0:0:
448,192,305886,1,0,0:0:0:0:
64,192,305950,1,0,0:0:0:0:
448,192,306014,1,0,0:0:0:0:
320,192,306014,1,0,0:0:0:0:
192,192,306014,1,0,0:0:0:0:
64,192,306078,1,0,0:0:0:0:
448,192,306142,1,0,0:0:0:0:
64,192,306206,1,0,0:0:0:0:
192,192,306206,1,0,0:0:0:0:
320,192,306206,1,0,0:0:0:0:
448,192,306271,1,0,0:0:0:0:
64,192,306335,1,0,0:0:0:0:
448,192,306399,1,0,0:0:0:0:
320,192,306399,1,0,0:0:0:0:
192,192,306399,1,0,0:0:0:0:
64,192,306463,1,0,0:0:0:0:
448,192,306527,1,0,0:0:0:0:
64,192,306591,1,0,0:0:0:0:
192,192,306591,1,0,0:0:0:0:
320,192,306591,1,0,0:0:0:0:
448,192,306655,1,0,0:0:0:0:
64,192,306719,1,0,0:0:0:0:
192,192,306783,1,0,0:0:0:0:
448,192,306783,1,0,0:0:0:0:
64,192,306783,1,0,0:0:0:0:
320,192,306847,1,0,0:0:0:0:
192,192,306912,1,0,0:0:0:0:
320,192,306976,1,0,0:0:0:0:
64,192,306976,1,0,0:0:0:0:
448,192,306976,1,0,0:0:0:0:
192,192,307040,1,0,0:0:0:0:
320,192,307104,1,0,0:0:0:0:
192,192,307168,5,0,0:0:0:0:
448,192,307168,1,0,0:0:0:0:
64,192,307168,1,0,0:0:0:0:
320,192,307232,1,0,0:0:0:0:
192,192,307296,1,0,0:0:0:0:
320,192,307360,1,0,0:0:0:0:
64,192,307360,1,0,0:0:0:0:
448,192,307360,1,0,0:0:0:0:
192,192,307424,1,0,0:0:0:0:
320,192,307488,1,0,0:0:0:0:
192,192,307553,1,0,0:0:0:0:
448,192,307553,1,0,0:0:0:0:
64,192,307553,1,0,0:0:0:0:
320,192,307617,1,0,0:0:0:0:
192,192,307681,1,0,0:0:0:0:
320,192,307745,1,0,0:0:0:0:
64,192,307745,1,0,0:0:0:0:
448,192,307745,1,0,0:0:0:0:
192,192,307809,1,0,0:0:0:0:
320,192,307873,1,0,0:0:0:0:
192,192,307937,1,0,0:0:0:0:
448,192,307937,1,0,0:0:0:0:
64,192,307937,1,0,0:0:0:0:
320,192,308001,1,0,0:0:0:0:
192,192,308065,1,0,0:0:0:0:
320,192,308130,1,0,0:0:0:0:
64,192,308130,1,0,0:0:0:0:
448,192,308130,1,0,0:0:0:0:
192,192,308194,1,0,0:0:0:0:
320,192,308258,1,0,0:0:0:0:
448,192,308322,5,0,0:0:0:0:
192,192,308322,1,0,0:0:0:0:
64,192,308322,1,0,0:0:0:0:
320,192,308322,1,0,0:0:0:0:
64,192,308899,128,0,309668:0:0:0:0:
320,192,309091,128,0,309668:0:0:0:0:
448,192,309668,128,0,310437:0:0:0:0:
192,192,309860,128,0,310630:0:0:0:0:
320,192,310437,128,0,311399:0:0:0:0:
448,192,310630,128,0,311399:0:0:0:0:
64,192,311399,128,0,312553:0:0:0:0:
320,192,313130,128,0,313322:0:0:0:0:
448,192,313322,128,0,313514:0:0:0:0:
320,192,313514,128,0,313706:0:0:0:0:
192,192,313706,128,0,313899:0:0:0:0:
64,192,313899,128,0,314091:0:0:0:0:
448,192,314091,128,0,314476:0:0:0:0:
192,192,314476,128,0,315053:0:0:0:0:
320,192,315053,128,0,315822:0:0:0:0:
448,192,315245,128,0,316014:0:0:0:0:
64,192,315822,128,0,316399:0:0:0:0:
320,192,316014,128,0,316591:0:0:0:0:
192,192,316591,128,0,317553:0:0:0:0:
320,192,316976,128,0,317553:0:0:0:0:
448,192,317168,128,0,317553:0:0:0:0:
64,192,317553,128,0,318514:0:0:0:0:
320,192,318514,128,0,319091:0:0:0:0:
192,192,318706,128,0,319091:0:0:0:0:
64,192,318899,128,0,319091:0:0:0:0:
448,192,319091,128,0,319860:0:0:0:0:
192,192,319860,128,0,320437:0:0:0:0:
320,192,320053,128,0,320437:0:0:0:0:
448,192,320245,128,0,320437:0:0:0:0:
64,192,320437,128,0,320630:0:0:0:0:
192,192,320630,128,0,321206:0:0:0:0:
320,192,320822,128,0,321206:0:0:0:0:
448,192,321014,1,0,0:0:0:0:
64,192,321014,1,0,0:0:0:0:
64,192,321206,128,0,321399:0:0:0:0:
448,192,321206,128,0,321399:0:0:0:0:
320,192,321399,128,0,322168:0:0:0:0:
192,192,321399,128,0,321591:0:0:0:0:
448,192,321591,128,0,321783:0:0:0:0:
64,192,321783,128,0,322168:0:0:0:0:
192,192,321976,1,0,0:0:0:0:
448,192,321976,1,0,0:0:0:0:
448,192,322168,128,0,322937:0:0:0:0:
192,192,322168,128,0,322360:0:0:0:0:
320,192,322360,128,0,322553:0:0:0:0:
64,192,322553,128,0,322937:0:0:0:0:
320,192,322745,1,0,0:0:0:0:
192,192,322745,1,0,0:0:0:0:
320,192,322937,128,0,323130:0:0:0:0:
192,192,322937,128,0,323130:0:0:0:0:
448,192,323130,128,0,323322:0:0:0:0:
64,192,323130,128,0,323322:0:0:0:0:
320,192,323322,128,0,323514:0:0:0:0:
192,192,323322,128,0,323514:0:0:0:0:
448,192,323514,128,0,323706:0:0:0:0:
64,192,323514,128,0,323706:0:0:0:0:
320,192,323706,128,0,324860:0:0:0:0:
192,192,323706,1,0,0:0:0:0:
192,192,323899,128,0,324476:0:0:0:0:
448,192,324091,128,0,324476:0:0:0:0:
64,192,324283,1,0,0:0:0:0:
64,192,324476,128,0,324860:0:0:0:0:
192,192,324668,128,0,324860:0:0:0:0:
448,192,324860,128,0,325245:0:0:0:0:
320,192,325053,128,0,325245:0:0:0:0:
192,192,325245,128,0,325630:0:0:0:0:
320,192,325437,128,0,325822:0:0:0:0:
448,192,325630,128,0,326014:0:0:0:0:
64,192,325630,1,0,0:0:0:0:
192,192,325822,128,0,326014:0:0:0:0:
64,192,325822,128,0,326014:0:0:0:0:
320,192,326014,128,0,326783:0:0:0:0:
448,192,326206,128,0,326783:0:0:0:0:
192,192,326399,128,0,326783:0:0:0:0:
64,192,326591,1,0,0:0:0:0:
64,192,326783,128,0,327360:0:0:0:0:
192,192,326976,128,0,327360:0:0:0:0:
320,192,327168,128,0,327360:0:0:0:0:
448,192,327360,128,0,327745:0:0:0:0:
320,192,327553,128,0,327937:0:0:0:0:
192,192,327745,128,0,328130:0:0:0:0:
448,192,327937,128,0,328322:0:0:0:0:
320,192,328130,128,0,328322:0:0:0:0:
64,192,328322,128,0,328706:0:0:0:0:
192,192,328322,128,0,328706:0:0:0:0:
320,192,328514,128,0,328706:0:0:0:0:
448,192,328706,128,0,328899:0:0:0:0:
64,192,328899,128,0,329283:0:0:0:0:
192,192,328899,128,0,329283:0:0:0:0:
320,192,329283,128,0,329860:0:0:0:0:
448,192,329283,1,0,0:0:0:0:
64,192,329476,1,0,0:0:0:0:
192,192,329476,128,0,329860:0:0:0:0:
64,192,329860,128,0,330245:0:0:0:0:
448,192,329860,1,0,0:0:0:0:
320,192,330053,128,0,330245:0:0:0:0:
192,192,330053,1,0,0:0:0:0:
448,192,330245,128,0,331399:0:0:0:0:
192,192,330245,128,0,331399:0:0:0:0:
320,192,330437,128,0,330822:0:0:0:0:
64,192,330822,1,0,0:0:0:0:
320,192,331014,1,0,0:0:0:0:
64,192,331206,128,0,331399:0:0:0:0:
320,192,331399,128,0,337553:0:0:0:0:
192,192,331495,128,0,337553:0:0:0:0:
64,192,331591,128,0,337553:0:0:0:0:
448,192,337024,128,0,337553:0:0:0:0:
