osu file format v14

[General]
AudioFilename: audio.mp3
AudioLeadIn: 0
PreviewTime: 47291
Countdown: 0
SampleSet: Soft
StackLeniency: 0.7
Mode: 0
LetterboxInBreaks: 0
WidescreenStoryboard: 1

[Editor]
Bookmarks: 9840,19252,28664,66311
DistanceSpacing: 0.7
BeatDivisor: 6
GridSize: 4
TimelineZoom: 1.6

[Metadata]
Title:terminal terminal
TitleUnicode:terminal terminal
Artist:Mayoi Hachikuji (Emiri Kato)
ArtistUnicode:八九寺真宵 (加藤英美里)
Creator:Chaoslitz
Version:Kamimashita
Source:終物語
Tags:monogatari series second season owarimonogatari まよいヘル hell opening op meg rock ミト
BeatmapID:1389264
BeatmapSetID:655597

[Difficulty]
HPDrainRate:5
CircleSize:4
OverallDifficulty:6
ApproachRate:7.5
SliderMultiplier:2
SliderTickRate:1

[Events]
//Background and Video events
0,0,"bg.jpg",0,0
Video,0,"optc.flv"
//Break Periods
//Storyboard Layer 0 (Background)
//Storyboard Layer 1 (Fail)
//Storyboard Layer 2 (Pass)
//Storyboard Layer 3 (Foreground)
//Storyboard Sound Samples

[TimingPoints]
-1940,588.235294117647,4,2,1,70,1,0
412,-100,4,2,2,70,0,0
707,-100,4,2,1,70,0,0
8550,-142.857142857143,4,2,2,70,0,0
9530,-142.857142857143,4,2,2,50,0,0
9824,-111.111111111111,4,2,1,50,0,0
17765,-111.111111111111,4,2,1,60,0,0
18059,-83.3333333333333,4,2,1,60,0,0
19236,-100,4,2,2,60,0,0
19530,-100,4,2,1,60,0,0
23354,-83.3333333333333,4,2,1,60,0,0
24530,-100,4,2,1,60,0,0
28648,-111.111111111111,4,2,2,60,0,0
29236,-111.111111111111,4,2,1,60,0,0
38059,-111.111111111111,4,2,1,70,0,0
42177,-90.9090909090909,4,2,1,70,0,0
42765,-111.111111111111,4,2,1,80,0,0
46883,-125,4,2,1,80,0,0
47471,-83.3333333333333,4,2,2,90,0,1
47765,-83.3333333333333,4,2,1,90,0,1
48059,-76.9230769230769,4,2,1,90,0,1
48550,-83.3333333333333,4,2,1,90,0,1
50903,-76.9230769230769,4,2,1,90,0,1
51295,-83.3333333333333,4,2,1,90,0,1
52765,-76.9230769230769,4,2,1,90,0,1
53354,-66.6666666666667,4,2,2,90,0,1
53942,-76.9230769230769,4,2,1,90,0,1
54530,-83.3333333333333,4,2,1,90,0,1
55707,-76.9230769230769,4,2,1,90,0,1
56295,-83.3333333333333,4,2,1,90,0,1
56883,-83.3333333333333,4,2,2,90,0,1
57177,-76.9230769230769,4,2,1,90,0,1
58256,-83.3333333333333,4,2,1,90,0,1
59824,-76.9230769230769,4,2,1,90,0,1
61295,-83.3333333333333,4,2,1,90,0,1
65314,-76.9230769230769,4,2,1,90,0,1
65903,-66.6666666666667,4,2,1,90,0,1
66197,-66.6666666666667,4,2,1,90,0,0
66295,-83.3333333333333,4,2,2,90,0,1
66589,-83.3333333333333,4,2,1,90,0,1
69726,-76.9230769230769,4,2,1,90,0,1
70707,-83.3333333333333,4,2,1,90,0,1
71589,-76.9230769230769,4,2,1,90,0,1
72177,-66.6666666666667,4,2,2,90,0,1
72765,-76.9230769230769,4,2,1,90,0,1
73354,-83.3333333333333,4,2,1,90,0,1
74530,-76.9230769230769,4,2,1,90,0,1
75707,-83.3333333333333,4,2,2,90,0,1
76001,-76.9230769230769,4,2,1,90,0,1
77177,-83.3333333333333,4,2,1,90,0,1
78059,-76.9230769230769,4,2,1,90,0,1
82765,-100,4,2,2,90,0,1
82961,-100,4,2,1,60,0,0
83942,-100,4,2,1,70,0,0
84138,-100,4,2,1,60,0,0
85118,-66.6666666666667,4,2,2,80,0,0
85412,-66.6666666666667,4,2,1,75,0,0
85559,-71.4285714285714,4,2,2,70,0,0
85854,-71.4285714285714,4,2,1,70,0,0
85952,-76.9230769230769,4,2,2,65,0,0
86246,-76.9230769230769,4,2,1,65,0,0
86393,-83.3333333333333,4,2,2,60,0,0
86785,-100,4,2,1,60,0,0
87373,-100,4,2,2,80,0,0

[Colours]
Combo1 : 117,113,182
Combo2 : 149,219,89
Combo3 : 246,150,164
Combo4 : 252,213,102

[HitObjects]
65,83,118,6,0,L|52:37,2,33.3333333333333,0|0|0,0:0|0:0|0:0,0:0:0:0:
65,83,412,6,0,L|58:182,1,100,6|0,0:0|0:0,0:0:0:0:
102,351,1001,2,0,L|107:284,1,66.6666666666667,10|0,0:0|0:0,0:0:0:0:
104,265,1295,1,0,0:0:0:0:
239,182,1491,1,2,0:0:0:0:
239,182,1589,2,0,P|206:187|172:191,1,66.6666666666667,4|0,0:0|0:0,0:0:0:0:
153,184,1883,1,0,0:0:0:0:
200,287,2079,2,0,P|248:275|293:296,1,100,2|0,0:0|0:0,0:0:0:0:
305,310,2471,1,2,0:0:0:0:
482,236,2765,6,0,L|382:245,1,100,6|0,0:0|0:0,0:0:0:0:
319,87,3354,2,0,P|324:120|327:154,1,66.6666666666667,10|0,0:0|0:0,0:0:0:0:
324,174,3648,1,0,0:0:0:0:
437,108,3844,1,2,0:0:0:0:
437,107,3942,2,0,P|439:74|431:42,1,66.6666666666667,4|0,0:0|0:0,0:0:0:0:
420,26,4236,1,0,0:0:0:0:
319,87,4432,2,0,P|275:106|227:94,1,100,2|0,2:0|2:0,2:2:0:0:
210,80,4824,1,2,2:0:0:0:
43,156,5118,6,0,L|143:147,1,100,6|0,0:0|0:0,0:0:0:0:
242,255,5707,2,0,P|210:262|178:254,1,66.6666666666667,8|0,0:0|0:0,0:0:0:0:
163,242,6001,1,2,0:0:0:0:
31,313,6197,1,2,0:0:0:0:
31,313,6295,2,0,P|64:309|97:306,1,66.6666666666667,4|0,0:0|0:0,0:0:0:0:
116,314,6589,1,0,0:0:0:0:
242,255,6785,2,0,P|237:307|232:370,1,100,0|0,0:0|0:0,0:0:0:0:
233,353,7177,2,0,P|259:334|292:329,1,66.6666666666667,2|0,0:0|0:0,0:0:0:0:
372,344,7471,6,0,P|420:356|462:331,1,100,6|0,0:0|0:0,0:0:0:0:
509,218,7961,1,4,0:3:0:0:
509,218,8059,2,0,P|476:222|442:225,1,66.6666666666667,8|0,0:3|0:0,0:0:0:0:
425,216,8354,1,2,0:0:0:0:
298,156,8550,6,0,B|376:176|374:114|454:134,1,163.333328348796,4|2,0:0|0:0,0:0:0:0:
425,216,9530,1,0,0:0:0:0:
328,75,9824,5,0,0:0:0:0:
256,23,10118,1,2,0:0:0:0:
167,26,10412,1,2,0:0:0:0:
99,82,10706,1,2,0:0:0:0:
79,168,11001,2,0,L|87:257,1,89.9999972534181,2|0,0:0|0:0,0:0:0:0:
35,319,11442,2,0,P|91:284|156:304,1,134.999995880127,2|0,0:0|0:0,0:0:0:0:
288,371,12177,5,0,0:0:0:0:
387,364,12471,1,2,0:0:0:0:
411,268,12765,1,2,0:0:0:0:
327,216,13060,1,2,0:0:0:0:
251,279,13354,1,2,0:0:0:0:
387,364,13648,1,0,0:0:0:0:
387,364,13795,2,0,L|484:355,1,89.9999972534181,2|0,0:0|0:0,0:0:0:0:
497,365,14236,1,2,0:0:0:0:
414,169,14530,5,0,0:0:0:0:
476,86,14824,1,2,0:0:0:0:
373,73,15118,1,2,0:0:0:0:
270,60,15412,1,2,0:0:0:0:
168,47,15707,2,0,L|78:55,1,89.9999972534181,2|0,0:0|0:0,0:0:0:0:
10,98,16148,2,0,P|4:142|21:183,1,89.9999972534181,2|0,0:0|0:0,0:0:0:0:
21,183,16589,1,2,0:0:0:0:
158,280,16883,5,2,0:0:0:0:
168,369,17177,1,0,0:0:0:0:
85,334,17471,1,2,0:0:0:0:
241,315,17765,1,10,0:0:0:0:
350,364,17961,5,0,0:0:0:0:
350,364,18059,2,0,P|389:359|429:356,1,79.9999975585938,4|8,0:0|0:3,0:0:0:0:
510,367,18354,1,8,0:0:0:0:
367,199,18550,1,0,0:0:0:0:
367,199,18648,2,0,L|359:279,1,79.9999975585938,12|4,0:0|0:3,0:0:0:0:
350,364,18942,1,4,0:0:0:0:
512,156,19236,5,4,0:0:0:0:
436,106,19530,1,2,0:0:0:0:
367,199,19824,1,10,0:0:0:0:
291,149,20118,1,2,0:0:0:0:
235,236,20314,1,0,0:0:0:0:
235,236,20412,2,0,P|202:241|168:245,1,66.6666666666667,6|8,0:0|0:0,0:0:0:0:
151,239,20707,1,6,0:0:0:0:
84,191,20854,2,0,B|65:221|65:221|75:284,1,100,2|0,0:0|0:0,0:0:0:0:
88,368,21295,1,2,0:0:0:0:
17,143,21589,5,4,0:0:0:0:
151,239,21883,1,2,0:0:0:0:
207,52,22177,2,0,P|175:56|141:60,1,66.6666666666667,10|0,0:0|0:0,0:0:0:0:
121,66,22471,2,0,P|109:96|110:129,1,66.6666666666667,2|0,0:0|0:0,0:0:0:0:
116,147,22765,1,6,0:0:0:0:
234,280,22961,1,8,0:0:0:0:
234,280,23059,2,0,L|240:213,1,66.6666666666667,6|0,0:0|0:0,0:0:0:0:
230,191,23354,2,0,P|268:203|313:191,1,79.9999975585938,8|0,0:0|0:0,0:0:0:0:
323,177,23648,2,0,P|359:163|398:169,1,79.9999975585938,2|0,0:0|0:0,0:0:0:0:
476,192,23942,5,4,0:0:0:0:
476,192,24236,1,2,0:0:0:0:
420,353,24530,2,0,P|373:365|328:346,1,100,10|0,0:0|0:0,0:0:0:0:
240,213,25020,1,0,0:0:0:0:
240,213,25118,2,0,L|234:279,1,66.6666666666667,6|8,0:0|0:0,0:0:0:0:
232,299,25412,1,4,0:0:0:0:
156,345,25559,2,0,B|144:315|144:315|151:247,1,100,2|0,0:0|0:0,0:0:0:0:
151,247,26001,2,0,P|119:257|86:253,1,66.6666666666667,2|0,0:0|0:0,0:0:0:0:
16,199,26295,5,6,0:0:0:0:
0,113,26589,1,0,0:0:0:0:
42,36,26883,1,10,0:0:0:0:
125,6,27177,1,2,0:0:0:0:
207,37,27471,2,0,L|201:97,1,50,6|8,0:0|0:0,0:0:0:0:
234,166,27765,1,6,0:0:0:0:
402,60,28059,5,8,0:3:0:0:
402,60,28354,1,4,0:3:0:0:
484,94,28648,6,0,P|416:148|334:119,1,179.999994506836,4|4,0:0|0:0,0:0:0:0:
207,37,29530,2,0,P|236:34|266:31,1,59.9999981689454,0|0,0:0|0:0,0:0:0:0:
284,38,29824,1,4,0:0:0:0:
335,120,30118,1,2,0:0:0:0:
316,207,30412,1,6,0:0:0:0:
241,258,30707,1,2,0:0:0:0:
152,242,31001,6,0,P|70:213|3:267,1,179.999994506836,6|4,0:0|0:0,0:0:0:0:
86,378,31883,2,0,L|90:319,1,59.9999981689454,0|0,0:0|0:0,0:0:0:0:
85,302,32177,1,6,0:0:0:0:
152,242,32471,2,0,L|150:219,3,22.4999993133545,0|0|0|0,3:0|3:0|3:0|3:0,0:0:0:0:
157,254,32765,1,4,3:2:0:0:
229,206,33059,1,0,0:0:0:0:
279,343,33354,6,0,P|362:362|420:298,2,179.999994506836,6|6|6,0:0|0:0|0:0,0:0:0:0:
233,265,34726,1,0,0:0:0:0:
233,265,34824,2,0,L|229:206,1,59.9999981689454,0|0,0:0|0:0,0:0:0:0:
224,187,35118,1,6,0:0:0:0:
309,163,35412,1,2,0:0:0:0:
139,211,35707,6,0,L|49:204,1,89.9999972534181,4|2,0:0|0:0,0:0:0:0:
224,187,36295,1,4,0:0:0:0:
309,163,36589,2,0,L|353:166,1,44.999998626709,0|2,0:0|0:0,0:0:0:0:
438,142,36883,1,6,0:0:0:0:
417,248,37177,2,0,L|415:225,3,22.4999993133545,0|0|0|0,3:0|3:0|3:0|3:0,0:0:0:0:
422,260,37471,1,6,3:2:0:0:
412,349,37765,1,2,0:0:0:0:
224,187,38060,5,8,0:0:0:0:
214,276,38354,1,4,0:0:0:0:
204,365,38648,2,0,L|67:354,1,134.999995880127,10|0,0:0|0:0,0:0:0:0:
45,366,39236,2,0,P|22:327|29:284,1,89.9999972534181,14|0,0:0|0:0,0:0:0:0:
0,201,39824,2,0,B|60:195|60:195|77:203|77:203|133:198,1,134.999995880127,10|0,0:0|0:0,0:0:0:0:
210,218,40412,6,0,L|217:127,1,89.9999972534181,6|0,0:0|0:0,0:0:0:0:
194,26,41001,2,0,P|129:33|96:89,1,134.999995880127,8|0,0:0|0:0,0:0:0:0:
102,116,41589,1,14,0:0:0:0:
19,43,41883,1,6,0:0:0:0:
0,200,42177,6,0,B|39:197|39:197|54:184|54:184|88:214|88:214|103:201|103:201|148:197,1,165.000005035401,10|0,3:2|0:0,0:0:0:0:
221,178,42765,6,0,L|228:269,1,89.9999972534181,4|0,0:0|0:0,0:0:0:0:
392,310,43354,2,0,P|327:299|279:343,1,134.999995880127,14|0,0:0|0:0,0:0:0:0:
287,367,43942,2,0,L|197:360,1,89.9999972534181,6|4,0:0|0:0,0:0:0:0:
29,284,44530,2,0,L|118:277,1,89.9999972534181,14|0,0:0|0:0,0:0:0:0:
184,220,44971,1,0,0:0:0:0:
194,240,45118,6,0,P|217:178|187:119,1,134.999995880127,12|0,0:0|0:0,0:0:0:0:
163,106,45707,2,0,P|97:108|54:158,1,134.999995880127,6|0,0:0|0:0,0:0:0:0:
29,284,46295,1,14,0:0:0:0:
91,361,46589,2,0,P|120:357|150:355,1,59.9999981689454,0|8,0:0|0:0,0:0:0:0:
182,359,46883,6,0,P|196:322|189:282,1,80,10|0,0:0|0:0,0:0:0:0:
54,156,47471,5,6,0:0:0:0:
256,138,47765,2,0,L|155:146,1,79.9999975585938,0|0,0:0|0:0,0:0:0:0:
116,92,48059,2,0,B|139:136|139:136|127:215,1,129.999994049073,10|0,0:0|0:0,0:0:0:0:
14,304,48550,1,0,0:0:0:0:
14,304,48648,2,0,L|93:296,1,79.9999975585938,4|8,0:0|0:0,0:0:0:0:
116,303,48942,2,0,P|127:330|132:360,1,59.9999981689454,2|0,0:0|0:0,0:0:0:0:
193,271,49236,1,8,0:0:0:0:
300,260,49383,1,0,0:0:0:0:
256,358,49530,2,0,L|335:350,1,79.9999975585938,2|0,0:0|0:0,0:0:0:0:
414,369,49824,6,0,P|448:336|431:260,1,119.999996337891,6|0,0:0|0:0,0:0:0:0:
298,173,50314,1,0,0:0:0:0:
298,173,50412,2,0,L|305:252,1,79.9999975585938,8|0,0:0|0:0,0:0:0:0:
294,267,50707,1,0,0:0:0:0:
512,225,50903,2,0,P|462:185|397:193,1,129.999994049073,2|2,0:0|0:0,0:0:0:0:
381,208,51295,1,0,0:0:0:0:
215,138,51589,1,8,0:0:0:0:
379,16,51883,2,0,L|372:95,1,79.9999975585938,2|0,0:0|0:0,0:0:0:0:
369,118,52177,5,4,0:0:0:0:
222,213,52373,1,0,0:0:0:0:
222,213,52471,2,0,P|208:176|215:138,1,79.9999975585938,0|0,0:0|0:0,0:0:0:0:
235,52,52765,2,0,L|148:61,1,86.6666626993817,10|0,0:0|0:0,0:0:0:0:
123,56,53059,1,0,0:0:0:0:
54,219,53256,1,8,0:0:0:0:
0,158,53354,6,0,P|69:138|127:183,1,150.000005722046,6|0,0:0|0:0,0:0:0:0:
134,352,53942,2,0,P|69:358|4:364,1,129.999994049073,10|0,0:0|0:0,0:0:0:0:
180,267,54530,6,0,L|259:259,1,79.9999975585938,4|0,0:0|0:0,0:0:0:0:
281,269,54824,1,2,0:0:0:0:
379,363,55020,1,0,0:0:0:0:
379,363,55118,2,0,L|387:284,1,79.9999975585938,10|0,0:0|0:0,0:0:0:0:
379,260,55412,1,0,0:0:0:0:
476,169,55609,1,2,0:0:0:0:
476,169,55707,2,0,L|388:160,1,86.6666626993817,4|0,0:0|0:0,0:0:0:0:
366,168,56001,1,2,0:0:0:0:
379,363,56295,1,8,0:0:0:0:
485,274,56589,1,2,0:0:0:0:
272,246,56883,6,0,L|193:254,1,79.9999975585938,4|0,0:0|0:0,0:0:0:0:
168,264,57177,2,0,P|150:224|156:182,1,86.6666626993817,2|0,0:0|0:0,0:0:0:0:
170,160,57471,1,8,0:0:0:0:
66,39,57667,1,2,0:0:0:0:
66,39,57765,2,0,L|74:125,1,86.6666626993817,0|10,0:0|0:0,0:0:0:0:
62,148,58059,1,4,0:0:0:0:
161,73,58256,1,10,0:0:0:0:
161,73,58354,2,0,L|246:66,1,79.9999975585938,0|0,0:0|0:0,0:0:0:0:
264,74,58648,1,8,0:0:0:0:
342,175,58942,1,2,0:0:0:0:
443,85,59138,5,0,0:0:0:0:
443,85,59236,2,0,P|408:73|365:79,1,79.9999975585938,4|0,0:0|0:0,0:0:0:0:
348,95,59530,2,0,P|345:135|342:175,1,79.9999975585938,2|0,0:0|0:0,0:0:0:0:
318,258,59824,2,0,P|361:255|404:251,1,86.6666626993817,8|0,0:0|0:0,0:0:0:0:
428,241,60118,1,2,0:0:0:0:
349,375,60314,2,0,P|297:338|234:346,1,129.999994049073,2|8,0:0|0:0,0:0:0:0:
215,364,60707,1,0,0:0:0:0:
58,207,61001,1,10,0:0:0:0:
24,320,61295,2,0,L|103:312,1,79.9999975585938,2|0,0:0|0:0,0:0:0:0:
134,383,61589,6,0,P|141:325|187:286,1,119.999996337891,4|0,0:0|0:0,0:0:0:0:
349,375,62177,1,10,0:0:0:0:
264,253,62471,2,0,L|270:332,1,79.9999975585938,2|8,0:0|0:0,0:0:0:0:
263,355,62765,1,6,0:0:0:0:
379,289,62961,1,0,0:0:0:0:
379,289,63059,2,0,P|417:276|461:283,1,79.9999975585938,0|0,0:0|0:0,0:0:0:0:
475,290,63354,2,0,P|506:240|494:183,1,119.999996337891,10|0,0:0|0:0,0:0:0:0:
411,54,63844,1,8,0:0:0:0:
411,54,63942,6,0,L|332:62,1,79.9999975585938,4|0,0:0|0:0,0:0:0:0:
308,56,64236,1,2,0:0:0:0:
181,101,64432,1,0,0:0:0:0:
204,95,64530,1,10,0:0:0:0:
339,152,64726,1,0,0:0:0:0:
316,146,64824,1,2,0:0:0:0:
173,191,65020,1,2,0:0:0:0:
196,185,65118,1,4,0:0:0:0:
347,242,65314,5,0,0:0:0:0:
324,236,65412,2,0,L|332:327,1,86.6666626993817,2|8,0:0|0:0,0:0:0:0:
261,366,65707,1,8,0:0:0:0:
476,321,65903,6,0,B|414:328|414:328|396:315|396:315|331:322,1,150.000005722046,2|0,0:0|0:0,0:0:0:0:
261,366,66295,5,6,0:0:0:0:
173,191,66589,1,0,0:0:0:0:
217,278,66736,1,0,0:0:0:0:
164,360,66883,1,10,0:0:0:0:
60,278,67079,1,0,0:0:0:0:
60,278,67177,2,0,L|118:272,1,59.9999981689454
173,191,67471,5,4,0:0:0:0:
128,102,67618,2,0,L|68:108,1,59.9999981689454,2|0,0:0|0:0,0:0:0:0:
182,22,67912,1,0,0:0:0:0:
226,110,68059,2,0,P|278:136|338:120,1,119.999996337891,8|2,0:0|0:0,0:0:0:0:
288,49,68501,1,0,0:0:0:0:
275,171,68648,6,0,L|261:302,1,119.999996337891,6|0,0:0|0:0,0:0:0:0:
122,357,69138,1,0,0:0:0:0:
122,357,69236,2,0,L|213:349,1,79.9999975585938,8|0,0:0|0:0,0:0:0:0:
225,366,69530,1,0,0:0:0:0:
417,276,69726,2,0,L|287:287,1,129.999994049073,2|2,0:0|0:0,0:0:0:0:
262,290,70118,1,0,0:0:0:0:
376,372,70412,1,8,0:0:0:0:
383,186,70707,2,0,L|288:194,1,79.9999975585938,2|0,0:0|0:0,0:0:0:0:
279,195,71001,5,4,0:0:0:0:
226,56,71197,1,0,0:0:0:0:
226,56,71295,2,0,L|218:146,1,79.9999975585938
165,200,71589,2,0,P|128:219|84:216,1,86.6666626993817,10|0,0:0|0:0,0:0:0:0:
62,201,71883,1,0,0:0:0:0:
77,348,72079,1,8,0:0:0:0:
0,320,72177,6,0,L|149:307,1,150.000005722046,6|0,0:0|0:0,0:0:0:0:
320,372,72667,1,0,0:0:0:0:
342,358,72765,2,0,P|291:320|230:335,1,129.999994049073,10|0,0:0|0:0,0:0:0:0:
141,201,73256,1,0,0:0:0:0:
141,201,73354,6,0,L|149:304,1,79.9999975585938,4|0,0:0|0:0,0:0:0:0:
149,306,73648,1,2,0:0:0:0:
33,364,73844,1,0,0:0:0:0:
33,364,73942,2,0,P|17:328|20:289,1,79.9999975585938,10|0,0:0|0:0,0:0:0:0:
28,266,74236,1,0,0:0:0:0:
111,115,74432,1,2,0:0:0:0:
111,115,74530,2,0,L|21:123,1,86.6666626993817,4|0,0:0|0:0,0:0:0:0:
0,117,74824,1,2,0:0:0:0:
207,45,75020,1,0,0:0:0:0:
207,45,75118,2,0,L|200:131,1,86.6666626993817,8|0,0:0|0:0,0:0:0:0:
206,156,75412,1,2,0:0:0:0:
398,190,75707,6,0,L|314:197,1,79.9999975585938,4|0,0:0|0:0,0:0:0:0:
293,189,76001,2,0,P|269:230|275:272,1,86.6666626993817,2|0,0:0|0:0,0:0:0:0:
285,290,76295,1,8,0:0:0:0:
358,375,76491,1,2,0:0:0:0:
358,375,76589,2,0,L|453:367,1,86.6666626993817,0|10,0:0|0:0,0:0:0:0:
466,354,76883,1,4,0:0:0:0:
398,190,77079,1,10,0:0:0:0:
398,190,77177,2,0,L|390:269,1,79.9999975585938,0|0,0:0|0:0,0:0:0:0:
396,293,77471,1,8,0:0:0:0:
490,140,77765,1,2,0:0:0:0:
412,30,77961,1,0,0:0:0:0:
412,30,78059,6,0,P|370:18|330:31,1,86.6666626993817,4|0,0:0|0:0,0:0:0:0:
313,51,78354,2,0,P|274:69|232:63,1,86.6666626993817,2|0,0:0|0:0,0:0:0:0:
150,39,78648,2,0,L|157:125,1,86.6666626993817,8|0,0:0|0:0,0:0:0:0:
144,148,78942,1,2,0:0:0:0:
229,231,79138,1,2,0:0:0:0:
229,231,79236,2,0,P|187:236|143:240,1,86.6666626993817,4|8,0:0|0:0,0:0:0:0:
119,252,79530,2,0,P|106:309|148:369,2,129.999994049073,6|10|2,0:0|0:0|0:0,0:0:0:0:
317,170,80412,6,0,L|309:256,1,86.6666626993817,6|0,0:0|0:0,0:0:0:0:
298,280,80707,1,0,0:0:0:0:
370,378,80903,1,4,0:0:0:0:
370,378,81001,2,0,P|406:346|495:364,1,129.999994049073,8|10,0:0|0:0,0:0:0:0:
512,197,81491,1,0,0:0:0:0:
512,197,81589,2,0,P|468:201|425:204,1,86.6666626993817,4|8,0:0|0:0,0:0:0:0:
401,199,81883,1,4,0:0:0:0:
316,59,82079,1,4,0:0:0:0:
316,59,82177,2,0,L|323:145,1,86.6666626993817,10|0,0:0|0:0,0:0:0:0:
313,168,82471,2,0,P|274:187|232:181,1,86.6666626993817,4|0,0:0|0:0,0:0:0:0:
174,125,82765,5,6,0:0:0:0:
80,197,82961,1,0,0:0:0:0:
80,197,83059,2,0,P|88:229|93:262,1,66.6666666666667,2|0,0:0|0:0,0:0:0:0:
251,271,83550,1,0,0:0:0:0:
251,271,83648,2,0,P|242:303|237:336,1,66.6666666666667,2|0,0:0|0:0,0:0:0:0:
245,365,83942,1,4,0:0:0:0:
142,330,84138,1,0,0:0:0:0:
142,330,84236,2,0,P|106:346|78:345,1,66.6666666666667,2|0,0:0|0:0,0:0:0:0:
56,338,84530,1,2,0:0:0:0:
32,212,84824,6,0,P|15:207|0:204,2,33.3333333333333,2|0|0,0:0|0:0|0:0,0:0:0:0:
31,212,85118,6,0,P|89:169|86:97,1,150.000005722046,6|8,0:0|0:0,0:0:0:0:
43,28,85559,6,0,B|154:11|154:11|137:32,1,139.999995727539,4|8,0:0|0:0,0:0:0:0:
86,97,85952,6,0,P|150:114|208:72,1,129.999994049073,6|8,0:0|0:0,0:0:0:0:
240,8,86393,6,0,L|229:141,1,119.999996337891,4|0,0:0|0:0,0:0:0:0:
171,195,86785,6,0,L|177:265,1,66.6666666666667,4|0,0:0|0:0,0:0:0:0:
238,315,87079,2,0,L|261:312,4,16.6666666666667,0|0|0|0|8,0:0|0:0|0:0|0:0|0:0,0:0:0:0:
221,332,87373,5,4,0:0:0:0:
