osu file format v14

[General]
AudioFilename: audio.mp3
AudioLeadIn: 0
PreviewTime: 47291
Countdown: 0
SampleSet: Soft
StackLeniency: 0.7
Mode: 0
LetterboxInBreaks: 0
WidescreenStoryboard: 1

[Editor]
DistanceSpacing: 1.5
BeatDivisor: 6
GridSize: 4
TimelineZoom: 1.6

[Metadata]
Title:terminal terminal
TitleUnicode:terminal terminal
Artist:Mayoi Hachikuji (Emiri Kato)
ArtistUnicode:八九寺真宵 (加藤英美里)
Creator:Chaoslitz
Version:Normal
Source:終物語
Tags:monogatari series second season owarimonogatari まよいヘル hell opening op meg rock ミト
BeatmapID:1403331
BeatmapSetID:655597

[Difficulty]
HPDrainRate:2
CircleSize:3.5
OverallDifficulty:3.5
ApproachRate:4
SliderMultiplier:1.1
SliderTickRate:1

[Events]
//Background and Video events
0,0,"bg.jpg",0,0
Video,0,"optc.flv"
//Break Periods
//Storyboard Layer 0 (Background)
//Storyboard Layer 1 (Fail)
//Storyboard Layer 2 (Pass)
//Storyboard Layer 3 (Foreground)
//Storyboard Sound Samples

[TimingPoints]
-1940,588.235294117647,4,2,1,100,1,0
412,-100,4,2,2,70,0,0
707,-100,4,2,1,70,0,0
8550,-100,4,2,2,70,0,0
9530,-100,4,2,2,50,0,0
9824,-100,4,2,1,50,0,0
17765,-100,4,2,1,60,0,0
18059,-100,4,2,1,60,0,0
19236,-100,4,2,2,60,0,0
19530,-100,4,2,1,60,0,0
23354,-100,4,2,1,60,0,0
24530,-100,4,2,1,60,0,0
28648,-100,4,2,2,60,0,0
29236,-100,4,2,1,60,0,0
38059,-100,4,2,1,70,0,0
42177,-100,4,2,1,70,0,0
42765,-100,4,2,1,80,0,0
46883,-100,4,2,1,80,0,0
47471,-90.9090909090909,4,2,2,90,0,1
47765,-90.9090909090909,4,2,1,90,0,1
48059,-90.9090909090909,4,2,1,90,0,1
48550,-90.9090909090909,4,2,1,90,0,1
50903,-90.9090909090909,4,2,1,90,0,1
51295,-90.9090909090909,4,2,1,90,0,1
52765,-90.9090909090909,4,2,1,90,0,1
53354,-90.9090909090909,4,2,2,90,0,1
53942,-90.9090909090909,4,2,1,90,0,1
54530,-90.9090909090909,4,2,1,90,0,1
55707,-90.9090909090909,4,2,1,90,0,1
56295,-90.9090909090909,4,2,1,90,0,1
56883,-90.9090909090909,4,2,2,90,0,1
57177,-90.9090909090909,4,2,1,90,0,1
58256,-90.9090909090909,4,2,1,90,0,1
59824,-90.9090909090909,4,2,1,90,0,1
61295,-90.9090909090909,4,2,1,90,0,1
65314,-90.9090909090909,4,2,1,90,0,1
65903,-90.9090909090909,4,2,1,90,0,1
66197,-90.9090909090909,4,2,1,90,0,0
66295,-90.9090909090909,4,2,2,90,0,1
66589,-90.9090909090909,4,2,1,90,0,1
69726,-90.9090909090909,4,2,1,90,0,1
70707,-90.9090909090909,4,2,1,90,0,1
71589,-90.9090909090909,4,2,1,90,0,1
72177,-90.9090909090909,4,2,2,90,0,1
72765,-90.9090909090909,4,2,1,90,0,1
73354,-90.9090909090909,4,2,1,90,0,1
74530,-90.9090909090909,4,2,1,90,0,1
75707,-90.9090909090909,4,2,2,90,0,1
76001,-90.9090909090909,4,2,1,90,0,1
77177,-90.9090909090909,4,2,1,90,0,1
78059,-90.9090909090909,4,2,1,90,0,1
82765,-100,4,2,2,90,0,1
82961,-100,4,2,1,60,0,0
83942,-100,4,2,1,70,0,0
84138,-100,4,2,1,60,0,0
85118,-100,4,2,2,80,0,0
85412,-100,4,2,1,75,0,0
85559,-100,4,2,2,70,0,0
85952,-100,4,2,2,65,0,0
86246,-100,4,2,1,65,0,0
86393,-100,4,2,2,60,0,0
86785,-100,4,2,1,60,0,0
87373,-100,4,2,2,80,0,0

[Colours]
Combo1 : 117,113,182
Combo2 : 149,219,89
Combo3 : 246,150,164
Combo4 : 252,213,102

[HitObjects]
26,58,412,6,0,B|9:261,1,201.666666666667,6|2,0:0|0:0,0:0:0:0:
140,359,2079,2,0,P|175:364|210:353,1,73.3333333333333,2|2,0:0|0:0,0:0:0:0:
275,302,2765,2,0,P|357:277|422:365,1,201.666666666667,6|2,0:0|0:0,0:0:0:0:
502,213,4432,6,0,L|508:131,1,73.3333333333333,2|2,2:0|2:0,2:2:0:0:
485,60,5118,2,0,P|415:38|349:139,1,201.666666666667,6|2,0:0|0:0,0:0:0:0:
200,204,6785,2,0,L|114:212,1,73.3333333333333,0|2,0:0|0:0,0:0:0:0:
46,228,7471,6,0,P|18:185|28:127,1,110,6|8,0:0|0:3,0:0:0:0:
129,35,8550,2,0,B|184:32|184:32|201:42|201:42|255:39,1,128.333333333333,4|2,0:0|0:0,0:0:0:0:
334,59,9530,1,0,0:0:0:0:
413,78,9824,6,0,L|403:190,1,110,0|2,0:0|0:0,0:0:0:0:
460,246,10707,1,2,0:0:0:0:
460,246,11001,2,0,L|452:328,1,82.5,2|2,0:0|0:0,0:0:0:0:
336,366,11883,1,0,0:0:0:0:
269,316,12177,6,0,L|157:326,1,110,0|2,0:0|0:0,0:0:0:0:
78,341,13059,1,2,0:0:0:0:
78,341,13354,2,0,P|60:305|62:264,1,82.5,2|2,0:0|0:0,0:0:0:0:
146,173,14236,1,2,0:0:0:0:
219,211,14530,6,0,L|328:201,1,110,0|2,0:0|0:0,0:0:0:0:
409,216,15412,1,2,0:0:0:0:
409,216,15707,2,0,L|416:133,1,82.5,2|2,0:0|0:0,0:0:0:0:
361,22,16589,1,2,0:0:0:0:
289,63,16883,6,0,L|234:67,1,55,2|0,0:0|0:0,0:0:0:0:
160,104,17471,2,0,L|105:108,1,55,2|10,0:0|0:0,0:0:0:0:
24,89,18059,2,0,L|19:34,2,55,4|8|12,0:0|0:0|0:0,0:0:0:0:
48,168,18942,1,4,0:0:0:0:
72,247,19236,6,0,L|67:301,1,55,4|2,0:0|0:0,0:0:0:0:
114,368,19824,2,0,L|168:363,1,55,10|2,0:0|0:0,0:0:0:0:
236,317,20412,2,0,P|281:309|323:325,1,91.6666666666667,6|0,0:0|0:0,0:0:0:0:
425,369,21295,1,2,0:0:0:0:
492,321,21589,6,0,L|487:263,1,55,4|2,0:0|0:0,0:0:0:0:
443,196,22177,2,0,L|448:138,1,55,10|2,0:0|0:0,0:0:0:0:
470,61,22765,2,0,L|372:52,1,91.6666666666667,6|0,0:0|0:0,0:0:0:0:
271,27,23648,1,2,0:0:0:0:
206,78,23942,6,0,L|94:86,1,110,4|10,0:0|0:0,0:0:0:0:
28,236,25118,2,0,L|137:228,1,110,6|0,0:0|0:0,0:0:0:0:
208,185,26001,1,2,0:0:0:0:
283,218,26295,6,0,P|280:257|276:282,1,55,6|0,0:0|0:0,0:0:0:0:
256,352,26883,2,0,P|295:361|319:361,1,55,10|2,0:0|0:0,0:0:0:0:
378,315,27471,2,0,P|410:308|440:310,1,55,6|6,0:0|0:0,0:0:0:0:
507,341,28059,1,8,0:3:0:0:
498,259,28354,1,4,0:3:0:0:
489,177,28648,6,0,L|500:53,1,110,4|4,0:0|0:0,0:0:0:0:
340,22,29824,2,0,L|335:76,1,55,4|2,0:0|0:0,0:0:0:0:
340,159,30412,2,0,L|335:213,1,55,6|2,0:0|0:0,0:0:0:0:
340,296,31001,6,0,P|285:300|230:305,1,110,6|4,0:0|0:0,0:0:0:0:
74,360,32177,2,0,P|68:325|66:305,1,55,6|0,0:0|3:0,0:0:0:0:
97,229,32765,2,0,P|99:201|100:174,1,55,4|0,3:2|0:0,0:0:0:0:
97,90,33354,6,0,P|46:77|0:104,2,110,6|6|6,0:0|0:0|0:0,0:0:0:0:
223,197,35118,1,6,0:0:0:0:
223,197,35412,2,0,L|332:189,1,110,2|2,0:0|0:0,0:0:0:0:
413,208,36295,2,0,P|424:249|415:289,1,73.3333333333333,4|0,0:0|0:0,0:0:0:0:
406,313,36883,2,0,L|342:318,1,55,6|0,0:0|3:0,0:0:0:0:
281,360,37471,2,0,L|217:355,1,55,6|2,3:2|0:0,0:0:0:0:
149,325,38059,6,0,P|116:328|88:333,1,55,8|4,0:0|0:0,0:0:0:0:
17,362,38648,2,0,P|-8:310|6:255,1,110,10|14,0:0|0:0,0:0:0:0:
51,194,39530,1,0,0:0:0:0:
99,127,39824,2,0,L|93:62,1,55,10|0,0:0|0:0,0:0:0:0:
172,48,40412,6,0,L|177:102,1,55,6|0,0:0|0:0,0:0:0:0:
239,156,41001,2,0,P|274:162|309:151,1,73.3333333333333,8|0,0:0|0:0,0:0:0:0:
338,129,41589,2,0,P|364:121|391:123,1,55,14|6,0:0|0:0,0:0:0:0:
464,160,42177,2,0,L|458:226,1,55,10|0,3:2|0:0,0:0:0:0:
496,288,42765,6,0,L|490:354,1,55,4|0,0:0|0:0,0:0:0:0:
412,369,43354,2,0,L|324:360,1,73.3333333333333,14|0,0:0|0:0,0:0:0:0:
307,343,43942,2,0,L|244:349,1,55,6|4,0:0|0:0,0:0:0:0:
170,362,44530,2,0,P|127:353|93:348,1,73.3333333333333,14|0,0:0|0:0,0:0:0:0:
62,356,45118,6,0,P|59:329|55:302,1,55,12|0,0:0|0:0,0:0:0:0:
14,230,45707,2,0,P|7:192|17:157,1,73.3333333333333,6|0,0:0|0:0,0:0:0:0:
37,128,46295,2,0,P|34:101|30:74,2,55,14|0|10,0:0|0:0|0:0,0:0:0:0:
119,136,47177,1,0,0:0:0:0:
171,62,47471,6,0,L|231:56,1,60.5000018463135,6|0,0:0|0:0,0:0:0:0:
314,92,48059,2,0,L|374:86,1,60.5000018463135,10|0,0:0|0:0,0:0:0:0:
457,122,48648,1,4,0:0:0:0:
383,174,48942,2,0,L|327:179,2,30.2500009231568,2|0|8,0:0|0:0|0:0,0:0:0:0:
465,210,49530,1,2,0:0:0:0:
473,298,49824,6,0,P|465:337|460:366,1,60.5000018463135,6|0,0:0|0:0,0:0:0:0:
422,368,50314,2,0,P|376:374|341:353,1,80.6666691284181,0|0,0:0|0:0,0:0:0:0:
313,335,50903,2,0,P|276:318|237:325,1,80.6666691284181,2|0,0:0|0:0,0:0:0:0:
158,369,51589,1,8,0:0:0:0:
73,335,51883,6,0,P|42:282|57:227,1,121.000003692627,2|0,0:0|0:0,0:0:0:0:
139,190,52765,2,0,P|142:159|145:129,1,60.5000018463135,10|0,0:0|0:0,0:0:0:0:
119,42,53354,2,0,L|239:31,1,121.000003692627,6|10,0:0|0:0,0:0:0:0:
408,97,54530,6,0,L|334:104,1,60.5000018463135,4|2,0:0|0:0,0:0:0:0:
321,189,55118,2,0,L|381:183,1,60.5000018463135,10|0,0:0|0:0,0:0:0:0:
448,244,55707,1,4,0:0:0:0:
500,169,56001,2,0,L|505:108,2,60.5000018463135,2|8|2,0:0|0:0|0:0,0:0:0:0:
448,244,56883,6,0,L|453:304,1,60.5000018463135,4|2,0:0|0:0,0:0:0:0:
380,359,57471,2,0,P|352:368|322:365,1,60.5000018463135,8|0,0:0|0:0,0:0:0:0:
256,301,58059,1,4,0:0:0:0:
189,365,58354,2,0,P|159:368|131:359,2,60.5000018463135,0|8|2,0:0|0:0|0:0,0:0:0:0:
256,301,59236,6,0,P|258:270|260:240,1,60.5000018463135,4|2,0:0|0:0,0:0:0:0:
204,168,59824,1,8,0:0:0:0:
119,200,60118,1,2,0:0:0:0:
43,149,60412,2,0,P|33:120|35:90,1,60.5000018463135,0|0,0:0|0:0,0:0:0:0:
103,28,61001,2,0,L|165:23,1,60.5000018463135,10|2,0:0|0:0,0:0:0:0:
238,73,61589,6,0,L|300:68,1,60.5000018463135,4|0,0:0|0:0,0:0:0:0:
385,92,62177,2,0,P|420:96|452:114,1,60.5000018463135,10|2,0:0|0:0,0:0:0:0:
460,142,62667,2,0,L|452:224,1,80.6666691284181,8|0,0:0|0:0,0:0:0:0:
372,266,63354,2,0,L|378:331,1,60.5000018463135,10|0,0:0|0:0,0:0:0:0:
298,370,63942,5,4,0:0:0:0:
239,300,64236,1,2,0:0:0:0:
162,349,64530,2,0,P|132:344|102:340,1,60.5000018463135,10|2,0:0|0:0,0:0:0:0:
14,362,65118,1,4,0:0:0:0:
39,275,65412,2,0,P|36:238|31:207,1,60.5000018463135,2|8,0:0|0:0,0:0:0:0:
25,175,65903,1,2,0:0:0:0:
38,54,66295,5,6,0:0:0:0:
116,99,66589,2,0,L|111:138,2,30.2500009231568,0|0|10,0:0|0:0|0:0,0:0:0:0:
168,25,67177,1,0,0:0:0:0:
246,70,67471,1,4,0:0:0:0:
246,70,67618,2,0,L|330:63,1,60.5000018463135,2|0,0:0|0:0,0:0:0:0:
332,62,68059,2,0,P|359:75|378:105,1,60.5000018463135,8|2,0:0|0:0,0:0:0:0:
380,188,68648,6,0,P|371:217|374:247,1,60.5000018463135,6|0,0:0|0:0,0:0:0:0:
400,277,69138,2,0,P|422:306|420:356,1,80.6666691284181,0|0,0:0|0:0,0:0:0:0:
392,373,69726,2,0,P|348:368|304:364,1,80.6666691284181,2|0,0:0|0:0,0:0:0:0:
256,292,70412,1,8,0:0:0:0:
200,364,70707,6,0,P|139:366|79:371,1,121.000003692627,2|0,0:0|0:0,0:0:0:0:
8,313,71589,2,0,P|-3:283|-1:254,1,60.5000018463135,10|0,0:0|0:0,0:0:0:0:
33,171,72177,2,0,P|91:152|145:177,1,121.000003692627,6|10,0:0|0:0,0:0:0:0:
294,276,73354,6,0,L|287:343,1,60.5000018463135,4|2,0:0|0:0,0:0:0:0:
368,378,73942,2,0,L|375:318,1,60.5000018463135,10|0,0:0|0:0,0:0:0:0:
371,226,74530,1,4,0:0:0:0:
452,268,74824,2,0,L|511:261,2,60.5000018463135,2|8|2,0:0|0:0|0:0,0:0:0:0:
371,226,75707,6,0,L|378:166,1,60.5000018463135,4|2,0:0|0:0,0:0:0:0:
385,75,76295,2,0,P|355:70|325:65,1,60.5000018463135,8|0,0:0|0:0,0:0:0:0:
256,124,76883,1,4,0:0:0:0:
186,65,77177,2,0,P|156:70|127:75,2,60.5000018463135,0|8|2,0:0|0:0|0:0,0:0:0:0:
256,124,78059,6,0,P|265:152|265:182,1,60.5000018463135,4|2,0:0|0:0,0:0:0:0:
208,253,78648,2,0,P|164:250|136:246,1,60.5000018463135,8|2,0:0|0:0,0:0:0:0:
67,290,79236,1,4,0:0:0:0:
70,198,79530,2,0,P|66:154|62:132,2,60.5000018463135,6|10|2,0:0|0:0|0:0,0:0:0:0:
67,290,80412,6,0,P|85:343|161:349,1,121.000003692627,6|8,0:0|0:0,0:0:0:0:
213,299,81295,1,10,0:0:0:0:
293,340,81589,2,0,P|329:337|361:334,1,60.5000018463135,4|4,0:0|0:0,0:0:0:0:
437,367,82177,2,0,P|440:336|443:306,1,60.5000018463135,10|4,0:0|0:0,0:0:0:0:
462,226,82765,6,0,P|459:180|456:134,1,91.6666666666667,6|0,0:0|0:0,0:0:0:0:
366,70,83648,1,2,0:0:0:0:
287,98,83942,2,0,P|232:102|177:106,1,110,4|2,0:0|0:0,0:0:0:0:
98,83,84824,1,2,0:0:0:0:
118,163,85118,6,0,L|111:248,1,82.5,6|4,0:0|0:0,0:0:0:0:
219,227,85952,2,0,L|211:309,1,82.5,6|4,0:0|0:0,0:0:0:0:
312,353,86785,2,0,P|363:367|411:342,1,110,4|4,0:0|0:0,0:0:0:0:
