osu file format v14

[General]
AudioFilename: audio.mp3
AudioLeadIn: 0
PreviewTime: 47291
Countdown: 0
SampleSet: Soft
StackLeniency: 0.7
Mode: 0
LetterboxInBreaks: 0
WidescreenStoryboard: 1

[Editor]
Bookmarks: 9840,19252,28664,66311
DistanceSpacing: 1.1
BeatDivisor: 6
GridSize: 4
TimelineZoom: 1.6

[Metadata]
Title:terminal terminal
TitleUnicode:terminal terminal
Artist:Mayoi Hachikuji (Emiri Kato)
ArtistUnicode:八九寺真宵 (加藤英美里)
Creator:Chaoslitz
Version:Hard
Source:終物語
Tags:monogatari series second season owarimonogatari まよいヘル hell opening op meg rock ミト
BeatmapID:1403330
BeatmapSetID:655597

[Difficulty]
HPDrainRate:4
CircleSize:3.8
OverallDifficulty:4.5
ApproachRate:7
SliderMultiplier:1.8
SliderTickRate:1

[Events]
//Background and Video events
0,0,"bg.jpg",0,0
Video,0,"optc.flv"
//Break Periods
//Storyboard Layer 0 (Background)
//Storyboard Layer 1 (Fail)
//Storyboard Layer 2 (Pass)
//Storyboard Layer 3 (Foreground)
//Storyboard Sound Samples

[TimingPoints]
-1940,588.235294117647,4,2,1,70,1,0
118,-111.111111111111,4,2,1,70,0,0
412,-111.111111111111,4,2,2,70,0,0
707,-111.111111111111,4,2,1,70,0,0
8550,-111.111111111111,4,2,2,70,0,0
9530,-111.111111111111,4,2,2,50,0,0
9824,-111.111111111111,4,2,1,50,0,0
17765,-111.111111111111,4,2,1,60,0,0
18059,-111.111111111111,4,2,1,60,0,0
19236,-111.111111111111,4,2,2,60,0,0
19530,-111.111111111111,4,2,1,60,0,0
23354,-111.111111111111,4,2,1,60,0,0
24530,-111.111111111111,4,2,1,60,0,0
28648,-111.111111111111,4,2,2,60,0,0
29236,-111.111111111111,4,2,1,60,0,0
38059,-111.111111111111,4,2,1,70,0,0
42177,-111.111111111111,4,2,1,70,0,0
42765,-111.111111111111,4,2,1,80,0,0
46883,-111.111111111111,4,2,1,80,0,0
47471,-100,4,2,2,90,0,1
47765,-100,4,2,1,90,0,1
48059,-100,4,2,1,90,0,1
48550,-100,4,2,1,90,0,1
50903,-100,4,2,1,90,0,1
51295,-100,4,2,1,90,0,1
52765,-100,4,2,1,90,0,1
53354,-100,4,2,2,90,0,1
53942,-100,4,2,1,90,0,1
54530,-100,4,2,1,90,0,1
55707,-100,4,2,1,90,0,1
56295,-100,4,2,1,90,0,1
56883,-100,4,2,2,90,0,1
57177,-100,4,2,1,90,0,1
58256,-100,4,2,1,90,0,1
59824,-100,4,2,1,90,0,1
61295,-100,4,2,1,90,0,1
65314,-100,4,2,1,90,0,1
65903,-100,4,2,1,90,0,1
66197,-100,4,2,1,90,0,0
66295,-100,4,2,2,90,0,1
66589,-100,4,2,1,90,0,1
69726,-100,4,2,1,90,0,1
70707,-100,4,2,1,90,0,1
71589,-100,4,2,1,90,0,1
72177,-100,4,2,2,90,0,1
72765,-100,4,2,1,90,0,1
73354,-100,4,2,1,90,0,1
74530,-100,4,2,1,90,0,1
75707,-100,4,2,2,90,0,1
76001,-100,4,2,1,90,0,1
77177,-100,4,2,1,90,0,1
78059,-100,4,2,1,90,0,1
82765,-111.111111111111,4,2,2,90,0,1
82961,-111.111111111111,4,2,1,60,0,0
83942,-111.111111111111,4,2,1,70,0,0
84138,-111.111111111111,4,2,1,60,0,0
85118,-100,4,2,2,80,0,0
85412,-100,4,2,1,75,0,0
85559,-100,4,2,2,70,0,0
85952,-100,4,2,2,65,0,0
86246,-100,4,2,1,65,0,0
86393,-100,4,2,2,60,0,0
86785,-100,4,2,1,60,0,0
87373,-100,4,2,2,80,0,0

[Colours]
Combo1 : 117,113,182
Combo2 : 149,219,89
Combo3 : 246,150,164
Combo4 : 252,213,102

[HitObjects]
79,336,118,6,0,L|37:307,2,26.9999991760254,0|0|0,0:0|0:0|0:0,0:0:0:0:
79,336,412,6,0,L|164:328,1,80.9999975280763,6|0,0:0|0:0,0:0:0:0:
234,279,1001,2,0,L|306:272,1,53.9999983520508,10|0,0:0|0:0,0:0:0:0:
312,291,1295,1,0,0:0:0:0:
378,244,1491,2,0,B|395:272|395:272|386:346,1,107.999996704102,2|0,0:0|0:0,0:0:0:0:
463,372,2079,2,0,L|474:279,1,80.9999975280763,2|0,0:0|0:0,0:0:0:0:
475,261,2471,1,2,0:0:0:0:
511,179,2765,6,0,L|417:188,1,80.9999975280763,6|0,0:0|0:0,0:0:0:0:
361,130,3354,2,0,L|289:137,1,53.9999983520508,10|0,0:0|0:0,0:0:0:0:
283,117,3648,1,0,0:0:0:0:
222,167,3844,2,0,B|201:146|201:146|122:138,1,107.999996704102,2|0,0:0|0:0,0:0:0:0:
48,171,4432,2,0,P|35:208|44:248,1,80.9999975280763,2|0,2:0|2:0,2:2:0:0:
63,270,4824,1,2,2:0:0:0:
148,290,5118,6,0,L|140:370,1,80.9999975280763,6|0,0:0|0:0,0:0:0:0:
223,338,5707,2,0,L|231:261,1,53.9999983520508,8|0,0:0|0:0,0:0:0:0:
232,255,6001,1,2,0:0:0:0:
288,197,6197,2,0,B|322:187|322:187|397:201,1,107.999996704102,2|0,0:0|0:0,0:0:0:0:
470,175,6785,2,0,P|488:139|484:99,1,80.9999975280763
473,72,7177,1,2,0:0:0:0:
389,41,7471,6,0,L|309:49,1,80.9999975280763,6|0,0:0|0:0,0:0:0:0:
219,58,8059,2,0,L|158:52,1,53.9999983520508,8|0,0:3|0:0,0:0:0:0:
135,49,8354,1,2,0:0:0:0:
54,68,8550,6,0,P|24:156|107:194,1,188.999994232178,4|2,0:0|0:0,0:0:0:0:
174,157,9530,1,0,0:0:0:0:
243,212,9824,5,0,0:0:0:0:
243,212,10118,2,0,L|236:296,2,80.9999975280763,2|2|2,0:0|0:0|0:0,0:0:0:0:
324,247,11001,2,0,L|317:331,1,80.9999975280763,2|0,0:0|0:0,0:0:0:0:
314,359,11442,2,0,L|435:350,1,121.499996292114,2|0,0:0|0:0,0:0:0:0:
494,283,12177,5,0,0:0:0:0:
494,283,12471,2,0,L|500:202,2,80.9999975280763,2|2|2,0:0|0:0|0:0,0:0:0:0:
405,266,13354,2,0,L|410:185,1,80.9999975280763,2|0,0:0|0:0,0:0:0:0:
412,152,13795,1,2,0:0:0:0:
322,53,14236,1,2,0:0:0:0:
256,112,14530,5,0,0:0:0:0:
190,53,14824,2,0,L|109:58,1,80.9999975280763,2|2,0:0|0:0,0:0:0:0:
23,34,15412,1,2,0:0:0:0:
45,121,15707,2,0,L|37:201,1,80.9999975280763,2|0,0:0|0:0,0:0:0:0:
43,233,16148,2,0,P|87:274|145:269,1,121.499996292114,2|2,0:0|0:0,0:0:0:0:
221,221,16883,6,0,L|215:140,2,80.9999975280763,2|0|2,0:0|0:0|0:0,0:0:0:0:
284,283,17765,1,10,0:0:0:0:
260,368,18059,2,0,L|338:360,1,53.9999983520508,4|8,0:0|0:3,0:0:0:0:
333,371,18354,2,0,L|411:363,1,53.9999983520508,8|0,0:0|0:0,0:0:0:0:
406,373,18648,2,0,P|413:347|412:320,1,53.9999983520508,12|4,0:0|0:3,0:0:0:0:
404,301,18942,1,4,0:0:0:0:
354,226,19236,6,0,L|434:217,1,80.9999975280763,4|2,0:0|0:0,0:0:0:0:
504,160,19824,2,0,P|509:121|494:83,1,80.9999975280763,10|2,0:0|0:0,0:0:0:0:
418,36,20412,2,0,L|364:42,1,53.9999983520508,6|8,0:0|0:0,0:0:0:0:
348,56,20707,2,0,L|294:49,1,53.9999983520508,6|0,0:0|0:0,0:0:0:0:
275,39,21001,2,0,L|195:48,1,80.9999975280763,0|2,0:0|0:0,0:0:0:0:
109,21,21589,5,4,0:0:0:0:
128,108,21883,1,2,0:0:0:0:
42,81,22177,1,10,0:0:0:0:
61,168,22471,1,2,0:0:0:0:
79,255,22765,2,0,P|106:252|133:247,1,53.9999983520508,6|8,0:0|0:0,0:0:0:0:
152,253,23059,2,0,P|170:274|179:299,1,53.9999983520508,6|0,0:0|0:0,0:0:0:0:
179,321,23354,1,8,0:0:0:0:
256,365,23648,1,2,0:0:0:0:
332,320,23942,6,0,L|414:313,1,80.9999975280763,4|2,0:0|0:0,0:0:0:0:
489,358,24530,2,0,P|502:320|494:279,1,80.9999975280763,10|0,0:0|0:0,0:0:0:0:
429,223,25118,2,0,P|431:196|434:169,1,53.9999983520508,6|8,0:0|0:0,0:0:0:0:
446,151,25412,2,0,P|444:124|441:97,1,53.9999983520508,4|2,0:0|0:0,0:0:0:0:
441,74,25707,2,0,P|407:55|367:60,1,80.9999975280763,0|2,0:0|0:0,0:0:0:0:
300,119,26295,6,0,L|212:126,1,80.9999975280763,6|0,0:0|0:0,0:0:0:0:
147,72,26883,2,0,L|59:79,1,80.9999975280763,10|2,0:0|0:0,0:0:0:0:
40,163,27471,2,0,L|0:166,2,40.4999987640381,6|8|6,0:0|0:0|0:0,0:0:0:0:
93,234,28059,1,8,0:3:0:0:
66,318,28354,1,4,0:3:0:0:
138,369,28648,6,0,P|218:360|299:354,1,161.999995056153,4|4,0:0|0:0,0:0:0:0:
423,226,29824,1,4,0:0:0:0:
354,285,30118,1,2,0:0:0:0:
387,367,30412,1,6,0:0:0:0:
475,362,30707,1,2,0:0:0:0:
499,274,31001,6,0,P|505:193|512:112,1,161.999995056153,6|4,0:0|0:0,0:0:0:0:
442,56,31883,1,0,0:0:0:0:
359,93,32177,1,6,0:0:0:0:
359,93,32471,2,0,L|278:98,1,80.9999975280763,0|4,3:0|3:2,0:0:0:0:
193,72,33059,1,0,0:0:0:0:
106,45,33354,6,0,P|45:94|45:172,2,161.999995056153,6|6|6,0:0|0:0|0:0,0:0:0:0:
126,133,34824,1,0,0:0:0:0:
193,72,35118,1,6,0:0:0:0:
211,158,35412,1,2,0:0:0:0:
229,244,35707,6,0,L|224:325,1,80.9999975280763,4|2,0:0|0:0,0:0:0:0:
299,371,36295,1,4,0:0:0:0:
352,299,36589,2,0,L|354:258,2,40.4999987640381,0|2|6,0:0|0:0|0:0,0:0:0:0:
437,324,37177,1,0,3:0:0:0:
437,324,37471,2,0,L|442:243,1,80.9999975280763,6|2,3:2|0:0,0:0:0:0:
410,159,38059,5,8,0:0:0:0:
470,93,38354,1,4,0:0:0:0:
417,19,38648,2,0,P|357:24|296:28,1,121.499996292114,10|0,0:0|0:0,0:0:0:0:
264,24,39236,2,0,P|248:62|255:101,1,80.9999975280763,14|0,0:0|0:0,0:0:0:0:
289,183,39824,2,0,P|295:222|280:259,1,80.9999975280763,10|0,0:0|0:0,0:0:0:0:
203,303,40412,6,0,L|122:308,1,80.9999975280763,6|0,0:0|0:0,0:0:0:0:
54,366,41001,2,0,P|33:311|50:254,1,121.499996292114,8|0,0:0|0:0,0:0:0:0:
74,232,41589,1,14,0:0:0:0:
102,147,41883,1,6,0:0:0:0:
54,71,42177,2,0,B|138:62|138:62|165:86,1,121.499996292114,10|0,3:2|0:0,0:0:0:0:
186,111,42765,6,0,B|270:102,1,80.9999975280763,4|0,0:0|0:0,0:0:0:0:
343,56,43354,2,0,P|400:40|459:90,1,121.499996292114,14|0,0:0|0:0,0:0:0:0:
466,99,43942,2,0,B|461:183,1,80.9999975280763,6|4,0:0|0:0,0:0:0:0:
380,216,44530,2,0,B|371:360,1,121.499996292114,14|0,0:0|0:0,0:0:0:0:
361,368,45118,6,0,P|322:373|283:362,1,80.9999975280763,12|0,0:0|0:0,0:0:0:0:
206,313,45707,2,0,P|149:301|98:332,1,121.499996292114,6|0,0:0|0:0,0:0:0:0:
87,363,46295,1,14,0:0:0:0:
8,320,46589,2,0,P|13:271|14:252,1,53.9999983520508,0|8,0:0|0:0,0:0:0:0:
25,248,46883,2,0,P|22:207|17:167,1,80.9999975280763,10|0,0:0|0:0,0:0:0:0:
29,68,47471,6,0,P|69:51|113:57,1,90,6|0,0:0|0:0,0:0:0:0:
187,124,48059,1,10,0:0:0:0:
271,72,48354,2,0,P|300:69|330:66,1,60,0|0,0:0|0:0,0:0:0:0:
354,69,48648,2,0,P|375:106|361:159,1,90,4|2,0:0|0:0,0:0:0:0:
344,178,49089,1,0,0:0:0:0:
344,178,49236,2,0,P|348:216|349:246,1,45,8|0,0:0|0:0,0:0:0:0:
370,251,49530,2,0,P|367:289|363:318,1,45,2|0,0:0|0:0,0:0:0:0:
353,329,49824,5,6,0:0:0:0:
261,367,50118,2,0,P|232:361|196:359,1,60,0|0,0:0|0:0,0:0:0:0:
178,364,50412,2,0,P|164:322|177:280,1,90,8|0,0:0|0:0,0:0:0:0:
226,218,50903,2,0,L|219:128,1,90,2|2,0:0|0:0,0:0:0:0:
205,108,51295,1,0,0:0:0:0:
133,39,51589,1,8,0:0:0:0:
41,77,51883,6,0,P|34:166|27:256,1,180,2|0,0:0|0:0,0:0:0:0:
16,354,52765,1,10,0:0:0:0:
106,315,53059,2,0,P|136:314|163:328,1,60,0|8,0:0|0:0,0:0:0:0:
177,347,53354,2,0,L|266:338,1,90,6|0,0:0|0:0,0:0:0:0:
360,370,53942,2,0,L|449:361,1,90,10|0,0:0|0:0,0:0:0:0:
505,279,54530,5,4,0:0:0:0:
438,205,54824,2,0,L|375:211,1,60,2|0,0:0|0:0,0:0:0:0:
358,196,55118,2,0,L|295:202,1,60,10|0,0:0|0:0,0:0:0:0:
278,187,55412,1,0,0:0:0:0:
187,146,55707,2,0,P|142:150|97:155,1,90,4|2,0:0|0:0,0:0:0:0:
12,205,56295,2,0,P|5:249|23:289,1,90,8|2,0:0|0:0,0:0:0:0:
89,363,56883,6,0,P|116:348|145:346,1,60,4|0,0:0|0:0,0:0:0:0:
168,351,57177,2,0,P|199:355|228:344,1,60,2|0,0:0|0:0,0:0:0:0:
243,329,57471,2,0,L|302:322,1,60,8|2,0:0|0:0,0:0:0:0:
325,329,57765,1,0,0:0:0:0:
415,368,58059,2,0,P|419:323|424:278,1,90,4|0,0:0|0:0,0:0:0:0:
480,196,58648,2,0,P|475:151|470:106,1,90,8|2,0:0|0:0,0:0:0:0:
421,20,59236,5,4,0:0:0:0:
351,90,59530,1,2,0:0:0:0:
256,62,59824,2,0,P|226:66|196:68,1,60,8|0,0:0|0:0,0:0:0:0:
172,71,60118,2,0,P|144:59|114:59,1,60,2|2,0:0|0:0,0:0:0:0:
92,68,60412,2,0,P|60:105|63:156,1,90,0|0,0:0|0:0,0:0:0:0:
123,219,61001,1,10,0:0:0:0:
52,289,61295,2,0,P|57:325|59:348,1,60,2|0,0:0|0:0,0:0:0:0:
53,371,61589,6,0,P|92:352|137:355,1,90,4|0,0:0|0:0,0:0:0:0:
235,371,62177,1,10,0:0:0:0:
326,333,62471,2,0,L|390:328,1,60,2|8,0:0|0:0,0:0:0:0:
409,326,62765,2,0,P|413:290|417:261,1,60,6|0,0:0|0:0,0:0:0:0:
427,245,63059,1,0,0:0:0:0:
494,172,63354,1,10,0:0:0:0:
458,78,63648,2,0,P|432:66|402:70,1,60,0|8,0:0|0:0,0:0:0:0:
383,84,63942,5,4,0:0:0:0:
316,42,64138,2,0,L|276:46,1,30,0|2,0:0|0:0,0:0:0:0:
237,105,64432,2,0,L|197:101,1,30,0|10,0:0|0:0,0:0:0:0:
144,55,64726,2,0,L|104:59,1,30,0|2,0:0|0:0,0:0:0:0:
45,94,65020,2,0,P|29:133|44:187,1,90,2|0,0:0|0:0,0:0:0:0:
49,198,65412,2,0,P|54:228|45:257,1,60,2|8,0:0|0:0,0:0:0:0:
33,278,65707,1,8,0:0:0:0:
67,347,65903,2,0,P|113:342|166:338,1,90,2|0,0:0|0:0,0:0:0:0:
177,349,66295,5,6,0:0:0:0:
256,293,66589,2,0,L|256:246,2,45,0|0|10,0:0|0:0|0:0,0:0:0:0:
310,349,67079,2,0,L|384:342,1,75,0|0,0:0|0:0,0:0:0:0:
417,356,67471,1,4,0:0:0:0:
417,356,67618,2,0,P|440:317|430:267,1,90,2|0,0:0|0:0,0:0:0:0:
411,246,68059,1,8,0:0:0:0:
460,160,68354,2,0,L|518:155,2,45,2|0|6,0:0|0:0|0:0,0:0:0:0:
362,161,68942,6,0,L|367:101,1,60,0|0,0:0|0:0,0:0:0:0:
364,77,69236,2,0,P|332:48|288:45,1,90,8|0,0:0|0:0,0:0:0:0:
218,79,69726,2,0,P|173:83|128:87,1,90,2|2,0:0|0:0,0:0:0:0:
105,81,70118,1,0,0:0:0:0:
18,129,70412,1,8,0:0:0:0:
65,215,70707,6,0,P|150:214|183:293,1,180,2|0,0:0|0:0,0:0:0:0:
256,359,71589,1,10,0:0:0:0:
328,293,71883,2,0,P|360:290|388:288,1,60,0|8,0:0|0:0,0:0:0:0:
410,295,72177,2,0,P|430:250|418:205,1,90,6|0,0:0|0:0,0:0:0:0:
366,129,72765,2,0,L|265:137,1,90,10|0,0:0|0:0,0:0:0:0:
183,100,73354,5,4,0:0:0:0:
91,138,73648,2,0,P|61:141|31:144,1,60,2|0,0:0|0:0,0:0:0:0:
9,155,73942,2,0,P|-3:182|-1:212,1,60,10|0,0:0|0:0,0:0:0:0:
8,233,74236,1,0,0:0:0:0:
70,310,74530,2,0,L|165:299,1,90,4|2,0:0|0:0,0:0:0:0:
255,275,75118,2,0,P|252:305|248:335,1,60,8|0,0:0|0:0,0:0:0:0:
241,358,75412,1,2,0:0:0:0:
332,320,75707,6,0,P|373:319|406:339,1,60,4|0,0:0|0:0,0:0:0:0:
410,339,76001,2,0,P|439:336|469:333,1,60,2|0,0:0|0:0,0:0:0:0:
489,320,76295,2,0,P|497:291|494:261,1,60,8|2,0:0|0:0,0:0:0:0:
478,243,76589,1,0,0:0:0:0:
382,216,76883,2,0,P|386:172|390:127,1,90,4|0,0:0|0:0,0:0:0:0:
401,29,77471,1,8,0:0:0:0:
310,69,77765,1,2,0:0:0:0:
219,109,78059,5,4,0:0:0:0:
135,53,78354,2,0,P|106:56|76:59,1,60,2|0,0:0|0:0,0:0:0:0:
54,70,78648,2,0,P|36:111|46:146,1,60,8|0,0:0|0:0,0:0:0:0:
50,145,78942,1,2,0:0:0:0:
120,213,79236,2,0,P|117:243|115:273,1,60,4|8,0:0|0:0,0:0:0:0:
102,294,79530,1,6,0:0:0:0:
173,361,79824,2,0,L|263:352,1,90,10|2,0:0|0:0,0:0:0:0:
361,339,80412,6,0,P|448:364|484:291,1,180,6|8,0:0|0:0,0:0:0:0:
441,206,81295,2,0,P|438:177|447:148,1,60,10|0,0:0|0:0,0:0:0:0:
461,129,81589,2,0,L|360:122,1,90,4|4,0:0|0:0,0:0:0:0:
307,46,82177,2,0,P|278:49|248:51,1,60,10|0,0:0|0:0,0:0:0:0:
220,70,82471,2,0,P|191:73|161:75,1,60,4|0,0:0|0:0,0:0:0:0:
137,85,82765,6,0,P|130:110|132:137,1,53.9999983520508,6|0,0:0|0:0,0:0:0:0:
140,165,83059,2,0,P|142:191|134:217,1,53.9999983520508,2|0,0:0|0:0,0:0:0:0:
103,301,83550,1,0,0:0:0:0:
103,301,83648,2,0,L|179:294,1,53.9999983520508,2|0,0:0|0:0,0:0:0:0:
178,293,83942,1,4,0:0:0:0:
241,343,84138,1,0,0:0:0:0:
241,343,84236,2,0,L|317:336,1,53.9999983520508,2|0,0:0|0:0,0:0:0:0:
316,335,84530,1,2,0:0:0:0:
403,315,84824,2,0,L|406:352,2,26.9999991760254,2|0|0,0:0|0:0|0:0,0:0:0:0:
403,315,85118,6,0,L|412:214,1,90,6|8,0:0|0:0,0:0:0:0:
414,189,85559,1,4,0:0:0:0:
453,62,85952,2,0,L|352:71,1,90,6|8,0:0|0:0,0:0:0:0:
337,95,86393,2,0,L|236:86,1,90,4|0,0:0|0:0,0:0:0:0:
228,100,86785,2,0,P|172:151|95:117,1,150,4|8,0:0|0:0,0:0:0:0:
95,111,87373,1,4,0:0:0:0:
