osu file format v14

[General]
AudioFilename: audio.mp3
AudioLeadIn: 0
PreviewTime: 66651
Countdown: 0
SampleSet: Normal
StackLeniency: 0.7
Mode: 0
LetterboxInBreaks: 0
WidescreenStoryboard: 1

[Editor]
DistanceSpacing: 1.5
BeatDivisor: 8
GridSize: 4
TimelineZoom: 1

[Metadata]
Title:Terminal Terminal
TitleUnicode:Terminal Terminal
Artist:Mayoi Hachikuji (Emiri Kato)
ArtistUnicode:Mayoi Hachikuji (Emiri Kato)
Creator:Weeabooski
Version:Hard
Source:
Tags:
BeatmapID:1389472
BeatmapSetID:654879

[Difficulty]
HPDrainRate:6
CircleSize:5
OverallDifficulty:7
ApproachRate:8
SliderMultiplier:2.49999990463257
SliderTickRate:1

[Events]
//Background and Video events
Video,0,"Terminal Vid.mp4"
0,0,"Terminal.jpg",0,0
//Break Periods
//Storyboard Layer 0 (Background)
//Storyboard Layer 1 (Fail)
//Storyboard Layer 2 (Pass)
//Storyboard Layer 3 (Foreground)
//Storyboard Sound Samples

[TimingPoints]
14885,588.259157688541,4,1,0,100,1,0
66651,-100,4,1,0,100,0,1
74299,-100,4,1,0,100,0,0

[Colours]
Combo1 : 255,94,94
Combo2 : 148,148,148
Combo3 : 130,253,94
Combo4 : 46,34,77

[HitObjects]
436,180,9884,5,0,0:0:0:0:
432,184,10178,1,0,0:0:0:0:
324,256,10473,1,0,0:0:0:0:
176,256,10767,1,0,0:0:0:0:
100,176,11061,1,0,0:0:0:0:
148,60,11355,1,0,0:0:0:0:
264,56,11649,2,0,L|352:88,1,83.333330154419
356,176,12237,5,0,0:0:0:0:
192,72,12531,1,0,0:0:0:0:
60,160,12826,1,0,0:0:0:0:
160,296,13120,1,0,0:0:0:0:
336,304,13414,1,0,0:0:0:0:
444,184,13708,1,0,0:0:0:0:
340,84,14002,2,0,L|256:72,1,62.4999976158143
156,240,14590,5,0,0:0:0:0:
156,240,14885,1,0,0:0:0:0:
344,100,15179,1,0,0:0:0:0:
144,104,15473,1,0,0:0:0:0:
336,236,15767,1,0,0:0:0:0:
240,32,16061,2,0,L|240:176,1,124.999995231629
240,164,16502,1,0,0:0:0:0:
376,76,16943,1,0,0:0:0:0:
108,76,17238,2,0,L|108:208,3,124.999995231629
192,256,18414,1,0,0:0:0:0:
224,280,18561,1,0,0:0:0:0:
264,284,18708,1,0,0:0:0:0:
376,280,19002,2,0,P|448:264|452:200,1,124.999995231629
452,96,19591,5,0,0:0:0:0:
440,200,20179,2,0,P|364:272|336:284,1,124.999995231629
200,248,20767,1,0,0:0:0:0:
200,248,20914,1,0,0:0:0:0:
200,248,21061,2,0,P|128:208|96:168,1,124.999995231629
64,80,21649,1,0,0:0:0:0:
168,52,21944,2,0,P|240:88|296:72,1,124.999995231629
168,52,22532,2,0,P|156:120|188:180,1,124.999995231629
168,52,23120,2,0,P|100:88|56:140,1,124.999995231629
96,268,23708,1,0,0:0:0:0:
212,268,24002,2,4,L|352:264,1,124.999995231629
444,96,24885,1,0,0:0:0:0:
68,96,25473,1,4,0:0:0:0:
256,80,26650,5,0,0:0:0:0:
116,192,26944,1,0,0:0:0:0:
256,304,27238,1,0,0:0:0:0:
396,192,27532,1,0,0:0:0:0:
256,304,27826,1,0,0:0:0:0:
116,192,28120,1,0,0:0:0:0:
256,80,28414,1,0,0:0:0:0:
396,192,28709,1,0,0:0:0:0:
256,192,29003,1,4,0:0:0:0:
140,192,30179,6,0,P|256:228|380:192,2,249.999990463257,0|0|4,0:0|0:0|0:0,0:0:0:0:
296,304,32532,2,0,P|368:196|288:104,1,249.999990463257
212,80,33415,1,0,0:0:0:0:
68,144,33709,1,0,0:0:0:0:
212,80,34297,1,0,0:0:0:0:
84,120,34885,2,0,P|152:244|260:252,1,249.999990463257
348,224,35768,2,0,B|376:160|376:160|228:56,1,249.999990463257,0|4,0:0|0:0,0:0:0:0:
88,76,37091,1,0,0:0:0:0:
88,80,37238,2,0,L|180:184,1,124.999995231629
376,72,37827,2,0,L|280:188,1,124.999995231629
164,56,38415,5,0,0:0:0:0:
164,181,38709,2,0,L|164:49,1,124.999995231629
320,48,39297,1,0,0:0:0:0:
320,173,39591,2,0,L|320:41,1,124.999995231629
268,120,40180,2,0,L|388:120,1,104.166662693024
320,216,40768,1,12,0:0:0:0:
152,296,41797,2,0,L|112:244,1,62.4999976158143
96,168,42239,2,0,P|132:104|188:60,1,124.999995231629
372,56,42827,1,0,0:0:0:0:
440,196,43121,2,0,L|352:292,1,124.999995231629
228,292,43709,2,0,L|92:292,1,124.999995231629
88,160,44297,6,0,P|112:96|176:72,1,124.999995231629
352,68,44886,2,0,B|472:88|492:112|432:252,1,249.999990463257
308,272,46062,1,0,0:0:0:0:
152,208,46650,1,0,0:0:0:0:
168,104,46945,1,0,0:0:0:0:
272,60,47239,1,0,0:0:0:0:
356,104,47533,1,0,0:0:0:0:
216,152,47827,6,0,P|164:236|136:248,1,124.999995231629,4|0,0:0|0:0,0:0:0:0:
252,304,48415,2,0,P|340:260|348:216,1,124.999995231629
348,64,49004,2,0,B|272:64|272:64|232:104,1,124.999995231629
40,244,49592,1,0,0:0:0:0:
144,60,49886,1,0,0:0:0:0:
256,64,50180,2,0,P|368:116|376:128,1,124.999995231629,0|4,0:0|0:0,0:0:0:0:
365,113,50621,1,4,0:0:0:0:
344,180,51651,5,0,0:0:0:0:
396,240,51945,2,0,P|324:264|284:212,1,124.999995231629
256,140,52533,2,0,P|184:116|144:168,1,124.999995231629
204,56,53121,2,0,L|204:200,1,124.999995231629
196,296,53710,2,4,P|332:292|408:200,1,249.999990463257
80,204,54886,1,4,0:0:0:0:
256,220,55769,5,0,0:0:0:0:
256,164,56063,1,0,0:0:0:0:
256,276,56357,1,0,0:0:0:0:
256,108,56651,1,0,0:0:0:0:
424,100,56945,2,0,P|428:184|400:236,1,124.999995231629
276,288,57533,1,4,0:0:0:0:
276,288,57680,1,4,0:0:0:0:
120,204,58122,5,0,0:0:0:0:
144,140,58416,2,0,P|140:73|212:52,1,124.999995231629
204,108,59004,2,0,L|332:112,1,124.999995231629
424,116,59592,2,0,P|424:196|388:232,1,124.999995231629,0|4,0:0|0:0,0:0:0:0:
392,228,60033,1,4,0:0:0:0:
136,92,60475,1,0,0:0:0:0:
136,176,60769,2,0,B|136:244|136:244|180:288,1,124.999995231629
136,92,61357,1,0,0:0:0:0:
300,92,61651,1,0,0:0:0:0:
448,92,61945,2,0,P|448:228|236:304,1,374.999985694885,0|4,0:0|0:0,0:0:0:0:
250,309,62975,1,4,0:0:0:0:
76,164,63710,5,0,0:0:0:0:
184,136,64298,2,0,P|292:68|412:120,1,249.999990463257
424,252,65475,1,0,0:0:0:0:
288,296,65769,1,0,0:0:0:0:
344,128,66063,1,0,0:0:0:0:
208,184,66357,1,0,0:0:0:0:
232,48,66651,6,0,P|152:76|120:132,1,124.999995231629,4|0,0:0|0:0,0:0:0:0:
92,204,67240,2,0,P|136:264|184:284,1,124.999995231629
224,288,67681,1,0,0:0:0:0:
260,292,67828,2,0,P|344:280|384:248,1,124.999995231629
380,252,68269,1,0,0:0:0:0:
384,248,68416,1,0,0:0:0:0:
368,88,68710,1,0,0:0:0:0:
368,88,68857,1,0,0:0:0:0:
368,88,69004,2,0,P|248:92|240:100,1,124.999995231629,0|4,0:0|0:0,0:0:0:0:
251,88,69446,1,4,0:0:0:0:
64,84,70475,6,0,B|64:144|64:144|120:184,1,124.999995231629
144,92,71063,2,0,B|196:128|196:128|196:216,1,124.999995231629
244,56,71652,2,0,B|296:92|296:92|296:180,1,124.999995231629
248,260,72240,1,0,0:0:0:0:
112,224,72534,1,4,0:0:0:0:
296,40,73122,1,4,0:0:0:0:
448,256,73710,1,4,0:0:0:0:
212,236,74593,5,0,0:0:0:0:
148,136,74887,1,0,0:0:0:0:
240,72,75181,2,0,P|312:72|368:104,1,124.999995231629
400,200,75769,1,0,0:0:0:0:
304,252,76063,2,0,L|180:280,1,124.999995231629,0|4,0:0|0:0,0:0:0:0:
176,280,76505,1,4,0:0:0:0:
152,72,76946,1,0,0:0:0:0:
420,80,77240,1,0,0:0:0:0:
152,72,77534,1,0,0:0:0:0:
420,80,77828,2,0,P|416:176|400:192,1,124.999995231629
260,248,78416,1,0,0:0:0:0:
120,232,78711,1,4,0:0:0:0:
120,232,78858,1,4,0:0:0:0:
356,304,79299,5,0,0:0:0:0:
248,220,79593,2,0,L|144:140,1,124.999995231629
408,192,80181,2,0,L|304:112,1,124.999995231629
256,192,80770,12,4,82828,0:0:0:0:
256,192,83123,5,4,0:0:0:0:
64,68,85476,2,0,P|92:156|124:192,1,124.999995231629,12|0,0:0|0:0,0:0:0:0:
180,112,85917,2,0,P|244:160|256:224,1,124.999995231629,12|0,0:0|0:0,0:0:0:0:
172,232,86358,2,0,P|248:280|296:280,1,124.999995231629,12|0,0:0|0:0,0:0:0:0:
364,228,86799,2,0,P|380:168|352:88,1,124.999995231629,12|0,0:0|0:0,0:0:0:0:
164,68,87682,1,14,0:0:0:0:
