osu file format v14

[General]
AudioFilename: audio.mp3
AudioLeadIn: 0
PreviewTime: 1433
Countdown: 0
SampleSet: Soft
StackLeniency: 0.5
Mode: 0
LetterboxInBreaks: 0
WidescreenStoryboard: 1

[Editor]
Bookmarks: 26230,38980,50230,74230,86230,98230,110230,122230,148480,154480,160480
DistanceSpacing: 1.1
BeatDivisor: 4
GridSize: 16
TimelineZoom: 1.5

[Metadata]
Title:hope 2 die
TitleUnicode:hope 2 die
Artist:Mayflower
ArtistUnicode:Mayflower
Creator:Mimari
Version:mimari & sylas' insane
Source:
Tags:english hip hop trap rap emo pop soundcloud iann dior michael olmo georgie internet money sylas thekoala mayflower 1103 toadsocks537
BeatmapID:2792787
BeatmapSetID:1348747

[Difficulty]
HPDrainRate:4.5
CircleSize:4
OverallDifficulty:7.5
ApproachRate:9
SliderMultiplier:1.8
SliderTickRate:1

[Events]
//Background and Video events
0,0,"mayflower.jpg",0,0
//Break Periods
2,146052,147877
//Storyboard Layer 0 (Background)
//Storyboard Layer 1 (Fail)
//Storyboard Layer 2 (Pass)
//Storyboard Layer 3 (Foreground)
//Storyboard Layer 4 (Overlay)
//Storyboard Sound Samples

[TimingPoints]
26227,375,4,2,12,55,1,0
26227,-83.3333333333333,4,2,12,55,0,0
26320,-83.3333333333333,4,2,10,55,0,0
31664,-71.4285714285714,4,2,10,55,0,0
32039,-83.3333333333333,4,2,10,55,0,0
38227,-83.3333333333333,4,2,11,55,0,0
38414,-83.3333333333333,4,2,11,30,0,0
38602,-83.3333333333333,4,2,11,40,0,0
38789,-83.3333333333333,4,2,11,45,0,0
38977,-90.9090909090909,4,2,10,55,0,0
40102,-83.3333333333333,4,2,10,55,0,0
40477,-83.3333333333333,4,2,10,55,0,0
41977,-90.9090909090909,4,2,10,55,0,0
43102,-66.6666666666667,4,2,10,55,0,0
44977,-83.3333333333333,4,2,10,55,0,0
50227,-83.3333333333333,4,2,11,55,0,0
50414,-83.3333333333333,4,2,10,55,0,0
61664,-111.111111111111,4,2,10,55,0,0
62977,-83.3333333333333,4,2,10,55,0,0
73102,-50,4,2,11,55,0,0
73570,-50,4,2,11,5,0,0
73852,-40,4,2,11,55,0,0
73945,-40,4,2,11,5,0,0
74227,-76.9230769230769,4,2,11,55,0,0
74414,-76.9230769230769,4,2,10,55,0,0
87914,-90.9090909090909,4,2,10,55,0,0
97102,-111.111111111111,4,2,10,55,0,0
97195,-111.111111111111,4,2,10,55,0,0
97476,-111.111111111111,4,2,10,5,0,0
98227,-76.9230769230769,4,2,12,55,0,0
98320,-76.9230769230769,4,2,10,55,0,0
119227,-166.666666666667,4,2,10,55,0,0
122227,-133.333333333333,4,2,11,43,0,0
140227,-133.333333333333,4,2,11,43,0,0
142852,-100,4,2,11,43,0,0
142945,-100,4,2,11,43,0,0
143133,-100,4,2,11,5,0,0
143227,-133.333333333333,4,2,11,43,0,0
148477,375,4,2,13,47,1,0
148477,-111.111111111111,5,2,13,47,0,0
148602,-111.111111111111,5,2,10,47,0,0
159602,-111.111111111111,5,2,11,47,0,0
160602,-111.111111111111,5,2,10,47,0,0

[Colours]
Combo1 : 210,226,230
Combo2 : 248,208,156

[HitObjects]
178,202,26227,5,12,3:3:0:0:
284,151,26414,1,0,0:0:0:0:
223,109,26602,2,0,P|213:131|216:147,4,26.9999991760254
215,270,26977,6,0,B|170:292|134:265|134:265|95:241|52:261,1,161.999995056153,10|0,0:1|0:0,0:0:0:0:
54,265,27352,2,0,P|60:302|75:333,1,53.9999983520508,2|0,0:0|0:0,0:0:0:0:
139,351,27539,5,10,0:2:0:0:
178,202,27727,1,0,0:0:0:0:
79,101,27914,2,0,P|63:103|48:117,2,26.9999991760254,8|0|0,0:2|0:0|0:0,0:0:0:0:
97,172,28102,6,0,P|218:190|299:217,1,161.999995056153,4|0,3:0|0:0,0:0:0:0:
327,123,28477,2,0,B|328:117|322:109|322:109|302:122|310:153,1,53.9999983520508,10|0,0:1|0:0,0:0:0:0:
287,274,28664,2,0,B|306:291|306:291|337:263|335:212,1,107.999996704102,4|2,3:0|0:0,0:0:0:0:
236,113,29039,1,10,0:0:0:0:
408,306,29227,6,0,P|417:219|449:87,1,215.999993408203,4|0,3:0|0:0,0:0:0:0:
446,94,29977,2,0,L|479:90,4,26.9999991760254,10|0|0|0|0,0:1|0:0|0:0|0:0|0:0,0:0:0:0:
337,35,30352,2,0,P|362:65|367:93,1,53.9999983520508,2|0,0:0|0:0,0:0:0:0:
423,14,30539,5,10,0:2:0:0:
285,97,30727,1,0,0:0:0:0:
344,242,30914,2,0,P|348:258|347:274,2,26.9999991760254,8|0|0,0:2|0:0|0:0,0:0:0:0:
374,173,31102,6,0,B|338:153|299:178|299:178|252:208|194:180,1,161.999995056153,6|0,3:0|0:0,0:0:0:0:
209,181,31477,1,8,0:1:0:0:
151,125,31664,6,0,B|134:125|134:125|111:147|137:200,1,62.9999980773926,4|0,3:0|0:0,0:0:0:0:
202,264,31852,2,0,B|190:275|190:275|158:276|139:220,1,62.9999980773926,6|0,3:0|0:0,0:0:0:0:
76,231,32039,1,10,0:2:0:0:
239,103,32227,6,0,P|204:55|88:54,1,161.999995056153,4|0,3:0|0:0,0:0:0:0:
92,53,32602,2,0,P|75:55|59:54,4,26.9999991760254
301,14,32977,5,10,0:1:0:0:
301,14,33164,1,2,0:0:0:0:
342,88,33352,5,2,0:0:0:0:
342,88,33539,1,10,0:0:0:0:
242,207,33727,5,2,0:0:0:0:
305,170,33914,2,0,L|283:130,2,26.9999991760254,10|0|0,0:0|0:0|0:0,0:0:0:0:
262,285,34102,5,6,3:0:0:0:
262,285,34289,1,2,0:0:0:0:
175,164,34477,6,0,P|164:220|186:265,1,107.999996704102,10|4,0:1|3:3,0:0:0:0:
274,362,34852,2,0,L|305:355,4,26.9999991760254,2|0|0|0|8,0:0|0:0|0:0|0:0|0:0,0:0:0:0:
84,330,35227,6,0,B|59:340|28:316|73:244|123:314|123:314|157:362|228:343,1,215.999993408203,6|0,3:3|0:0,0:0:0:0:
409,33,35977,5,10,0:1:0:0:
409,33,36164,1,2,0:0:0:0:
368,107,36352,5,2,0:0:0:0:
368,107,36539,1,10,0:0:0:0:
448,250,36727,5,2,0:0:0:0:
405,189,36914,2,0,L|427:149,2,26.9999991760254,14|0|0,3:3|0:0|0:0,0:0:0:0:
390,305,37102,6,0,P|423:326|493:319,1,107.999996704102,6|2,3:3|0:0,0:0:0:0:
297,299,37477,6,0,P|302:312|312:323,2,26.9999991760254,10|0|0,0:1|0:0|0:0,0:0:0:0:
263,229,37664,1,4,3:3:0:0:
235,356,37852,6,0,P|230:369|219:380,2,26.9999991760254,2|0|0,0:0|0:0|0:0,0:0:0:0:
263,229,38039,2,0,P|274:178|258:105,1,107.999996704102,8|2,0:0|0:0,0:0:0:0:
265,123,38789,5,8,0:1:0:0:
246,47,38977,2,0,P|185:115|187:143,1,99.0000030212403,10|2,0:1|0:0,0:0:0:0:
139,28,39352,5,2,0:0:0:0:
265,123,39539,1,10,0:2:0:0:
411,76,39727,1,2,0:0:0:0:
348,28,39914,6,0,L|308:34,2,24.7500007553101,10|0|0,0:2|0:0|0:0,0:0:0:0:
486,83,40102,2,0,B|490:111|465:133|465:133|441:155|453:197,1,107.999996704102,6|2,3:0|0:0,0:0:0:0:
433,340,40477,5,10,0:1:0:0:
377,198,40664,2,0,P|366:169|372:139,1,53.9999983520508,4|0,3:0|0:0,0:0:0:0:
499,302,40852,2,0,B|474:251|474:251|412:265,1,107.999996704102,2|8,0:0|0:0,0:0:0:0:
263,295,41227,6,0,P|266:335|329:268,1,215.999993408203,6|0,3:0|0:0,0:0:0:0:
197,146,41789,5,2,0:0:0:0:
179,308,41977,2,0,P|195:247|223:220,1,99.0000030212403,10|2,0:1|0:0,0:0:0:0:
139,87,42352,6,0,L|99:93,2,24.7500007553101,2|0|0,0:0|0:0|0:0,0:0:0:0:
216,63,42539,1,10,0:0:0:0:
121,173,42727,1,2,0:0:0:0:
275,112,42914,6,0,L|299:115,2,24.7500007553101,10|0|0,0:0|0:0|0:0,0:0:0:0:
334,317,43102,6,0,B|321:280|353:253|353:253|383:225|354:167|354:167|333:192|286:195,1,202.500007724762,6|0,3:3|0:0,0:0:0:0:
247,195,43477,2,0,B|242:211|259:230|259:230|195:243|176:207|176:207|158:169|119:172,1,202.500007724762,6|0,3:3|0:0,0:0:0:0:
79,79,43852,2,0,B|90:174|90:174|98:184|98:184|114:310,1,202.500007724762,6|0,3:3|0:0,0:0:0:0:
38,298,44227,5,4,3:0:0:0:
180,359,44414,1,0,0:0:0:0:
329,336,44602,2,0,L|375:342,4,33.7500012874604
234,204,44977,6,0,P|210:148|229:92,1,107.999996704102,8|2,0:1|0:0,0:0:0:0:
307,28,45352,1,2,0:0:0:0:
290,146,45539,1,10,0:0:0:0:
266,276,45727,1,2,0:0:0:0:
341,241,45914,6,0,L|336:207,2,26.9999991760254,8|0|0,0:0|0:0|0:0,0:0:0:0:
265,351,46102,6,0,B|234:357|216:336|216:336|191:307|141:317,1,107.999996704102,6|2,3:0|0:0,0:0:0:0:
416,291,46477,2,0,L|420:317,2,26.9999991760254,10|0|0,0:1|0:0|0:0,0:0:0:0:
340,328,46664,5,4,3:0:0:0:
426,182,46852,2,0,L|421:216,4,26.9999991760254,2|0|0|0|8,0:0|0:0|0:0|0:0|0:0,0:0:0:0:
502,303,47227,5,4,3:0:0:0:
341,241,47414,1,0,0:0:0:0:
165,250,47602,1,0,0:0:0:0:
165,250,47977,1,8,0:1:0:0:
91,207,48352,5,2,0:0:0:0:
242,197,48539,1,10,0:0:0:0:
328,318,48727,1,2,0:0:0:0:
328,318,50227,6,0,B|256:327|256:327|247:347|247:347|178:353,1,161.999995056153,12|0,3:0|0:0,0:0:0:0:
158,354,50602,2,0,L|110:357,2,26.9999991760254,2|0|0,0:0|0:0|0:0,0:0:0:0:
204,266,50789,1,2,0:0:0:0:
151,193,50977,6,0,L|140:76,1,107.999996704102,10|2,0:1|0:0,0:0:0:0:
109,268,51352,1,2,0:0:0:0:
109,268,51539,1,10,0:0:0:0:
301,234,51727,5,2,0:0:0:0:
235,165,51914,2,0,L|231:195,2,26.9999991760254,10|0|0,0:0|0:0|0:0,0:0:0:0:
350,78,52102,6,0,L|361:195,1,107.999996704102,6|2,3:0|0:0,0:0:0:0:
433,67,52477,1,10,0:1:0:0:
385,258,52664,2,0,B|334:275|334:275|300:233,1,107.999996704102,6|2,3:0|0:0,0:0:0:0:
263,74,53039,1,10,0:0:0:0:
455,147,53227,6,0,L|466:264,1,107.999996704102,4|2,3:0|0:0,0:0:0:0:
380,354,53602,1,2,0:0:0:0:
380,354,53789,1,2,0:0:0:0:
296,284,53977,5,10,0:1:0:0:
296,284,54164,1,2,0:0:0:0:
215,349,54352,6,0,L|173:361,2,26.9999991760254,2|0|0,0:0|0:0|0:0,0:0:0:0:
294,364,54539,1,10,0:0:0:0:
374,244,54727,5,2,0:0:0:0:
374,244,54914,1,10,0:0:0:0:
236,187,55102,6,0,B|202:193|202:193|216:275,1,107.999996704102,6|2,3:0|0:0,0:0:0:0:
315,160,55477,2,0,L|323:119,2,26.9999991760254,10|0|0,0:1|0:0|0:0,0:0:0:0:
241,111,55664,6,0,L|233:51,1,53.9999983520508,6|0,3:0|0:0,0:0:0:0:
304,24,55852,2,0,L|312:65,4,26.9999991760254,6|0|0|0|10,3:0|0:0|0:0|0:0|0:0,0:0:0:0:
236,187,56227,6,0,B|192:195|174:151|174:151|156:108|106:116,1,161.999995056153,4|0,3:0|0:0,0:0:0:0:
93,125,56602,2,0,L|99:160,2,26.9999991760254,2|0|0,0:0|0:0|0:0,0:0:0:0:
17,91,56789,5,2,0:0:0:0:
30,202,56977,1,10,0:1:0:0:
138,242,57164,1,2,0:0:0:0:
236,187,57352,2,0,L|218:48,1,107.999996704102,2|10,0:0|0:0,0:0:0:0:
313,44,57727,5,2,0:0:0:0:
365,105,57914,2,0,L|405:98,2,26.9999991760254,10|0|0,0:0|0:0|0:0,0:0:0:0:
336,198,58102,6,0,L|318:337,1,107.999996704102,6|2,3:3|0:0,0:0:0:0:
450,188,58477,2,0,L|445:147,2,26.9999991760254,10|0|0,0:1|0:0|0:0,0:0:0:0:
455,264,58664,6,0,B|429:271|429:271|398:243,1,53.9999983520508,6|0,3:0|0:0,0:0:0:0:
336,198,58852,2,0,L|341:157,4,26.9999991760254,2|0|0|0|10,0:0|0:0|0:0|0:0|0:0,0:0:0:0:
212,358,59227,6,0,B|106:378|106:378|53:388|36:307|100:299|100:299|183:284|183:284|77:283|35:180|82:112|140:92|198:147|161:211,1,647.99998022461,4|2,3:0|0:0,0:0:0:0:
168,191,60914,6,0,L|157:116,1,53.9999983520508,12|0,3:0|0:0,0:0:0:0:
147,63,61102,2,0,L|136:-12,1,53.9999983520508,4|0,3:0|0:0,0:0:0:0:
147,63,61664,6,0,L|121:251,1,161.999995056153,4|8,3:0|0:0,0:0:0:0:
110,300,62227,1,4,3:0:0:0:
337,314,62977,6,0,P|407:290|358:205,1,161.999995056153,10|0,0:1|0:0,0:0:0:0:
384,209,63352,1,2,0:0:0:0:
290,192,63539,2,0,P|257:140|273:77,1,107.999996704102,10|0,0:0|0:0,0:0:0:0:
359,52,63914,2,0,L|407:58,2,26.9999991760254,8|0|0,0:0|0:0|0:0,0:0:0:0:
337,125,64102,6,0,L|501:155,1,161.999995056153,4|0,3:0|0:0,0:0:0:0:
490,227,64477,2,0,L|378:207,1,107.999996704102,10|4,0:1|3:0,0:0:0:0:
316,324,64852,1,2,0:0:0:0:
316,324,65039,1,10,0:0:0:0:
200,258,65227,6,0,B|179:196|237:168|237:168|300:137|268:62,1,215.999993408203,4|0,3:0|0:0,0:0:0:0:
118,287,65977,6,0,L|125:326,2,26.9999991760254,10|0|0,0:1|0:0|0:0,0:0:0:0:
102,214,66164,1,0,0:0:0:0:
45,322,66352,6,0,L|52:361,2,26.9999991760254,2|0|0,0:0|0:0|0:0,0:0:0:0:
23,211,66539,2,0,P|54:150|177:189,1,215.999993408203,10|8,0:0|0:0,0:0:0:0:
246,292,67102,6,0,B|239:227|239:227|253:209|253:209|245:134,1,161.999995056153,6|0,3:3|0:0,0:0:0:0:
244,122,67477,2,0,L|238:79,2,26.9999991760254,10|0|0,0:1|0:0|0:0,0:0:0:0:
321,140,67664,1,4,3:0:0:0:
344,53,67852,2,0,L|350:10,4,26.9999991760254,6|0|0|0|10,3:0|0:0|0:0|0:0|0:0,0:0:0:0:
384,196,68227,6,0,P|446:225|450:315,1,161.999995056153,4|0,3:0|0:0,0:0:0:0:
443,318,68602,2,0,L|400:312,4,26.9999991760254
346,359,68977,5,10,0:1:0:0:
346,359,69164,1,2,0:0:0:0:
291,289,69352,5,2,0:0:0:0:
291,289,69539,1,10,0:2:0:0:
149,362,69727,5,2,0:0:0:0:
220,328,69914,2,0,L|224:358,2,26.9999991760254,10|0|0,0:0|0:0|0:0,0:0:0:0:
156,283,70102,6,0,L|35:268,1,107.999996704102,6|2,3:0|0:0,0:0:0:0:
72,163,70477,6,0,L|67:189,2,26.9999991760254,10|0|0,0:1|0:0|0:0,0:0:0:0:
3,131,70664,1,4,3:0:0:0:
145,126,70852,2,0,L|151:166,4,26.9999991760254,2|0|0|0|8,0:0|0:0|0:0|0:0|0:0,0:0:0:0:
0,12,71227,6,0,B|33:101|135:44|135:44|237:-8|274:95,1,323.999990112305,6|0,3:0|0:0,0:0:0:0:
277,211,71977,5,10,0:1:0:0:
277,211,72164,1,2,0:0:0:0:
332,151,72352,5,2,0:0:0:0:
332,151,72539,1,10,0:0:0:0:
458,168,72727,5,2,0:0:0:0:
403,115,72914,2,0,L|398:88,2,26.9999991760254,6|0|0,3:0|0:0|0:0,0:0:0:0:
402,242,73102,5,2,0:0:0:0:
402,242,73477,6,0,B|391:233|401:215|401:215|380:220|371:258|394:279,1,90,10|0,0:0|0:0,0:0:0:0:
249,111,73852,6,0,B|238:100|236:82|236:82|218:102|233:146|273:151,1,112.5,10|0,0:0|0:0,0:0:0:0:
7,209,74227,6,0,B|-6:229|-6:229|17:265|131:258|129:144,1,175.499991966248,14|0,3:3|0:0,0:0:0:0:
110,123,74602,2,0,P|86:130|80:136,4,29.2499986610413,2|0|0|0|0,0:0|0:0|0:0|0:0|0:0,0:0:0:0:
167,275,74977,6,0,P|232:286|351:338,1,175.499991966248,10|0,0:1|0:0,0:0:0:0:
397,362,75352,2,0,P|412:330|392:293,1,58.4999973220826,2|0,0:0|0:0,0:0:0:0:
333,195,75539,6,0,B|358:213|353:246|353:246|358:213|401:201,1,116.999994644165,10|0,0:0|0:0,0:0:0:0:
475,87,75914,2,0,L|485:35,2,29.2499986610413,10|0|0,0:0|0:0|0:0,0:0:0:0:
471,170,76102,5,4,3:0:0:0:
395,94,76289,1,2,0:0:0:0:
253,54,76477,1,10,0:1:0:0:
85,122,76664,1,6,3:0:0:0:
282,225,76852,2,0,B|304:211|304:211|310:113,1,116.999994644165,2|8,0:0|0:0,0:0:0:0:
205,281,77227,6,0,B|159:263|126:301|126:301|84:345|13:315,1,175.499991966248,4|0,3:0|0:0,0:0:0:0:
27,250,77602,2,0,B|27:230|13:206|13:206|57:209|67:259,1,116.999994644165,2|0,0:0|0:0,0:0:0:0:
191,361,77977,6,0,B|227:374|227:374|376:329,1,175.499991966248,10|0,0:1|0:0,0:0:0:0:
371,333,78352,2,0,L|374:377,2,29.2499986610413,2|0|0,0:0|0:0|0:0,0:0:0:0:
442,268,78539,6,0,B|442:248|456:224|456:224|412:227|402:277,1,116.999994644165,10|0,0:0|0:0,0:0:0:0:
339,146,78914,2,0,L|342:102,2,29.2499986610413,10|0|0,0:0|0:0|0:0,0:0:0:0:
321,254,79102,6,0,B|292:264|292:264|173:228,1,116.999994644165,4|2,3:0|0:0,0:0:0:0:
118,35,79477,1,10,0:1:0:0:
213,154,79664,1,6,3:3:0:0:
136,289,79852,6,0,L|133:333,2,29.2499986610413,6|0|0,3:3|0:0|0:0,0:0:0:0:
88,226,80039,1,8,0:0:0:0:
202,26,80227,6,0,P|267:28|371:99,1,175.499991966248,4|0,3:0|0:0,0:0:0:0:
385,155,80602,2,0,L|382:199,2,29.2499986610413,2|0|0,0:0|0:0|0:0,0:0:0:0:
425,45,80789,2,0,P|439:87|423:126,1,58.4999973220826,2|0,0:0|0:0,0:0:0:0:
307,160,80977,6,0,L|146:140,1,116.999994644165,10|0,0:1|0:0,0:0:0:0:
357,328,81352,1,2,0:0:0:0:
414,231,81539,2,0,P|415:257|445:305,1,58.4999973220826,10|0,0:0|0:0,0:0:0:0:
430,362,81727,5,2,0:0:0:0:
336,253,81914,2,0,L|292:245,2,29.2499986610413,10|0|0,0:0|0:0|0:0,0:0:0:0:
357,328,82102,2,0,P|291:330|227:358,1,116.999994644165,4|2,3:0|0:0,0:0:0:0:
84,276,82477,6,0,L|40:284,2,29.2499986610413,10|0|0,0:1|0:0|0:0,0:0:0:0:
139,219,82664,1,6,3:3:0:0:
120,344,82852,2,0,L|164:352,4,29.2499986610413,2|0|0|0|8,0:0|0:0|0:0|0:0|0:0,0:0:0:0:
88,160,83227,6,0,B|130:128|177:152|177:152|236:183|281:147,1,175.499991966248,4|0,3:0|0:0,0:0:0:0:
308,108,83602,2,0,P|294:89|254:91,1,58.4999973220826,2|0,0:0|0:0,0:0:0:0:
301,221,83789,2,0,P|325:207|330:179,1,58.4999973220826,2|0,0:0|0:0,0:0:0:0:
186,69,83977,6,0,P|128:63|51:85,1,116.999994644165,10|0,0:1|0:0,0:0:0:0:
16,211,84352,1,2,0:0:0:0:
172,260,84539,1,10,0:0:0:0:
295,141,84727,1,2,0:0:0:0:
216,190,84914,6,0,L|222:162,2,29.2499986610413,14|0|0,3:3|0:0|0:0,0:0:0:0:
256,263,85102,2,0,P|292:295|373:283,1,116.999994644165,6|2,3:0|0:0,0:0:0:0:
499,175,85477,1,10,0:1:0:0:
389,56,85664,1,6,3:0:0:0:
403,226,85852,6,0,B|433:245|439:286|439:286|456:226|406:178,1,175.499991966248,2|0,0:0|0:0,0:0:0:0:
499,175,86227,6,0,P|418:222|315:241,1,175.499991966248,6|0,3:0|0:0,0:0:0:0:
321,229,86602,2,0,L|327:201,2,29.2499986610413,2|0|0,0:0|0:0|0:0,0:0:0:0:
264,275,86789,1,2,0:0:0:0:
195,96,86977,5,10,0:1:0:0:
266,77,87164,1,2,0:0:0:0:
284,148,87352,1,2,0:0:0:0:
207,329,87539,5,10,0:0:0:0:
207,329,87726,1,2,0:0:0:0:
128,304,87914,2,0,L|132:279,2,24.7500007553101,10|0|0,0:0|0:0|0:0,0:0:0:0:
223,231,88102,2,0,L|204:344,1,99.0000030212403,4|2,3:0|0:0,0:0:0:0:
48,286,88477,5,10,0:1:0:0:
48,286,88664,1,6,3:0:0:0:
142,182,88852,2,0,L|148:219,2,24.7500007553101,2|0|0,0:0|0:0|0:0,0:0:0:0:
72,141,89039,1,10,0:0:0:0:
132,279,89227,6,0,B|168:288|200:262|200:262|231:234|285:254,1,148.50000453186,4|0,3:0|0:0,0:0:0:0:
354,258,89602,2,0,B|370:280|391:295|391:295|365:285|330:297,1,99.0000030212403
246,326,89977,1,8,0:1:0:0:
243,334,90070,1,0,0:0:0:0:
241,343,90164,1,0,0:0:0:0:
271,249,90352,2,0,L|264:205,4,24.7500007553101,2|0|0|0|8,0:0|0:0|0:0|0:0|0:0,0:0:0:0:
365,367,90727,6,0,P|422:367|475:279,1,148.50000453186,2|0,0:0|0:0,0:0:0:0:
436,213,91102,1,6,3:0:0:0:
436,213,91289,1,2,0:0:0:0:
390,289,91477,2,0,L|353:273,2,24.7500007553101,10|0|0,0:1|0:0|0:0,0:0:0:0:
512,230,91664,5,6,3:3:0:0:
356,194,91852,1,6,3:3:0:0:
475,299,92039,1,10,0:0:0:0:
485,146,92227,6,0,B|479:105|448:74|448:74|439:119|403:139,1,148.50000453186,4|0,3:0|0:0,0:0:0:0:
356,194,92602,2,0,L|314:213,4,24.7500007553101
415,130,92977,2,0,L|305:111,1,99.0000030212403,8|0,0:1|0:0,0:0:0:0:
258,234,93352,5,2,0:0:0:0:
258,234,93539,1,10,0:0:0:0:
320,281,93727,1,2,0:0:0:0:
222,157,93914,2,0,L|230:110,2,24.7500007553101,8|0|0,0:0|0:0|0:0,0:0:0:0:
172,219,94102,1,6,3:0:0:0:
304,164,94289,1,2,0:0:0:0:
172,219,94477,6,0,B|133:189|133:189|149:130,1,99.0000030212403,10|6,0:1|3:0,0:0:0:0:
281,64,94852,2,0,L|288:101,4,24.7500007553101,2|0|0|0|10,0:0|0:0|0:0|0:0|0:0,0:0:0:0:
304,164,95227,2,0,B|252:173|224:136|224:136|189:90|120:113,2,198.000006042481,4|0|10,3:0|0:0|0:1,0:0:0:0:
394,138,96164,1,0,0:0:0:0:
368,225,96352,2,0,L|354:263,2,24.7500007553101,2|0|0,0:0|0:0|0:0,0:0:0:0:
394,138,96539,2,0,P|340:139|293:178,1,99.0000030212403,8|0,0:0|0:0,0:0:0:0:
270,246,96914,5,12,3:3:0:0:
346,384,97102,2,0,B|356:307|356:307|360:305|360:305|369:220,1,161.999995056153,4|0,3:0|0:0,0:0:0:0:
52,30,98227,6,0,P|56:61|74:99,1,58.4999973220826,12|0,3:0|0:0,0:0:0:0:
136,142,98414,1,2,0:0:0:0:
16,144,98602,2,0,P|33:157|52:158,2,29.2499986610413,2|0|0,0:0|0:0|0:0,0:0:0:0:
142,61,98789,1,2,0:0:0:0:
20,261,98977,2,0,P|64:237|151:221,1,116.999994644165,10|2,0:1|0:0,0:0:0:0:
243,338,99352,5,2,0:0:0:0:
243,338,99539,1,10,0:0:0:0:
163,317,99727,5,2,0:0:0:0:
316,356,99914,2,0,L|306:405,2,29.2499986610413,10|0|0,0:0|0:0|0:0,0:0:0:0:
258,234,100102,2,0,B|229:261|229:261|245:349,1,116.999994644165,6|2,3:0|0:0,0:0:0:0:
392,374,100477,6,0,L|431:361,2,29.2499986610413,10|0|0,0:1|0:0|0:0,0:0:0:0:
316,356,100664,1,6,3:0:0:0:
393,230,100852,1,2,0:0:0:0:
512,293,101039,1,10,0:0:0:0:
397,153,101227,6,0,B|347:144|327:193|327:193|307:241|251:232,1,175.499991966248,4|0,3:0|0:0,0:0:0:0:
179,246,101602,2,0,B|168:215|137:202|137:202|169:209|204:186,1,116.999994644165,2|2,0:0|0:0,0:0:0:0:
272,129,101977,1,10,0:1:0:0:
268,146,102070,1,0,0:0:0:0:
262,159,102164,1,2,0:0:0:0:
148,124,102352,2,0,L|135:88,2,29.2499986610413,2|0|0,0:0|0:0|0:0,0:0:0:0:
200,53,102539,1,10,0:0:0:0:
25,141,102727,6,0,B|56:138|73:169|73:169|87:202|124:203,1,116.999994644165,2|10,0:0|0:0,0:0:0:0:
142,209,103008,1,0,0:0:0:0:
142,209,103102,1,6,3:0:0:0:
20,272,103289,1,2,0:0:0:0:
147,331,103477,2,0,L|196:312,2,29.2499986610413,10|0|0,0:1|0:0|0:0,0:0:0:0:
98,275,103664,1,6,3:0:0:0:
228,194,103852,2,0,P|224:227|205:273,1,58.4999973220826,6|0,3:0|0:0,0:0:0:0:
174,320,104039,1,10,0:0:0:0:
227,120,104227,6,0,B|276:111|296:160|296:160|316:208|372:199,1,175.499991966248,4|0,3:0|0:0,0:0:0:0:
389,193,104602,2,0,L|428:184,2,29.2499986610413,2|0|0,0:0|0:0|0:0,0:0:0:0:
304,269,104789,1,2,0:0:0:0:
467,249,104977,2,0,P|494:203|475:125,1,116.999994644165,10|2,0:1|0:0,0:0:0:0:
329,15,105352,5,2,0:0:0:0:
329,15,105539,1,10,0:0:0:0:
353,94,105727,1,2,0:0:0:0:
415,37,105914,2,0,L|455:48,2,29.2499986610413,8|0|0,0:0|0:0|0:0,0:0:0:0:
268,75,106102,2,0,P|208:58|160:30,1,116.999994644165,6|2,3:0|0:0,0:0:0:0:
353,94,106477,6,0,L|362:139,2,29.2499986610413,10|0|0,0:1|0:0|0:0,0:0:0:0:
268,75,106664,1,6,3:0:0:0:
205,202,106852,1,2,0:0:0:0:
319,300,107039,1,10,0:0:0:0:
198,122,107227,6,0,B|148:113|128:162|128:162|108:210|51:207,1,175.499991966248,4|0,3:0|0:0,0:0:0:0:
58,129,107602,1,2,0:0:0:0:
58,129,107789,1,2,0:0:0:0:
210,211,107977,6,0,B|199:262|199:262|200:268|200:268|185:326,1,116.999994644165,10|2,0:1|0:0,0:0:0:0:
97,361,108352,5,2,0:0:0:0:
97,361,108539,1,10,0:0:0:0:
284,301,108727,1,2,0:0:0:0:
168,276,108914,2,0,L|179:333,1,58.4999973220826,14|0,3:0|0:0,0:0:0:0:
255,384,109102,6,0,P|308:376|370:344,1,116.999994644165,6|2,3:0|0:0,0:0:0:0:
478,241,109477,1,10,0:1:0:0:
348,180,109664,1,6,3:0:0:0:
284,301,109852,2,0,L|252:286,2,29.2499986610413,2|0|0,0:0|0:0|0:0,0:0:0:0:
396,240,110039,1,10,0:0:0:0:
412,69,110227,6,0,B|403:34|363:27|363:27|233:62,1,175.499991966248,6|0,3:0|0:0,0:0:0:0:
172,82,110602,1,2,0:0:0:0:
284,204,110789,2,0,B|305:191|305:191|291:143|216:133,1,116.999994644165,2|10,0:0|0:1,0:0:0:0:
163,168,111164,1,2,0:0:0:0:
172,354,111352,2,0,P|189:313|202:241,1,116.999994644165,2|8,0:0|0:0,0:0:0:0:
89,124,111727,5,2,0:0:0:0:
108,305,111914,2,0,P|114:290|121:269,2,29.2499986610413,8|0|0,0:0|0:0|0:0,0:0:0:0:
6,135,112102,2,0,P|37:188|100:207,1,116.999994644165,4|0,3:0|0:0,0:0:0:0:
172,82,112477,1,10,0:1:0:0:
178,73,112570,1,0,0:0:0:0:
186,62,112664,2,0,B|191:50|202:35|202:35|94:57,1,116.999994644165,4|0,3:0|0:0,0:0:0:0:
163,168,113039,1,0,0:0:0:0:
324,13,113227,6,0,B|333:63|284:83|284:83|236:103|239:160,1,175.499991966248,6|0,3:0|0:0,0:0:0:0:
254,227,113602,1,2,0:0:0:0:
359,130,113789,2,0,P|369:193|396:255,1,116.999994644165,2|8,0:0|0:1,0:0:0:0:
417,264,114070,1,0,0:0:0:0:
417,264,114164,1,2,0:0:0:0:
309,282,114352,2,0,P|323:287|345:302,4,29.2499986610413,2|0|0|0|8,0:0|0:0|0:0|0:0|0:0,0:0:0:0:
453,186,114727,5,2,0:0:0:0:
394,345,114914,1,8,0:0:0:0:
388,357,115008,1,0,0:0:0:0:
381,371,115102,6,0,B|331:385|301:362|301:362|290:365|290:365|257:341|209:363,1,175.499991966248,4|0,3:0|0:0,0:0:0:0:
147,321,115477,6,0,B|169:340|177:363|177:363|225:326|232:283|177:216,1,175.499991966248,6|0,3:0|0:0,0:0:0:0:
159,160,115852,6,0,B|115:170|97:220|115:245|115:245|113:207|150:177,1,175.499991966248,4|0,3:0|0:0,0:0:0:0:
159,63,116227,6,0,B|210:60|230:109|230:109|250:157|307:154,1,175.499991966248,6|0,3:0|0:0,0:0:0:0:
320,155,116602,2,0,L|356:168,2,29.2499986610413,2|0|0,0:0|0:0|0:0,0:0:0:0:
383,4,116789,2,0,P|323:40|299:102,1,116.999994644165,2|8,0:0|0:1,0:0:0:0:
259,225,117164,1,2,0:0:0:0:
159,63,117352,2,0,P|195:123|257:147,1,116.999994644165,2|8,0:0|0:0,0:0:0:0:
413,129,117727,5,2,0:0:0:0:
320,155,117914,1,8,0:0:0:0:
328,173,118008,1,0,0:0:0:0:
337,194,118102,2,0,B|334:247|334:247|330:250|330:250|320:333,1,116.999994644165,4|0,3:0|0:0,0:0:0:0:
435,357,118477,2,0,L|479:341,2,29.2499986610413,10|0|0,0:1|0:0|0:0,0:0:0:0:
361,378,118664,1,4,3:0:0:0:
247,340,118852,2,0,L|203:324,2,29.2499986610413
322,308,119039,1,8,0:0:0:0:
192,192,119227,6,0,B|186:145|186:145|178:84|98:95|109:163|109:163|127:300|127:300|133:349|60:363|51:311|51:311|42:248,1,485.999985168458,6|4,0:3|3:0,0:0:0:0:
34,196,121102,5,6,3:0:0:0:
206,268,121477,6,0,P|228:263|259:238,1,53.9999983520508,8|4,0:1|3:0,0:0:0:0:
327,279,121852,2,0,P|335:258|332:218,1,53.9999983520508,0|8,0:0|0:0,0:0:0:0:
280,164,122227,6,0,B|228:129|188:177|188:177|146:222|92:199,1,202.500007724762,2|0,0:0|0:0,0:0:0:0:
48,65,122977,2,0,B|86:23|127:20|127:20|108:81|128:134,1,202.500007724762,2|2,0:0|0:0,0:0:0:0:
53,268,123727,6,0,P|112:289|188:280,1,135.000005149842,2|0,0:0|0:0,0:0:0:0:
268,201,124289,6,0,B|270:175|235:151|235:151|197:127|210:84|246:58|298:101|298:101|335:135|351:169|348:219,1,337.500012874604
348,208,125977,6,0,P|335:256|412:305,1,135.000005149842,0|2,0:0|0:0,0:0:0:0:
472,274,126539,1,2,0:0:0:0:
432,175,126727,6,0,P|351:168|228:212,2,202.500007724762
474,60,128227,1,0,0:0:0:0:
474,60,128977,2,0,B|421:78|421:78|365:95|353:29,1,135.000005149842,2|2,0:0|0:0,0:0:0:0:
303,1,129539,6,0,B|262:31|296:96|296:96|337:167|337:167|374:227|295:266|268:214|268:214|218:120,2,405.000015449525,2|2|0,0:0|0:0|0:0,0:0:0:0:
303,1,132258,5,2,0:0:0:0:
384,64,132445,2,0,B|315:137|223:71|223:71|127:0|41:78,1,371.250014162064
48,71,134227,6,0,P|50:129|117:198,1,135.000005149842,2|0,0:0|0:0,0:0:0:0:
10,219,134977,2,0,P|52:258|148:260,1,135.000005149842,2|0,0:0|0:0,0:0:0:0:
396,140,135727,6,0,B|408:159|408:159|383:268,1,135.000005149842,2|2,0:0|0:0,0:0:0:0:
487,286,136289,2,0,B|370:295|370:295|351:269|351:269|217:282,1,270.000010299683,2|0,0:0|0:0,0:0:0:0:
166,320,137227,6,0,B|138:273|176:228|176:228|215:179|186:123,1,202.500007724762,2|0,0:0|0:0,0:0:0:0:
131,81,137977,2,0,P|140:131|267:128,1,202.500007724762,2|0,0:0|0:0,0:0:0:0:
351,102,138727,6,0,P|348:162|315:244,1,135.000005149842,2|2,0:0|0:0,0:0:0:0:
208,285,139289,2,0,B|232:329|292:353|292:353|254:313|250:268,1,202.500007724762,2|2,0:0|0:0,0:0:0:0:
289,63,140227,5,2,0:0:0:0:
197,104,141352,6,0,P|238:151|380:118,2,202.500007724762,0|0|2,0:0|0:0|0:0,0:0:0:0:
68,240,142852,6,0,B|58:213|33:191|33:191|64:189|99:232,1,135,2|0,0:0|0:0,0:0:0:0:
110,301,143227,1,2,0:0:0:0:
110,301,144352,5,0,0:0:0:0:
402,301,144914,1,0,0:0:0:0:
256,353,145852,5,0,0:0:0:0:
43,69,148477,6,0,B|60:84|60:84|161:61,1,107.999996704102,12|0,3:0|0:0,0:0:0:0:
218,45,148852,2,0,L|226:13,3,26.9999991760254
275,139,149227,2,0,B|253:119|253:119|110:157,1,161.999995056153,10|2,0:1|0:0,0:0:0:0:
27,306,149852,2,0,B|87:310|87:310|101:327|111:342|111:342|193:352,1,161.999995056153,10|8,0:0|0:0,0:0:0:0:
250,359,150352,1,4,3:0:0:0:
397,225,150727,2,0,L|434:237,3,26.9999991760254,10|0|0|0,0:1|0:0|0:0|0:0,0:0:0:0:
317,189,151102,2,0,B|303:210|303:210|330:296,1,107.999996704102,2|10,0:0|0:0,0:0:0:0:
354,356,151477,1,4,3:0:0:0:
501,282,151727,1,8,0:0:0:0:
510,241,151852,1,0,0:0:0:0:
453,93,152227,2,0,B|442:63|442:63|305:92,1,161.999995056153,10|2,0:1|0:0,0:0:0:0:
223,29,152852,2,0,B|202:79|202:79|216:127|216:127|194:195,1,161.999995056153,10|8,0:0|0:0,0:0:0:0:
169,267,153352,1,6,3:0:0:0:
88,104,153727,2,0,L|40:89,3,26.9999991760254,10|0|0|0,0:1|0:0|0:0|0:0,0:0:0:0:
198,181,154102,2,0,L|246:166,3,26.9999991760254,6|0|0|0,3:3|0:0|0:0|0:0,0:0:0:0:
68,229,154477,6,0,L|50:341,1,107.999996704102,4|0,3:0|0:0,0:0:0:0:
116,374,154852,2,0,L|157:362,3,26.9999991760254
312,271,155227,2,0,B|320:248|320:248|418:278,1,107.999996704102,10|2,0:1|0:0,0:0:0:0:
464,313,155602,1,2,0:0:0:0:
279,367,155852,1,10,0:0:0:0:
252,353,155977,2,0,L|227:224,1,107.999996704102,2|10,0:0|0:0,0:0:0:0:
219,172,156352,1,6,3:0:0:0:
378,173,156727,2,0,L|412:186,3,26.9999991760254,10|0|0|0,0:1|0:0|0:0|0:0,0:0:0:0:
311,105,157102,2,0,L|428:78,1,107.999996704102,2|8,0:0|0:0,0:0:0:0:
392,3,157477,2,0,L|286:27,1,107.999996704102,6|0,3:0|0:0,0:0:0:0:
209,43,157852,1,0,0:0:0:0:
69,116,158227,2,0,L|38:105,3,26.9999991760254,10|0|0|0,0:1|0:0|0:0|0:0,0:0:0:0:
142,152,158602,2,0,B|164:202|164:202|132:269,1,107.999996704102,2|10,0:0|0:0,0:0:0:0:
105,315,158977,1,2,0:0:0:0:
284,368,159227,1,14,3:0:0:0:
276,329,159352,1,6,3:0:0:0:
256,32,160477,5,14,3:0:0:0:
