osu file format v14

[General]
AudioFilename: audio.mp3
AudioLeadIn: 0
PreviewTime: 1433
Countdown: 0
SampleSet: Soft
StackLeniency: 0.5
Mode: 0
LetterboxInBreaks: 0
WidescreenStoryboard: 0

[Editor]
Bookmarks: 26230,38980,50230,74230,86230,98230,110230,122230,134230,148480,154480,160480
DistanceSpacing: 2.7
BeatDivisor: 6
GridSize: 4
TimelineZoom: 1.5

[Metadata]
Title:hope 2 die
TitleUnicode:hope 2 die
Artist:Mayflower
ArtistUnicode:Mayflower
Creator:Mimari
Version:mimari & sylas' false love
Source:
Tags:english hip hop trap rap emo pop soundcloud iann dior michael olmo georgie internet money sylas thekoala mayflower 1103 toadsocks537
BeatmapID:2792784
BeatmapSetID:1348747

[Difficulty]
HPDrainRate:5
CircleSize:4
OverallDifficulty:8
ApproachRate:9.2
SliderMultiplier:2
SliderTickRate:1

[Events]
//Background and Video events
0,0,"mayflower.jpg",0,0
//Break Periods
2,146052,147907
//Storyboard Layer 0 (Background)
//Storyboard Layer 1 (Fail)
//Storyboard Layer 2 (Pass)
//Storyboard Layer 3 (Foreground)
//Storyboard Layer 4 (Overlay)
//Storyboard Sound Samples

[TimingPoints]
26227,375,4,2,12,55,1,0
26227,-83.3333333333333,4,2,12,55,0,0
26320,-83.3333333333333,4,2,10,55,0,0
38227,-83.3333333333333,4,2,11,55,0,0
38414,-83.3333333333333,4,2,11,30,0,0
38602,-83.3333333333333,4,2,11,40,0,0
38789,-83.3333333333333,4,2,11,45,0,0
38977,-90.9090909090909,4,2,10,55,0,0
40102,-83.3333333333333,4,2,10,55,0,0
43477,-66.6666666666667,4,2,10,55,0,0
44227,-83.3333333333333,4,2,10,55,0,0
50227,-83.3333333333333,4,2,11,55,0,0
50414,-83.3333333333333,4,2,10,55,0,0
59227,-100,4,2,10,55,0,0
64102,-125,4,2,10,55,0,0
64477,-83.3333333333333,4,2,10,55,0,0
65227,-100,4,2,10,55,0,0
67102,-105.263157894737,4,2,10,55,0,0
67477,-83.3333333333333,4,2,10,55,0,0
68227,-100,4,2,10,55,0,0
68977,-83.3333333333333,4,2,10,55,0,0
71227,-100,4,2,10,55,0,0
72914,-66.6666666666667,4,2,10,55,0,0
73102,-66.6666666666667,4,2,11,55,0,0
73477,-58.8235294117647,4,2,11,55,0,0
73570,-58.8235294117647,4,2,11,5,0,0
73852,-47.6190476190476,4,2,11,55,0,0
73945,-47.6190476190476,4,2,11,5,0,0
74227,-71.4285714285714,4,2,11,55,0,0
74414,-71.4285714285714,4,2,10,55,0,0
79852,-62.5,4,2,10,55,0,0
80227,-71.4285714285714,4,2,10,55,0,0
80602,-71.4285714285714,4,2,10,55,0,0
86227,-83.3333333333333,4,2,10,55,0,0
95227,-90.9090909090909,4,2,10,55,0,0
96539,-100,4,2,10,55,0,0
97102,-83.3333333333333,4,2,10,55,0,0
97195,-83.3333333333333,4,2,10,5,0,0
98227,-74.0740740740741,4,2,12,55,0,0
98320,-74.0740740740741,4,2,10,55,0,0
100102,-68.9655172413793,4,2,10,55,0,0
100477,-74.0740740740741,4,2,10,55,0,0
101227,-66.6666666666667,4,2,10,55,0,0
101602,-74.074074074074,4,2,10,55,0,0
103102,-68.9655172413793,4,2,10,55,0,0
103477,-74.0740740740741,4,2,10,55,0,0
104227,-66.6666666666667,4,2,10,55,0,0
104602,-74.0740740740741,4,2,10,55,0,0
108070,-80,4,2,10,55,0,0
110227,-71.4285714285714,4,2,10,55,0,0
115477,-58.8235294117647,4,2,10,55,0,0
116227,-66.6666666666667,4,2,10,55,0,0
119227,-100,4,2,10,55,0,0
121430,-133.333333333333,4,2,10,55,0,0
122227,-153.846153846153,4,2,11,43,0,0
129539,-133.333333333333,4,2,11,43,0,0
131227,-153.846153846153,4,2,11,43,0,0
140227,-153.846153846153,4,2,11,43,0,0
141352,-166.666666666667,4,2,11,43,0,0
148477,375,4,2,13,47,1,0
148477,-111.111111111111,4,2,13,47,0,0
148602,-111.111111111111,4,2,10,47,0,0
159602,-111.111111111111,4,2,11,47,0,0
160602,-111.111111111111,4,2,10,47,0,0

[Colours]
Combo1 : 210,226,230
Combo2 : 248,208,156

[HitObjects]
121,126,26227,6,0,P|111:102|122:62,1,59.9999981689454,12|0,3:3|0:0,0:0:0:0:
192,96,26414,1,0,0:0:0:0:
53,226,26602,2,0,L|4:213,4,29.9999990844727
177,340,26977,6,0,B|216:312|257:348|257:348|298:379|351:347,1,179.999994506836,10|0,0:1|0:0,0:0:0:0:
436,308,27352,1,2,0:0:0:0:
427,148,27539,6,0,B|449:87|369:43|308:134|365:214,1,209.999993591309,10|0,0:2|0:0,0:0:0:0:
367,208,27914,2,0,P|380:216|403:223,2,29.9999990844727,8|0|0,0:2|0:0|0:0,0:0:0:0:
275,116,28102,6,0,P|209:112|153:156,1,119.999996337891,4|0,3:0|0:0,0:0:0:0:
98,258,28477,5,10,0:1:0:0:
93,274,28570,1,0,0:0:0:0:
93,292,28664,1,4,3:0:0:0:
261,198,28852,6,0,L|211:182,2,29.9999990844727,2|0|0,0:0|0:0|0:0,0:0:0:0:
286,270,29039,1,10,0:0:0:0:
165,139,29227,5,4,3:0:0:0:
131,359,29414,1,0,0:0:0:0:
32,176,29602,2,0,P|48:119|94:82,1,119.999996337891
264,16,29977,5,10,0:1:0:0:
286,19,30070,1,0,0:0:0:0:
304,32,30164,1,0,0:0:0:0:
244,195,30352,6,0,L|238:154,2,29.9999990844727,2|0|0,0:0|0:0|0:0,0:0:0:0:
402,203,30539,2,0,B|417:271|335:282|324:222|324:222|313:129,1,209.999993591309,10|0,0:2|0:0,0:0:0:0:
314,141,30914,2,0,L|310:90,2,29.9999990844727,8|0|0,0:2|0:0|0:0,0:0:0:0:
486,185,31102,6,0,P|486:244|457:320,1,119.999996337891,6|0,3:0|0:0,0:0:0:0:
323,337,31477,6,0,L|265:328,4,29.9999990844727,8|0|0|0|4,0:1|0:0|0:0|0:0|3:0,0:0:0:0:
408,124,31852,2,0,L|466:115,2,29.9999990844727,6|0|0,3:0|0:0|0:0,0:0:0:0:
486,185,32039,1,10,0:2:0:0:
357,47,32227,5,4,3:0:0:0:
321,258,32414,1,0,0:0:0:0:
272,27,32602,6,0,P|275:12|293:-12,4,29.9999990844727
320,153,32977,5,10,0:1:0:0:
119,96,33164,1,2,0:0:0:0:
272,27,33352,2,0,P|274:60|248:97,1,59.9999981689454,2|0,0:0|0:0,0:0:0:0:
210,146,33539,1,10,0:0:0:0:
67,0,33727,5,2,0:0:0:0:
183,20,33914,2,0,P|191:38|193:55,2,29.9999990844727,10|0|0,0:0|0:0|0:0,0:0:0:0:
36,115,34102,6,0,P|16:166|15:234,1,119.999996337891,6|2,3:0|0:0,0:0:0:0:
135,344,34477,1,10,0:1:0:0:
145,321,34570,1,0,0:0:0:0:
142,292,34664,1,4,3:3:0:0:
1,328,34852,6,0,L|46:317,4,29.9999990844727,2|0|0|0|8,0:0|0:0|0:0|0:0|0:0,0:0:0:0:
115,182,35227,5,6,3:3:0:0:
67,384,35414,1,0,0:0:0:0:
288,196,35602,6,0,B|283:137|204:149|212:207|212:207|220:254,1,179.999994506836
233,329,35977,1,10,0:1:0:0:
236,354,36070,1,0,0:0:0:0:
240,380,36164,1,2,0:0:0:0:
412,209,36352,6,0,L|429:158,2,29.9999990844727,2|0|0,0:0|0:0|0:0,0:0:0:0:
462,288,36539,1,10,0:0:0:0:
410,90,36727,1,2,0:0:0:0:
370,289,36914,6,0,P|372:322|391:356,1,59.9999981689454,14|0,3:3|0:0,0:0:0:0:
484,134,37102,6,0,P|499:86|464:18,1,119.999996337891,6|2,3:3|0:0,0:0:0:0:
247,0,37477,5,10,0:1:0:0:
226,6,37570,1,0,0:0:0:0:
213,26,37664,1,4,3:3:0:0:
311,225,37852,5,2,0:0:0:0:
324,207,37945,1,0,0:0:0:0:
323,183,38039,1,8,0:0:0:0:
248,122,38227,5,2,0:0:0:0:
248,122,38602,5,8,0:1:0:0:
248,122,38789,1,8,0:1:0:0:
118,266,38977,5,10,0:1:0:0:
242,202,39164,1,2,0:0:0:0:
296,56,39352,1,2,0:0:0:0:
223,41,39539,1,10,0:2:0:0:
176,332,39727,5,2,0:0:0:0:
249,307,39914,2,0,L|242:264,2,27.5000008392334,10|0|0,0:2|0:0|0:0,0:0:0:0:
118,266,40102,6,0,B|84:262|66:288|66:288|46:318|2:312,1,119.999996337891,6|2,3:0|0:0,0:0:0:0:
245,162,40477,1,10,0:1:0:0:
173,135,40664,6,0,L|167:176,2,29.9999990844727,4|0|0,3:0|0:0|0:0,0:0:0:0:
334,64,40852,2,0,B|368:86|368:86|380:248,1,179.999994506836,2|0,0:0|0:0,0:0:0:0:
492,257,41227,6,0,B|436:302|375:253|375:253|314:209|250:252,1,239.999992675781,6|0,3:0|0:0,0:0:0:0:
185,349,41789,2,0,P|220:335|235:315,1,59.9999981689454,2|0,0:0|0:0,0:0:0:0:
313,317,41977,5,10,0:1:0:0:
186,252,42164,1,2,0:0:0:0:
48,352,42352,2,0,L|40:399,2,29.9999990844727,2|0|0,0:0|0:0|0:0,0:0:0:0:
107,290,42539,2,0,L|93:209,1,59.9999981689454,10|0,0:0|0:0,0:0:0:0:
66,43,42727,5,2,0:0:0:0:
50,160,42914,2,0,L|58:105,2,29.9999990844727,10|0|0,0:0|0:0|0:0,0:0:0:0:
186,252,43102,6,0,B|231:281|269:248|269:248|305:213|356:241,1,179.999994506836,6|0,3:3|0:0,0:0:0:0:
484,118,43477,2,0,P|450:188|427:338,1,225.000008583069,6|0,3:3|0:0,0:0:0:0:
281,146,43852,6,0,B|275:77|352:19|423:55|407:141|342:136,1,225.000008583069,6|0,3:3|0:0,0:0:0:0:
201,128,44227,5,4,3:0:0:0:
334,204,44414,1,0,0:0:0:0:
349,354,44602,2,0,L|335:391,4,29.9999990844727
262,27,44977,5,8,0:1:0:0:
262,27,45164,1,2,0:0:0:0:
331,83,45352,6,0,L|389:71,1,59.9999981689454,2|0,0:0|0:0,0:0:0:0:
229,111,45539,2,0,L|171:123,1,59.9999981689454,10|0,0:0|0:0,0:0:0:0:
324,288,45727,5,2,0:0:0:0:
306,211,45914,2,0,L|297:172,2,29.9999990844727,8|0|0,0:0|0:0|0:0,0:0:0:0:
264,351,46102,6,0,P|211:364|148:312,1,119.999996337891,6|2,3:0|0:0,0:0:0:0:
133,120,46477,2,0,P|139:144|139:186,1,59.9999981689454,10|0,0:1|0:0,0:0:0:0:
49,228,46664,1,4,3:0:0:0:
79,52,46852,2,0,L|84:17,4,29.9999990844727,2|0|0|0|8,0:0|0:0|0:0|0:0|0:0,0:0:0:0:
377,113,47227,5,4,3:0:0:0:
291,215,47414,1,0,0:0:0:0:
326,347,47602,1,0,0:0:0:0:
326,347,47977,1,8,0:1:0:0:
409,314,48352,5,2,0:0:0:0:
242,147,48539,1,10,0:0:0:0:
4,229,48727,1,2,0:0:0:0:
318,322,50227,6,0,B|346:300|401:332|401:332|456:358|491:327|491:327|466:318|447:302,1,209.999993591309,12|0,3:0|0:0,0:0:0:0:
468,299,50602,2,0,L|458:263,2,29.9999990844727,2|0|0,0:0|0:0|0:0,0:0:0:0:
506,208,50789,5,2,0:0:0:0:
349,127,50977,1,10,0:1:0:0:
182,178,51164,1,2,0:0:0:0:
228,262,51352,6,0,B|255:241|255:241|247:201,1,59.9999981689454,2|0,0:0|0:0,0:0:0:0:
250,142,51539,2,0,B|240:109|240:109|199:103,1,59.9999981689454,10|0,0:0|0:0,0:0:0:0:
137,109,51727,5,2,0:0:0:0:
156,249,51914,2,0,L|152:281,2,29.9999990844727,10|0|0,0:0|0:0|0:0,0:0:0:0:
137,109,52102,6,0,P|125:109|55:195,1,119.999996337891,6|2,3:0|0:0,0:0:0:0:
5,326,52477,1,10,0:1:0:0:
25,341,52570,1,0,0:0:0:0:
48,340,52664,1,6,3:0:0:0:
199,235,52852,1,2,0:0:0:0:
176,234,52946,1,0,0:0:0:0:
156,249,53039,1,10,0:0:0:0:
137,335,53227,6,0,P|209:354|278:356,1,119.999996337891,4|2,3:0|0:0,0:0:0:0:
280,353,53508,1,0,0:0:0:0:
280,353,53602,1,2,0:0:0:0:
335,205,53789,1,2,0:0:0:0:
470,269,53977,6,0,L|456:353,1,59.9999981689454,10|0,0:1|0:0,0:0:0:0:
385,313,54164,2,0,L|394:253,1,59.9999981689454,2|0,0:0|0:0,0:0:0:0:
433,113,54352,2,0,L|439:82,2,29.9999990844727,2|0|0,0:0|0:0|0:0,0:0:0:0:
490,166,54539,5,10,0:0:0:0:
362,80,54727,1,2,0:0:0:0:
219,148,54914,2,0,L|188:154,2,29.9999990844727,10|0|0,0:0|0:0|0:0,0:0:0:0:
293,175,55102,6,0,B|298:129|298:129|283:99|283:99|286:53,1,119.999996337891,6|2,3:0|0:0,0:0:0:0:
186,305,55477,2,0,L|191:334,2,29.9999990844727,10|0|0,0:1|0:0|0:0,0:0:0:0:
231,235,55664,1,6,3:0:0:0:
82,208,55852,6,0,L|87:178,2,29.9999990844727,6|0|0,3:0|0:0|0:0,0:0:0:0:
106,300,56039,2,0,P|51:284|16:329,2,119.999996337891,10|4|2,0:0|3:0|0:0,0:0:0:0:
158,222,56508,5,0,0:0:0:0:
161,208,56602,2,0,L|175:140,1,59.9999981689454,2|0,0:0|0:0,0:0:0:0:
107,105,56789,2,0,L|68:47,1,59.9999981689454,2|0,0:0|0:0,0:0:0:0:
177,64,56977,5,10,0:1:0:0:
86,178,57164,1,2,0:0:0:0:
186,305,57352,2,0,P|239:326|310:299,1,119.999996337891,2|10,0:0|0:0,0:0:0:0:
355,106,57727,5,2,0:0:0:0:
420,177,57914,2,0,L|425:147,2,29.9999990844727,10|0|0,0:0|0:0|0:0,0:0:0:0:
345,31,58102,2,0,B|311:29|293:55|293:55|272:83|229:75,1,119.999996337891,6|2,3:3|0:0,0:0:0:0:
432,68,58477,6,0,L|427:38,2,29.9999990844727,10|0|0,0:1|0:0|0:0,0:0:0:0:
498,113,58664,1,6,3:0:0:0:
355,106,58852,2,0,L|350:136,4,29.9999990844727,2|0|0|0|10,0:0|0:0|0:0|0:0|0:0,0:0:0:0:
360,323,59227,6,0,B|378:256|289:236|284:318|284:318|282:407|172:379|207:302|207:302|255:188|165:140|107:155|92:204|107:251|153:255,1,600,4|2,3:0|0:0,0:0:0:0:
134,250,60914,6,0,L|218:227,1,50,12|0,3:0|0:0,0:0:0:0:
375,182,61102,2,0,L|326:195,1,50,4|0,3:0|0:0,0:0:0:0:
134,250,61664,6,0,L|364:314,1,200,4|8,3:0|0:0,0:0:0:0:
401,325,62227,1,4,3:0:0:0:
401,325,62977,6,0,P|417:270|337:207,1,150,10|0,0:1|0:0,0:0:0:0:
287,228,63352,2,0,P|287:250|314:267,1,50,2|0,0:0|0:0,0:0:0:0:
467,115,63539,6,0,B|433:150|387:138|387:138|339:120|293:162,1,175,10|0,0:0|0:0,0:0:0:0:
292,143,63914,2,0,L|297:108,2,25,8|0|0,0:0|0:0|0:0,0:0:0:0:
199,215,64102,6,0,P|212:278|216:339,1,120,4|0,3:0|0:0,0:0:0:0:
208,195,64477,6,0,P|184:174|141:182,1,59.9999981689454,10|0,0:1|0:0,0:0:0:0:
148,104,64664,2,0,P|116:106|91:142,1,59.9999981689454,4|0,3:0|0:0,0:0:0:0:
83,197,64852,1,2,0:0:0:0:
224,109,65039,1,10,0:0:0:0:
92,0,65227,6,0,P|78:84|18:304,1,300,4|0,3:0|0:0,0:0:0:0:
192,338,65977,5,10,0:1:0:0:
202,314,66070,1,0,0:0:0:0:
227,304,66164,1,0,0:0:0:0:
312,364,66352,2,0,L|246:380,1,50,2|0,0:0|0:0,0:0:0:0:
109,335,66539,6,0,P|148:211|156:161,1,175,10|0,0:0|0:0,0:0:0:0:
153,154,66914,2,0,L|148:119,2,25,8|0|0,0:0|0:0|0:0,0:0:0:0:
321,163,67102,6,0,P|360:161|413:62,1,142.49999619484,6|0,3:3|0:0,0:0:0:0:
250,120,67477,6,0,L|240:182,1,59.9999981689454,10|0,0:1|0:0,0:0:0:0:
224,252,67664,2,0,L|214:314,1,59.9999981689454,4|0,3:0|0:0,0:0:0:0:
342,241,67852,5,6,3:0:0:0:
312,364,68039,2,0,L|302:302,1,59.9999981689454,10|0,0:0|0:0,0:0:0:0:
414,184,68227,6,0,B|470:125|561:212|479:292|396:300|336:235,1,300,4|0,3:0|0:0,0:0:0:0:
193,88,68977,5,10,0:1:0:0:
380,98,69164,1,2,0:0:0:0:
274,191,69352,2,0,P|257:159|261:121,1,59.9999981689454,2|0,0:0|0:0,0:0:0:0:
278,59,69539,5,10,0:2:0:0:
357,193,69727,1,2,0:0:0:0:
226,269,69914,2,0,L|185:263,2,29.9999990844727,10|0|0,0:0|0:0|0:0,0:0:0:0:
289,318,70102,6,0,P|306:286|302:248,1,59.9999981689454,6|0,3:0|0:0,0:0:0:0:
193,183,70289,1,2,0:0:0:0:
81,324,70477,6,0,L|162:338,1,59.9999981689454,10|0,0:1|0:0,0:0:0:0:
217,349,70664,1,4,3:0:0:0:
118,208,70852,6,0,B|102:169|129:130|129:130|81:140|65:215|108:237,1,209.999993591309,2|0,0:0|0:0,0:0:0:0:
172,266,71227,6,0,B|316:251|316:251|333:257|333:257|471:239,1,300,6|0,3:0|0:0,0:0:0:0:
321,29,71977,5,10,0:1:0:0:
363,175,72164,1,2,0:0:0:0:
489,114,72352,6,0,L|400:100,1,50,2|0,0:0|0:0,0:0:0:0:
362,93,72539,1,10,0:0:0:0:
296,286,72727,5,2,0:0:0:0:
467,185,72914,2,0,P|456:202|456:229,2,37.5000014305115,6|0|0,3:0|0:0|0:0,0:0:0:0:
135,296,73477,6,0,B|174:301|174:301|179:306|179:306|224:313,1,85.0000016212464,10|0,0:0|0:0,0:0:0:0:
380,157,73852,6,0,B|331:163|331:163|325:169|325:169|268:178,1,104.999996795654,10|0,0:0|0:0,0:0:0:0:
124,54,74227,6,0,B|101:10|207:-27|218:42|214:114|174:165,1,244.999992523194,14|0,3:3|0:0,0:0:0:0:
163,170,74602,2,0,L|127:164,2,34.9999989318848,2|0|0,0:0|0:0|0:0,0:0:0:0:
204,233,74789,1,0,0:0:0:0:
64,114,74977,6,0,P|22:169|27:241,1,139.999995727539,10|0,0:1|0:0,0:0:0:0:
124,54,75352,1,2,0:0:0:0:
85,295,75539,2,0,B|125:294|145:264|145:264|163:234|210:232,1,139.999995727539,10|0,0:0|0:0,0:0:0:0:
396,111,75914,6,0,L|407:69,3,34.9999989318848,10|0|0|0,0:0|0:0|0:0|0:0,0:0:0:0:
397,184,76102,6,0,B|357:183|337:153|337:153|319:123|272:121,1,139.999995727539,4|2,3:0|0:0,0:0:0:0:
389,352,76477,1,10,0:1:0:0:
466,151,76664,1,6,3:0:0:0:
280,43,76852,2,0,B|240:44|220:74|220:74|202:104|155:106,1,139.999995727539,2|8,0:0|0:0,0:0:0:0:
406,273,77227,6,0,B|429:276|455:303|455:303|437:240|352:242|308:277,1,209.999993591309,4|0,3:0|0:0,0:0:0:0:
226,325,77602,2,0,B|222:356|222:356|256:328|264:269|229:220,1,139.999995727539,2|0,0:0|0:0,0:0:0:0:
64,174,77977,6,0,L|9:183,2,34.9999989318848,10|0|0,0:1|0:0|0:0,0:0:0:0:
110,109,78164,1,0,0:0:0:0:
126,232,78352,2,0,L|135:287,2,34.9999989318848,2|0|0,0:0|0:0|0:0,0:0:0:0:
43,65,78539,6,0,P|81:34|168:52,1,139.999995727539,10|0,0:0|0:0,0:0:0:0:
331,209,78914,2,0,L|365:214,3,34.9999989318848,10|0|0|0,0:0|0:0|0:0|0:0,0:0:0:0:
254,239,79102,6,0,B|235:187|282:148|282:148|334:107|292:30,1,209.999993591309,4|0,3:0|0:0,0:0:0:0:
224,28,79477,6,0,P|213:61|236:91,1,69.9999978637696,10|0,0:1|0:0,0:0:0:0:
331,209,79664,2,0,P|341:242|318:272,1,69.9999978637696,6|0,3:3|0:0,0:0:0:0:
271,326,79852,2,0,L|267:366,2,40,6|0|0,3:3|0:0|0:0,0:0:0:0:
344,345,80039,5,8,0:0:0:0:
166,165,80227,2,0,B|108:101|18:146|31:210|80:230|125:204,1,209.999993591309,4|0,3:0|0:0,0:0:0:0:
258,117,80602,6,0,L|252:65,3,34.9999989318848,2|0|0|0,0:0|0:0|0:0|0:0,0:0:0:0:
238,186,80789,6,0,P|282:186|323:162,1,69.9999978637696,2|0,0:0|0:0,0:0:0:0:
333,47,80977,1,10,0:1:0:0:
333,47,81352,5,2,0:0:0:0:
238,186,81539,1,10,0:0:0:0:
390,278,81727,1,2,0:0:0:0:
422,205,81914,6,0,P|405:195|384:198,3,34.9999989318848,10|0|0|0,0:0|0:0|0:0|0:0,0:0:0:0:
322,242,82102,6,0,P|308:297|313:379,1,139.999995727539,4|2,3:0|0:0,0:0:0:0:
483,104,82477,2,0,L|476:65,2,34.9999989318848,10|0|0,0:1|0:0|0:0,0:0:0:0:
503,190,82664,5,6,3:3:0:0:
391,33,82852,2,0,L|384:72,4,34.9999989318848,2|0|0|0|8,0:0|0:0|0:0|0:0|0:0,0:0:0:0:
215,216,83227,6,0,B|161:164|70:189|91:291|164:264,1,209.999993591309,4|0,3:0|0:0,0:0:0:0:
287,236,83602,2,0,P|285:182|272:167,1,69.9999978637696,2|0,0:0|0:0,0:0:0:0:
235,293,83789,1,2,0:0:0:0:
252,56,83977,6,0,B|229:9|161:33|161:33|52:70,1,209.999993591309,10|0,0:1|0:0,0:0:0:0:
2,19,84352,1,2,0:0:0:0:
196,115,84539,1,10,0:0:0:0:
53,257,84727,1,2,0:0:0:0:
61,66,84914,6,0,P|96:68|121:99,1,69.9999978637696,14|0,3:3|0:0,0:0:0:0:
154,182,85102,1,6,3:0:0:0:
153,193,85195,2,0,P|141:229|38:248,1,139.999995727539
4,198,85477,5,10,0:1:0:0:
196,115,85664,1,6,3:0:0:0:
317,260,85852,2,0,L|313:307,4,34.9999989318848,2|0|0|0|8,0:0|0:0|0:0|0:0|0:0,0:0:0:0:
437,79,86227,6,0,B|387:70|367:119|367:119|347:167|289:159,1,179.999994506836,6|0,3:0|0:0,0:0:0:0:
195,116,86602,2,0,L|183:85,2,29.9999990844727,2|0|0,0:0|0:0|0:0,0:0:0:0:
229,24,86789,1,2,0:0:0:0:
218,197,86977,5,10,0:1:0:0:
130,173,87164,1,2,0:0:0:0:
45,148,87352,1,2,0:0:0:0:
245,282,87539,5,10,0:0:0:0:
334,250,87726,1,2,0:0:0:0:
414,222,87914,2,0,L|453:209,2,29.9999990844727,10|0|0,0:0|0:0|0:0,0:0:0:0:
378,366,88102,2,0,P|392:318|392:294,1,59.9999981689454,4|0,3:0|0:0,0:0:0:0:
349,168,88289,1,2,0:0:0:0:
245,282,88477,5,10,0:1:0:0:
334,250,88664,1,6,3:0:0:0:
195,116,88852,2,0,L|150:106,2,29.9999990844727,2|0|0,0:0|0:0|0:0,0:0:0:0:
232,184,89039,1,10,0:0:0:0:
358,67,89227,6,0,B|408:66|428:115|428:115|448:163|507:159,1,179.999994506836,4|0,3:0|0:0,0:0:0:0:
503,82,89602,1,0,0:0:0:0:
503,82,89789,1,0,0:0:0:0:
308,7,89977,1,8,0:1:0:0:
285,34,90070,1,0,0:0:0:0:
283,68,90164,1,0,0:0:0:0:
339,175,90352,2,0,L|348:127,2,29.9999990844727,2|0|0,0:0|0:0|0:0,0:0:0:0:
358,67,90539,1,8,0:0:0:0:
220,148,90727,6,0,P|228:211|255:278,1,119.999996337891,2|8,0:0|0:0,0:0:0:0:
313,324,91008,1,0,0:0:0:0:
313,324,91102,1,6,3:0:0:0:
339,175,91289,1,2,0:0:0:0:
201,326,91477,2,0,P|212:334|244:341,2,29.9999990844727,10|0|0,0:1|0:0|0:0,0:0:0:0:
300,240,91664,6,0,P|264:249|233:284,1,59.9999981689454,6|0,3:3|0:0,0:0:0:0:
201,326,91852,2,0,P|194:362|213:405,1,59.9999981689454,6|0,3:3|0:0,0:0:0:0:
300,240,92039,1,10,0:0:0:0:
152,67,92227,6,0,P|135:151|98:252,1,179.999994506836,4|0,3:0|0:0,0:0:0:0:
30,374,92602,2,0,P|16:379|-10:389,2,29.9999990844727
118,324,92789,1,0,0:0:0:0:
7,280,92977,2,0,P|69:308|131:328,1,119.999996337891,8|0,0:1|0:0,0:0:0:0:
300,240,93352,5,2,0:0:0:0:
208,211,93539,1,10,0:0:0:0:
238,117,93727,1,2,0:0:0:0:
394,267,93914,6,0,L|441:283,2,29.9999990844727,8|0|0,0:0|0:0|0:0,0:0:0:0:
323,332,94102,2,0,L|248:360,1,59.9999981689454,6|0,3:0|0:0,0:0:0:0:
372,176,94289,1,2,0:0:0:0:
268,22,94477,1,10,0:1:0:0:
330,95,94664,6,0,P|358:85|392:61,1,59.9999981689454,6|0,3:0|0:0,0:0:0:0:
469,143,94852,2,0,P|446:132|417:123,2,29.9999990844727,2|0|0,0:0|0:0|0:0,0:0:0:0:
372,176,95039,1,10,0:0:0:0:
511,18,95227,6,0,P|475:134|467:241,2,220.000006713867,4|0|10,3:0|0:0|0:1,0:0:0:0:
466,231,96164,1,0,0:0:0:0:
330,95,96352,1,2,0:0:0:0:
300,101,96445,1,0,0:0:0:0:
270,107,96539,2,0,B|245:117|245:117|372:155,1,150,8|0,0:0|0:0,0:0:0:0:
383,228,96914,5,12,3:3:0:0:
184,318,97102,2,0,P|170:290|185:248,1,59.9999981689454,4|0,3:0|0:0,0:0:0:0:
345,32,98227,6,0,P|340:68|318:110,1,67.5000002574921,12|0,3:0|0:0,0:0:0:0:
229,155,98414,1,2,0:0:0:0:
234,8,98602,2,0,L|250:58,2,33.750000128746,2|0|0,0:0|0:0|0:0,0:0:0:0:
311,198,98789,1,2,0:0:0:0:
101,114,98977,2,0,P|161:125|239:161,1,135.000000514984,10|2,0:1|0:0,0:0:0:0:
371,283,99352,5,2,0:0:0:0:
190,384,99539,1,10,0:0:0:0:
94,219,99727,1,2,0:0:0:0:
305,350,99914,2,0,L|294:398,2,33.750000128746,10|0|0,0:0|0:0|0:0,0:0:0:0:
204,285,100102,2,0,B|161:276|136:306|136:306|112:338|60:329,1,145.000004425049,6|2,3:0|0:0,0:0:0:0:
230,105,100477,6,0,L|215:199,1,67.5000002574921,10|0,0:1|0:0,0:0:0:0:
204,285,100664,2,0,L|190:379,1,67.5000002574921,6|0,3:0|0:0,0:0:0:0:
230,105,100852,1,2,0:0:0:0:
322,258,101039,1,10,0:0:0:0:
117,222,101227,6,0,B|32:215|32:215|-27:205|-11:125|39:132|39:132|79:137,1,225.000008583069,4|0,3:0|0:0,0:0:0:0:
126,143,101602,2,0,P|159:149|189:181,1,67.5000002574921,2|0,0:0|0:0,0:0:0:0:
194,349,101789,1,2,0:0:0:0:
72,268,101977,1,10,0:1:0:0:
88,236,102070,1,0,0:0:0:0:
114,223,102164,1,2,0:0:0:0:
306,343,102352,2,0,L|299:382,2,33.750000128746,2|0|0,0:0|0:0|0:0,0:0:0:0:
323,257,102539,1,10,0:0:0:0:
194,349,102727,5,2,0:0:0:0:
391,309,102914,2,0,L|426:323,2,33.750000128746,10|0|0,0:0|0:0|0:0,0:0:0:0:
296,130,103102,2,0,P|270:169|266:218,1,72.5000022125245,6|0,3:0|0:0,0:0:0:0:
306,343,103289,1,2,0:0:0:0:
474,221,103477,2,0,L|420:235,2,33.750000128746,10|0|0,0:1|0:0|0:0,0:0:0:0:
323,257,103664,2,0,L|230:279,1,67.5000002574921,6|0,3:0|0:0,0:0:0:0:
474,221,103852,1,6,3:0:0:0:
373,384,104039,5,10,0:0:0:0:
184,215,104227,6,0,B|182:150|245:125|245:125|307:99|302:23,1,225.000008583069,4|0,3:0|0:0,0:0:0:0:
213,50,104602,2,0,P|193:57|171:74,2,33.750000128746,2|0|0,0:0|0:0|0:0,0:0:0:0:
356,119,104789,1,2,0:0:0:0:
135,128,104977,2,0,P|210:143|287:183,1,135.000000514984,10|2,0:1|0:0,0:0:0:0:
87,346,105352,5,2,0:0:0:0:
0,214,105539,1,10,0:0:0:0:
135,128,105727,1,2,0:0:0:0:
112,236,105914,2,0,L|62:251,2,33.750000128746,8|0|0,0:0|0:0|0:0,0:0:0:0:
192,276,106102,5,6,3:0:0:0:
0,214,106289,1,2,0:0:0:0:
229,117,106477,2,0,P|220:158|197:192,1,67.5000002574921,10|0,0:1|0:0,0:0:0:0:
112,236,106664,1,6,3:0:0:0:
297,247,106852,2,0,L|265:235,2,33.750000128746,2|0|0,0:0|0:0|0:0,0:0:0:0:
192,276,107039,1,10,0:0:0:0:
227,38,107227,6,0,B|277:29|306:91|306:91|330:148|403:137,1,202.500000772476,4|0,3:0|0:0,0:0:0:0:
229,117,107602,1,2,0:0:0:0:
387,62,107789,1,2,0:0:0:0:
481,209,107977,5,10,0:1:0:0:
490,222,108070,2,0,B|485:280|485:280|482:286|482:286|472:364,1,125
407,379,108352,2,0,L|338:364,1,62.5,2|0,0:0|0:0,0:0:0:0:
302,299,108539,2,0,L|236:328,1,62.5,10|0,0:0|0:0,0:0:0:0:
156,369,108727,1,2,0:0:0:0:
350,231,108914,6,0,P|378:261|385:302,1,62.5,14|0,3:0|0:0,0:0:0:0:
226,242,109102,1,6,3:0:0:0:
214,228,109195,2,0,B|193:197|193:197|225:93,1,125
247,13,109477,1,10,0:1:0:0:
282,180,109664,1,6,3:0:0:0:
118,238,109852,2,0,L|75:224,2,31.25,2|0|0,0:0|0:0|0:0,0:0:0:0:
168,307,110039,1,10,0:0:0:0:
370,65,110227,6,0,B|397:0|477:-13|544:71|448:96,1,209.999993591309,6|0,3:0|0:0,0:0:0:0:
300,104,110602,2,0,P|292:82|290:57,2,34.9999989318848,2|0|0,0:0|0:0|0:0,0:0:0:0:
401,217,110789,5,2,0:0:0:0:
410,143,110883,2,0,B|375:136|347:164|347:164|322:191|278:179,1,139.999995727539
191,41,111164,2,0,B|191:33|184:20|184:20|220:24|214:71,1,69.9999978637696,2|0,0:0|0:0,0:0:0:0:
243,249,111352,6,0,P|205:193|225:128,1,139.999995727539,2|8,0:0|0:0,0:0:0:0:
316,350,111727,1,2,0:0:0:0:
240,329,111914,6,0,L|232:376,2,34.9999989318848,8|0|0,0:0|0:0|0:0,0:0:0:0:
344,202,112102,2,0,B|386:189|386:189|390:303,1,139.999995727539,4|0,3:0|0:0,0:0:0:0:
390,302,112383,1,0,0:0:0:0:
390,302,112477,5,10,0:1:0:0:
304,132,112664,1,4,3:0:0:0:
454,33,112852,1,0,0:0:0:0:
500,99,113039,1,0,0:0:0:0:
316,55,113227,6,0,B|269:47|246:76|246:76|216:106|172:94,1,139.999995727539,6|0,3:0|0:0,0:0:0:0:
121,55,113508,1,0,0:0:0:0:
125,48,113602,2,0,P|148:22|199:20,1,69.9999978637696,2|0,0:0|0:0,0:0:0:0:
304,132,113789,1,2,0:0:0:0:
154,214,113977,6,0,L|149:168,2,34.9999989318848,8|0|0,0:1|0:0|0:0,0:0:0:0:
165,290,114164,1,2,0:0:0:0:
34,140,114352,5,2,0:0:0:0:
229,179,114539,1,8,0:0:0:0:
275,357,114727,1,2,0:0:0:0:
313,206,114914,6,0,L|321:159,3,34.9999989318848,8|0|0|0,0:0|0:0|0:0|0:0,0:0:0:0:
302,281,115102,6,0,B|398:298|398:298|406:307|406:307|514:328,1,209.999993591309,4|0,3:0|0:0,0:0:0:0:
497,94,115477,6,0,B|488:51|488:51|424:98|424:98|433:149|433:149|439:156|439:156|453:234,1,255.000004863739,6|0,3:0|0:0,0:0:0:0:
302,281,115852,6,0,B|293:324|293:324|229:277|229:277|238:225|238:225|244:218|244:218|258:140,1,255.000004863739,4|0,3:0|0:0,0:0:0:0:
136,91,116227,6,0,P|78:106|168:153,1,225.000008583069,6|0,3:0|0:0,0:0:0:0:
225,46,116602,6,0,L|230:6,3,37.5000014305115,2|0|0|0,0:0|0:0|0:0|0:0,0:0:0:0:
215,119,116789,6,0,B|261:124|286:89|286:89|310:55|363:64,1,150.000005722046,2|8,0:0|0:1,0:0:0:0:
501,19,117164,1,2,0:0:0:0:
354,139,117352,2,0,P|369:167|418:175,1,75.0000028610231,2|0,0:0|0:0,0:0:0:0:
453,240,117539,2,0,P|484:234|507:191,1,75.0000028610231,8|0,0:0|0:0,0:0:0:0:
426,94,117727,5,2,0:0:0:0:
400,295,117914,2,0,P|421:315|436:320,3,37.5000014305115,8|0|0|0,0:0|0:0|0:0|0:0,0:0:0:0:
500,328,118102,6,0,P|433:336|259:371,1,225.000008583069,4|0,3:0|0:0,0:0:0:0:
278,366,118477,1,10,0:1:0:0:
198,182,118664,2,0,P|187:132|187:99,1,75.0000028610231,4|0,3:0|0:0,0:0:0:0:
268,47,118852,2,0,L|310:53,4,37.5000014305115,0|0|0|0|8,0:0|0:0|0:0|0:0|0:0,0:0:0:0:
57,349,119227,6,0,B|131:256|131:256|106:127|106:127|59:107|59:107|27:145|27:145|53:275|53:275|166:325,1,600,6|0,0:3|0:0,0:0:0:0:
159,322,120914,5,4,3:0:0:0:
314,260,121102,1,6,3:0:0:0:
314,260,121477,6,0,L|393:268,1,75.0000028610231,8|4,0:1|3:0,0:0:0:0:
322,183,121852,2,0,L|401:191,1,75.0000028610231,0|8,0:0|0:0,0:0:0:0:
146,109,122227,6,0,B|110:91|104:56|104:56|69:131|133:174,1,194.999991073609,2|0,0:0|0:0,0:0:0:0:
232,236,122977,2,0,B|244:222|261:215|261:215|216:195|183:229|183:229|159:257|115:250,1,194.999991073609,2|2,0:0|0:0,0:0:0:0:
53,180,123727,6,0,B|38:163|44:138|44:138|127:168,1,129.999994049073,2|0,0:0|0:0,0:0:0:0:
273,120,124289,6,0,P|201:155|25:329,1,324.999985122681
437,348,125977,6,0,B|444:291|444:291|448:285|448:285|460:208,1,129.999994049073,0|2,0:0|0:0,0:0:0:0:
425,121,126539,1,2,0:0:0:0:
458,220,126727,6,0,B|387:204|408:263|332:249,1,129.999994049073
264,233,127242,2,0,P|313:256|433:375,1,211.249990329743
425,363,128227,5,0,0:0:0:0:
482,100,128977,6,0,B|488:89|498:85|498:85|436:59|386:105,1,129.999994049073,2|2,0:0|0:0,0:0:0:0:
304,160,129539,2,0,B|258:183|258:183|223:175|203:143|228:105,1,150.000005722046,2|0,0:0|0:0,0:0:0:0:
449,242,130477,1,0,0:0:0:0:
449,242,131227,6,0,B|354:228|354:228|287:212|273:295|329:304|329:304|360:309,1,259.999988098145,2|2,0:0|0:0,0:0:0:0:
353,307,132258,5,2,0:0:0:0:
245,175,132445,2,0,P|214:242|232:332,1,162.499992561341
229,326,133852,1,0,0:0:0:0:
96,95,134227,6,0,B|107:60|89:30|89:30|148:68|123:142,1,194.999991073609,2|0,0:0|0:0,0:0:0:0:
69,232,134977,2,0,B|51:201|51:201|148:230,1,129.999994049073,2|0,0:0|0:0,0:0:0:0:
282,98,135727,6,0,P|230:105|200:180,1,129.999994049073,2|2,0:0|0:0,0:0:0:0:
261,291,136289,2,0,P|271:206|282:87,1,194.999991073609,2|0,0:0|0:0,0:0:0:0:
137,25,137227,6,0,B|102:15|73:42|97:86|150:67|150:67|226:46,1,194.999991073609,2|0,0:0|0:0,0:0:0:0:
323,14,137977,2,0,P|368:17|397:98,1,129.999994049073,2|0,0:0|0:0,0:0:0:0:
301,224,138727,6,0,B|290:163|290:163|292:160|292:160|279:88,1,129.999994049073,2|2,0:0|0:0,0:0:0:0:
380,170,139289,2,0,B|274:213|293:114|186:156,1,194.999991073609,2|2,0:0|0:0,0:0:0:0:
195,152,140227,5,2,0:0:0:0:
40,352,141352,6,0,L|225:327,2,179.999994506836,0|0|2,0:0|0:0|0:0,0:0:0:0:
40,352,142852,5,2,0:0:0:0:
69,264,143227,1,2,0:0:0:0:
292,332,144352,6,0,L|477:357,1,179.999994506836
256,148,145852,5,0,0:0:0:0:
470,72,148477,6,0,B|441:61|441:61|388:92|388:92|340:76,1,119.999996337891,12|0,3:0|0:0,0:0:0:0:
280,50,148852,2,0,L|271:11,3,29.9999990844727
351,163,149227,6,0,B|374:191|374:191|328:341,1,179.999994506836,10|2,0:1|0:0,0:0:0:0:
187,371,149852,2,0,B|161:264|161:264|197:280|197:280|210:325,1,179.999994506836,10|8,0:0|0:0,0:0:0:0:
265,363,150352,1,4,3:0:0:0:
96,218,150727,2,0,L|63:229,2,29.9999990844727,10|0|0,0:1|0:0|0:0,0:0:0:0:
179,194,150977,1,4,3:0:0:0:
149,111,151102,2,0,B|240:130|240:130|255:172,1,119.999996337891,2|10,0:0|0:0,0:0:0:0:
179,194,151477,1,4,3:0:0:0:
130,30,151727,1,8,0:0:0:0:
209,51,151852,2,0,B|293:69|293:69|339:43,1,119.999996337891
400,32,152227,2,0,L|409:-3,3,29.9999990844727,10|0|0|0,0:1|0:0|0:0|0:0,0:0:0:0:
352,140,152602,1,2,0:0:0:0:
476,210,152852,2,0,B|411:199|411:199|363:222|363:222|276:206,1,179.999994506836,10|8,0:0|0:0,0:0:0:0:
231,194,153352,1,6,3:0:0:0:
427,282,153727,2,0,L|437:338,3,29.9999990844727,10|0|0|0,0:1|0:0|0:0|0:0,0:0:0:0:
303,210,154102,2,0,B|313:163|313:163|304:142|304:142|319:78,1,119.999996337891,6|10,3:3|0:0,0:0:0:0:
385,8,154477,6,0,L|252:33,1,119.999996337891,4|0,3:0|0:0,0:0:0:0:
192,44,154852,2,0,L|156:36,3,29.9999990844727
28,148,155227,2,0,L|144:113,1,119.999996337891,10|2,0:1|0:0,0:0:0:0:
217,157,155602,1,2,0:0:0:0:
167,318,155852,1,10,0:0:0:0:
92,337,155977,2,0,B|74:276|74:276|122:219,1,119.999996337891,2|10,0:0|0:0,0:0:0:0:
190,238,156352,1,6,3:0:0:0:
340,335,156727,2,0,L|330:371,2,29.9999990844727,10|0|0,0:1|0:0|0:0,0:0:0:0:
308,260,156977,1,4,3:0:0:0:
397,266,157102,2,0,L|363:145,1,119.999996337891,2|8,0:0|0:0,0:0:0:0:
338,77,157477,2,0,B|286:71|286:71|260:81|260:81|203:71,1,119.999996337891,6|0,3:0|0:0,0:0:0:0:
141,56,157852,1,0,0:0:0:0:
265,176,158227,2,0,L|302:164,2,29.9999990844727,10|0|0,0:1|0:0|0:0,0:0:0:0:
189,148,158477,1,2,0:0:0:0:
167,229,158602,2,0,L|33:205,1,119.999996337891,2|10,0:0|0:0,0:0:0:0:
10,141,158977,1,2,0:0:0:0:
255,259,159227,1,14,3:0:0:0:
238,336,159352,1,6,3:0:0:0:
256,32,160477,5,14,3:0:0:0:
