osu file format v14

[General]
AudioFilename: audio.mp3
AudioLeadIn: 0
PreviewTime: 1433
Countdown: 0
SampleSet: Soft
StackLeniency: 0.5
Mode: 0
LetterboxInBreaks: 0
WidescreenStoryboard: 1

[Editor]
Bookmarks: 26230,38980,50230,62230,74230,98230,122230,134230,145855,148480,160480
DistanceSpacing: 1.1
BeatDivisor: 6
GridSize: 8
TimelineZoom: 1.699999

[Metadata]
Title:hope 2 die
TitleUnicode:hope 2 die
Artist:Mayflower
ArtistUnicode:Mayflower
Creator:Mimari
Version:hard (feat. 1103 & toadsocks)
Source:
Tags:english hip hop trap rap emo pop soundcloud iann dior michael olmo georgie internet money sylas thekoala mayflower 1103 toadsocks537
BeatmapID:2792785
BeatmapSetID:1348747

[Difficulty]
HPDrainRate:4
CircleSize:3.8
OverallDifficulty:6
ApproachRate:8
SliderMultiplier:1.5
SliderTickRate:1

[Events]
//Background and Video events
0,0,"mayflower.jpg",0,0
//Break Periods
//Storyboard Layer 0 (Background)
//Storyboard Layer 1 (Fail)
//Storyboard Layer 2 (Pass)
//Storyboard Layer 3 (Foreground)
//Storyboard Layer 4 (Overlay)
//Storyboard Sound Samples

[TimingPoints]
26227,375,4,2,12,55,1,0
26227,-100,4,2,12,55,0,0
26320,-100,4,2,10,55,0,0
38227,-100,4,2,11,55,0,0
38414,-100,4,2,11,30,0,0
38602,-100,4,2,11,40,0,0
38789,-100,4,2,11,45,0,0
38977,-100,4,2,10,55,0,0
43102,-90.9090909090909,4,2,10,55,0,0
44602,-100,4,2,10,55,0,0
50227,-90.9090909090909,4,2,11,55,0,0
50414,-90.9090909090909,4,2,10,55,0,0
50602,-100,4,2,10,55,0,0
73102,-100,4,2,11,55,0,0
73477,-125,4,2,11,55,0,0
73570,-125,4,2,11,5,0,0
73852,-125,4,2,11,55,0,0
73945,-125,4,2,11,5,0,0
74227,-95.2380952380952,4,2,11,55,0,0
74414,-95.2380952380952,4,2,10,55,0,0
86227,-100,4,2,10,55,0,0
97195,-100,4,2,10,5,0,0
98227,-95.2380952380951,4,2,12,55,0,0
98320,-95.2380952380951,4,2,10,55,0,0
110602,-89.2857142857143,4,2,10,55,0,0
118102,-89.2857142857143,4,2,10,55,0,0
118195,-89.2857142857143,4,2,10,55,0,0
118289,-89.2857142857143,4,2,10,55,0,0
118477,-89.2857142857143,4,2,10,55,0,0
118570,-89.2857142857143,4,2,10,55,0,0
118602,-89.2857142857143,4,2,10,5,0,0
118664,-89.2857142857143,4,2,10,55,0,0
118852,-89.2857142857143,4,2,10,55,0,0
118945,-89.2857142857143,4,2,10,55,0,0
119039,-89.2857142857143,4,2,10,55,0,0
119227,-99.009900990099,4,2,10,55,0,0
122227,-166.666666666667,4,2,11,43,0,0
148477,375,4,2,13,47,1,0
148477,-101.010101010101,4,2,13,47,0,0
148602,-101.010101010101,4,2,10,47,0,0
159602,-101.010101010101,4,2,11,47,0,0
160602,-101.010101010101,4,2,10,47,0,0

[Colours]
Combo1 : 239,236,190
Combo2 : 166,222,238
Combo3 : 205,203,207
Combo4 : 121,139,200

[HitObjects]
191,374,26227,6,0,P|205:339|188:285,1,75,12|0,3:3|0:0,0:0:0:0:
124,265,26602,2,0,L|92:274,3,25
112,183,26977,2,0,B|153:172|181:203|181:203|206:228|260:218,1,150,10|2,0:1|0:0,0:0:0:0:
323,184,27539,2,0,B|334:193|334:217|334:217|367:184|346:139|294:132,1,150,10|8,0:2|0:2,0:0:0:0:
222,137,28102,1,4,3:0:0:0:
379,84,28477,6,0,L|418:96,3,25,10|0|0|4,0:1|0:0|0:0|3:0,0:0:0:0:
330,13,28852,1,2,0:0:0:0:
259,59,29039,1,10,0:0:0:0:
190,1,29227,6,0,P|150:1|113:39,1,75,4|0,3:0|0:0,0:0:0:0:
25,66,29602,2,0,B|49:59|69:81|69:81|89:103|128:98,1,112.5
148,95,29977,2,0,L|193:87,3,25,10|0|0|0,0:1|0:0|0:0|0:0,0:0:0:0:
115,176,30352,1,2,0:0:0:0:
174,248,30539,6,0,P|133:249|23:298,1,150,10|8,0:2|0:2,0:0:0:0:
24,319,31008,1,0,0:0:0:0:
24,319,31102,1,6,3:0:0:0:
212,384,31477,6,0,L|232:296,1,75,8|4,0:1|3:0,0:0:0:0:
265,221,31852,1,6,3:0:0:0:
321,304,32039,1,10,0:2:0:0:
357,214,32227,6,0,P|373:158|358:84,1,112.5,4|0,3:0|0:0,0:0:0:0:
361,87,32602,2,0,L|352:51,3,25
450,121,32977,5,10,0:1:0:0:
484,45,33164,1,2,0:0:0:0:
443,133,33352,1,2,0:0:0:0:
480,224,33539,1,10,0:0:0:0:
431,294,33727,6,0,L|449:374,1,75,2|10,0:0|0:0,0:0:0:0:
455,384,34008,1,0,0:0:0:0:
455,384,34102,2,0,P|419:368|376:372,1,75,6|2,3:0|0:0,0:0:0:0:
283,338,34477,2,0,L|246:350,3,25,10|0|0|4,0:1|0:0|0:0|3:3,0:0:0:0:
334,264,34852,2,0,P|348:215|336:138,1,112.5,2|0,0:0|0:0,0:0:0:0:
333,133,35227,5,6,3:3:0:0:
380,58,35414,1,0,0:0:0:0:
311,8,35602,2,0,P|269:9|235:26,1,75
205,115,35977,2,0,L|210:154,3,25,10|0|0|2,0:1|0:0|0:0|0:0,0:0:0:0:
147,44,36352,1,2,0:0:0:0:
114,134,36539,6,0,L|24:110,1,75,10|2,0:0|0:0,0:0:0:0:
0,187,36914,1,14,3:3:0:0:
79,237,37102,2,0,L|167:220,1,75,6|2,3:3|0:0,0:0:0:0:
246,272,37477,1,10,0:1:0:0:
246,272,37570,1,0,0:0:0:0:
246,272,37664,1,4,3:3:0:0:
215,374,37852,2,0,P|157:382|125:292,1,150,2|2,0:0|0:0,0:0:0:0:
169,112,38602,5,8,0:1:0:0:
169,112,38789,1,8,0:1:0:0:
224,171,38977,6,0,P|260:173|301:149,1,75,10|2,0:1|0:0,0:0:0:0:
360,97,39352,2,0,P|396:95|437:119,1,75,2|10,0:0|0:2,0:0:0:0:
495,172,39727,1,2,0:0:0:0:
413,211,39914,1,10,0:2:0:0:
489,261,40102,6,0,P|494:283|479:319,1,37.5,6|0,3:0|0:0,0:0:0:0:
485,314,40289,1,2,0:0:0:0:
398,367,40477,2,0,B|374:374|354:352|354:352|334:330|295:335,1,112.5,10|0,0:1|0:0,0:0:0:0:
275,338,40852,2,0,L|230:346,3,25,2|0|0|8,0:0|0:0|0:0|0:0,0:0:0:0:
322,260,41227,5,6,3:0:0:0:
264,202,41414,1,0,0:0:0:0:
316,133,41602,2,0,P|334:84|312:49,1,75,0|2,0:0|0:0,0:0:0:0:
262,15,41977,5,10,0:1:0:0:
195,66,42164,1,2,0:0:0:0:
118,24,42352,2,0,L|109:-17,3,25,2|0|0|10,0:0|0:0|0:0|0:0,0:0:0:0:
202,77,42727,2,0,L|182:168,1,75,2|10,0:0|0:0,0:0:0:0:
180,190,43008,1,0,0:0:0:0:
180,190,43102,6,0,B|167:219|167:219|121:251|68:205,1,123.75000377655,6|0,3:3|0:0,0:0:0:0:
62,202,43477,5,6,3:3:0:0:
236,255,43852,5,6,3:3:0:0:
64,340,44227,6,0,P|93:315|138:306,1,82.5000025177003,4|0,3:0|0:0,0:0:0:0:
218,335,44602,2,0,B|261:345|289:317|289:317|323:287|379:309,1,150,0|8,0:0|0:1,0:0:0:0:
417,359,45164,6,0,P|439:329|442:281,1,75,2|2,0:0|0:0,0:0:0:0:
396,222,45539,1,10,0:0:0:0:
313,219,45727,2,0,P|291:189|288:141,1,75,2|8,0:0|0:0,0:0:0:0:
295,121,46008,1,0,0:0:0:0:
295,121,46102,5,6,3:0:0:0:
377,73,46289,1,2,0:0:0:0:
303,20,46477,2,0,P|264:11|216:24,1,75,10|4,0:1|3:0,0:0:0:0:
191,100,46852,2,0,L|196:124,3,25,2|0|0|8,0:0|0:0|0:0|0:0,0:0:0:0:
144,29,47227,5,4,3:0:0:0:
95,99,47414,1,0,0:0:0:0:
133,171,47602,2,0,B|164:213|214:204|214:204|291:189,1,150,0|8,0:0|0:1,0:0:0:0:
357,173,48164,1,0,0:0:0:0:
432,222,48352,2,0,P|443:261|427:309,1,75,2|10,0:0|0:0,0:0:0:0:
396,371,48727,5,2,0:0:0:0:
200,38,50227,6,0,P|142:40|61:73,1,123.75000377655,12|0,3:0|0:0,0:0:0:0:
70,75,50602,2,0,P|64:114|61:164,1,75,2|2,0:0|0:0,0:0:0:0:
109,222,50977,1,10,0:1:0:0:
32,264,51164,1,2,0:0:0:0:
99,324,51352,2,0,P|137:328|190:300,1,75,2|10,0:0|0:0,0:0:0:0:
248,273,51727,5,2,0:0:0:0:
325,315,51914,2,0,L|376:326,1,37.5,10|0,0:0|0:0,0:0:0:0:
379,327,52102,2,0,L|472:346,1,75,6|2,3:0|0:0,0:0:0:0:
512,267,52477,1,10,0:1:0:0:
512,267,52570,1,0,0:0:0:0:
512,267,52664,1,6,3:0:0:0:
450,179,52852,2,0,L|375:196,1,75,2|10,0:0|0:0,0:0:0:0:
301,129,53227,5,4,3:0:0:0:
366,68,53414,1,2,0:0:0:0:
303,6,53602,2,0,P|261:3|226:30,1,75,2|2,0:0|0:0,0:0:0:0:
165,72,53977,2,0,L|117:63,3,25,10|0|0|2,0:1|0:0|0:0|0:0,0:0:0:0:
216,138,54352,1,2,0:0:0:0:
142,193,54539,1,10,0:0:0:0:
215,251,54727,6,0,P|219:292|203:344,1,75,2|10,0:0|0:0,0:0:0:0:
202,352,55008,1,0,0:0:0:0:
202,352,55102,1,6,3:0:0:0:
128,302,55289,1,2,0:0:0:0:
63,359,55477,1,10,0:1:0:0:
1,304,55664,2,0,L|11:240,1,37.5,6|0,3:0|0:0,0:0:0:0:
13,244,55852,2,0,L|32:150,1,75,6|10,3:0|0:0,0:0:0:0:
22,42,56227,6,0,B|46:35|66:57|66:57|86:79|125:74,1,112.5,4|0,3:0|0:0,0:0:0:0:
143,74,56602,2,0,P|181:68|227:53,1,75,2|2,0:0|0:0,0:0:0:0:
291,14,56977,1,10,0:1:0:0:
323,98,57164,1,2,0:0:0:0:
386,33,57352,2,0,P|424:39|470:54,1,75,2|10,0:0|0:0,0:0:0:0:
506,121,57727,6,0,P|468:127|422:142,1,75,2|10,0:0|0:0,0:0:0:0:
420,155,58008,1,0,0:0:0:0:
420,155,58102,1,6,3:3:0:0:
351,214,58289,1,2,0:0:0:0:
271,175,58477,2,0,P|262:228|272:259,1,75,10|6,0:1|3:0,0:0:0:0:
334,302,58852,2,0,L|358:306,3,25,2|0|0|10,0:0|0:0|0:0|0:0,0:0:0:0:
250,338,59227,6,0,B|202:342|179:308|179:308|160:279|106:279,2,150,4|0|8,3:0|0:0|0:1,0:0:0:0:
439,283,60352,1,2,0:0:0:0:
492,224,60539,2,0,P|502:169|470:91,1,112.5,8|0,0:0|0:0,0:0:0:0:
475,104,60914,5,12,3:0:0:0:
408,34,61102,2,0,B|362:19|332:47|332:47|307:71|254:59,1,150,4|0,3:0|0:0,0:0:0:0:
178,87,61664,1,4,3:0:0:0:
233,164,61852,1,0,0:0:0:0:
233,164,61945,1,0,0:0:0:0:
233,164,62039,1,8,0:0:0:0:
185,238,62227,6,0,P|138:256|68:231,1,112.5,4|0,3:0|0:0,0:0:0:0:
68,223,62602,2,0,L|58:179,3,25
29,295,62977,6,0,B|14:293|1:274|1:274|-7:320|35:345|82:320,1,150,10|2,0:1|0:0,0:0:0:0:
157,337,63539,2,0,B|198:326|226:357|226:357|251:382|305:372,1,150,10|8,0:0|0:0,0:0:0:0:
378,352,64102,1,4,3:0:0:0:
232,260,64477,5,10,0:1:0:0:
232,260,64664,1,4,3:0:0:0:
317,247,64852,2,0,P|328:208|311:164,1,75,2|10,0:0|0:0,0:0:0:0:
266,107,65227,1,4,3:0:0:0:
352,76,65414,1,0,0:0:0:0:
280,14,65602,2,0,L|190:4,1,75
114,29,65977,6,0,L|77:36,3,25,10|0|0|0,0:1|0:0|0:0|0:0,0:0:0:0:
179,91,66352,1,2,0:0:0:0:
116,153,66539,2,0,B|74:174|84:212|84:212|116:302,1,150,10|8,0:0|0:0,0:0:0:0:
124,308,67008,1,0,0:0:0:0:
124,308,67102,1,6,3:3:0:0:
286,204,67477,6,0,L|293:159,3,25,10|0|0|4,0:1|0:0|0:0|3:0,0:0:0:0:
361,272,67852,1,6,3:0:0:0:
420,193,68039,1,10,0:0:0:0:
482,291,68227,6,0,B|488:313|476:330|476:330|382:355,1,112.5,4|0,3:0|0:0,0:0:0:0:
389,358,68602,2,0,L|383:389,3,25
361,272,68977,5,10,0:1:0:0:
285,320,69164,1,2,0:0:0:0:
208,269,69352,1,2,0:0:0:0:
132,317,69539,1,10,0:2:0:0:
220,254,69727,6,0,P|234:222|227:170,1,75,2|10,0:0|0:0,0:0:0:0:
221,157,70008,1,0,0:0:0:0:
221,157,70102,2,0,P|207:125|214:73,1,75,6|2,3:0|0:0,0:0:0:0:
284,34,70477,2,0,L|311:38,3,25,10|0|0|4,0:1|0:0|0:0|3:0,0:0:0:0:
195,4,70852,2,0,B|171:-3|151:19|151:19|131:41|92:36,1,112.5,2|0,0:0|0:0,0:0:0:0:
68,34,71227,6,0,B|18:29|7:75|7:75|41:165,2,150,6|0|10,3:0|0:0|0:1,0:0:0:0:
145,76,72164,1,2,0:0:0:0:
224,37,72352,2,0,L|323:40,1,75,2|10,0:0|0:0,0:0:0:0:
378,82,72727,1,2,0:0:0:0:
311,146,72914,2,0,P|308:171|317:197,1,37.5,6|0,3:0|0:0,0:0:0:0:
463,360,73477,6,0,P|489:322|438:269,1,120,10|10,0:0|0:0,0:0:0:0:
303,321,74227,6,0,L|159:320,1,118.124996395111,14|0,3:3|0:0,0:0:0:0:
164,332,74602,2,0,P|119:317|92:290,1,78.7499975967408,2|0,0:0|0:0,0:0:0:0:
149,217,74977,1,10,0:1:0:0:
68,167,75164,2,0,L|58:78,1,78.7499975967408,0|2,0:0|0:0,0:0:0:0:
132,21,75539,6,0,P|203:10|235:94,1,157.499995193482,10|10,0:0|0:0,0:0:0:0:
236,111,76008,1,0,0:0:0:0:
236,111,76102,1,4,3:0:0:0:
327,67,76289,1,2,0:0:0:0:
421,108,76477,2,0,P|425:148|428:195,1,78.7499975967408,10|6,0:1|3:0,0:0:0:0:
471,273,76852,2,0,L|502:269,3,26.2499991989136,2|0|0|8,0:0|0:0|0:0|0:0,0:0:0:0:
403,326,77227,6,0,P|351:322|288:374,1,118.124996395111,4|0,3:0|0:0,0:0:0:0:
274,370,77602,2,0,L|195:362,1,78.7499975967408,2|0,0:0|0:0,0:0:0:0:
142,297,77977,1,10,0:1:0:0:
142,297,78070,1,0,0:0:0:0:
142,297,78164,1,0,0:0:0:0:
218,234,78352,1,2,0:0:0:0:
132,181,78539,6,0,P|122:140|134:98,1,78.7499975967408,10|0,0:0|0:0,0:0:0:0:
190,15,78914,1,10,0:0:0:0:
256,93,79102,2,0,L|351:86,1,78.7499975967408,4|0,3:0|0:0,0:0:0:0:
398,16,79477,2,0,P|426:49|426:98,1,78.7499975967408,10|6,0:1|3:3,0:0:0:0:
386,167,79852,2,0,L|343:174,3,26.2499991989136,6|0|0|8,3:3|0:0|0:0|0:0,0:0:0:0:
429,83,80227,6,0,L|521:100,1,78.7499975967408,4|0,3:0|0:0,0:0:0:0:
458,234,80602,1,2,0:0:0:0:
386,167,80789,1,2,0:0:0:0:
348,260,80977,2,0,P|311:269|265:252,1,78.7499975967408,10|0,0:1|0:0,0:0:0:0:
191,197,81352,1,2,0:0:0:0:
282,147,81539,1,10,0:0:0:0:
193,86,81727,5,2,0:0:0:0:
276,23,81914,2,0,L|321:31,3,26.2499991989136,10|0|0|4,0:0|0:0|0:0|3:0,0:0:0:0:
204,78,82289,1,2,0:0:0:0:
135,10,82477,1,10,0:1:0:0:
47,36,82664,1,6,3:3:0:0:
37,127,82852,2,0,L|-11:142,3,26.2499991989136,2|0|0|8,0:0|0:0|0:0|0:0,0:0:0:0:
110,185,83227,6,0,P|122:221|108:268,1,78.7499975967408,4|0,3:0|0:0,0:0:0:0:
42,330,83602,1,2,0:0:0:0:
13,227,83789,1,2,0:0:0:0:
113,259,83977,2,0,L|206:240,1,78.7499975967408,10|0,0:1|0:0,0:0:0:0:
295,282,84352,2,0,P|300:321|277:362,1,78.7499975967408,2|10,0:0|0:0,0:0:0:0:
260,201,84727,5,2,0:0:0:0:
361,218,84914,1,14,3:3:0:0:
361,218,85008,1,0,0:0:0:0:
361,218,85102,2,0,L|448:239,1,78.7499975967408,6|2,3:0|0:0,0:0:0:0:
491,171,85477,2,0,P|503:135|486:78,1,78.7499975967408,10|6,0:1|3:0,0:0:0:0:
420,19,85852,2,0,P|352:9|296:31,1,118.124996395111,2|0,0:0|0:0,0:0:0:0:
287,35,86227,6,0,P|292:69|298:118,1,75,6|0,3:0|0:0,0:0:0:0:
243,189,86602,2,0,L|239:233,3,25,2|0|0|2,0:0|0:0|0:0|0:0,0:0:0:0:
171,129,86977,2,0,P|134:121|88:139,1,75,10|2,0:1|0:0,0:0:0:0:
33,204,87352,1,2,0:0:0:0:
99,278,87539,6,0,L|97:369,1,75,10|2,0:0|0:0,0:0:0:0:
190,384,87914,1,10,0:0:0:0:
190,384,88008,1,0,0:0:0:0:
190,384,88102,1,4,3:0:0:0:
265,340,88289,1,2,0:0:0:0:
342,367,88477,2,0,P|380:376|432:358,1,75,10|6,0:1|3:0,0:0:0:0:
483,309,88852,2,0,L|519:320,3,25,2|0|0|10,0:0|0:0|0:0|0:0,0:0:0:0:
423,233,89227,6,0,B|415:69,2,150,4|0|8,3:0|0:0|0:1,0:0:0:0:
265,340,90352,2,0,L|235:345,3,25,2|0|0|8,0:0|0:0|0:0|0:0,0:0:0:0:
315,264,90727,6,0,L|227:249,1,75,2|8,0:0|0:0,0:0:0:0:
150,204,91102,1,6,3:0:0:0:
256,164,91289,1,2,0:0:0:0:
163,112,91477,2,0,P|157:75|172:26,1,75,10|6,0:1|3:3,0:0:0:0:
256,14,91852,2,0,L|303:22,1,37.5,6|0,3:3|0:0,0:0:0:0:
315,24,92039,1,10,0:0:0:0:
411,44,92227,6,0,L|417:125,1,75,4|0,3:0|0:0,0:0:0:0:
444,219,92602,2,0,L|477:224,3,25
352,192,92977,2,0,P|315:188|279:206,1,75,8|0,0:1|0:0,0:0:0:0:
202,260,93352,1,2,0:0:0:0:
277,325,93539,1,10,0:0:0:0:
188,362,93727,6,0,L|103:346,1,75,2|8,0:0|0:0,0:0:0:0:
85,341,94008,1,0,0:0:0:0:
85,341,94102,2,0,P|75:304|96:254,1,75,6|2,3:0|0:0,0:0:0:0:
143,198,94477,2,0,P|153:161|132:111,1,75,10|6,0:1|3:0,0:0:0:0:
64,71,94852,2,0,L|21:79,3,25,2|0|0|10,0:0|0:0|0:0|0:0,0:0:0:0:
160,22,95227,6,0,P|231:13|295:55,1,150,4|0,3:0|0:0,0:0:0:0:
380,12,95789,1,0,0:0:0:0:
455,64,95977,2,0,L|450:95,3,25,10|0|0|0,0:1|0:0|0:0|0:0,0:0:0:0:
361,94,96352,2,0,L|376:167,1,75,2|8,0:0|0:0,0:0:0:0:
448,212,96727,2,0,L|434:306,1,75,0|12,0:0|3:3,0:0:0:0:
430,313,97008,1,0,0:0:0:0:
430,312,97102,2,0,B|251:302,1,150,4|0,3:0|0:0,0:0:0:0:
65,43,98227,6,0,L|163:27,1,78.7499975967408,12|2,3:0|0:0,0:0:0:0:
228,89,98602,2,0,L|268:98,3,26.2499991989136,2|0|0|2,0:0|0:0|0:0|0:0,0:0:0:0:
149,121,98977,1,10,0:1:0:0:
90,185,99164,1,2,0:0:0:0:
11,221,99352,2,0,P|-2:178|23:135,1,78.7499975967408,2|10,0:0|0:0,0:0:0:0:
90,185,99727,5,2,0:0:0:0:
90,185,99914,2,0,P|148:186|173:205,1,78.7499975967408,10|6,0:0|3:0,0:0:0:0:
178,279,100289,1,2,0:0:0:0:
232,337,100477,2,0,L|286:327,1,39.3749987983704,10|0,0:1|0:0,0:0:0:0:
310,321,100664,2,0,P|292:285|306:229,1,78.7499975967408,6|2,3:0|0:0,0:0:0:0:
369,202,101039,1,10,0:0:0:0:
356,123,101227,6,0,L|267:102,1,78.7499975967408,4|0,3:0|0:0,0:0:0:0:
199,92,101602,1,2,0:0:0:0:
199,92,101789,1,2,0:0:0:0:
131,158,101977,2,0,P|113:194|127:250,1,78.7499975967408,10|2,0:1|0:0,0:0:0:0:
198,245,102352,2,0,L|222:236,3,26.2499991989136,2|0|0|10,0:0|0:0|0:0|0:0,0:0:0:0:
144,331,102727,6,0,B|189:312|221:328|221:328|272:342|311:323,2,157.499995193482,2|6|10,0:0|3:0|0:1,0:0:0:0:
57,298,103664,2,0,P|40:258|52:210,1,78.7499975967408,6|6,3:0|3:0,0:0:0:0:
81,150,104039,1,10,0:0:0:0:
161,182,104227,1,4,3:0:0:0:
326,144,104602,5,2,0:0:0:0:
326,144,104789,1,2,0:0:0:0:
278,220,104977,1,10,0:1:0:0:
278,220,105164,1,2,0:0:0:0:
234,141,105352,6,0,P|234:77|234:45,2,78.7499975967408,2|10|2,0:0|0:0|0:0,0:0:0:0:
278,220,105914,1,8,0:0:0:0:
326,144,106102,2,0,P|369:138|406:147,1,78.7499975967408,6|2,3:0|0:0,0:0:0:0:
481,216,106477,2,0,L|483:322,2,78.7499975967408,10|6|2,0:1|3:0|0:0,0:0:0:0:
480,129,107039,1,0,0:0:0:0:
477,40,107227,6,0,P|434:44|386:69,1,78.7499975967408,2|2,0:0|0:0,0:0:0:0:
323,88,107602,2,0,L|216:63,1,78.7499975967408,2|2,0:0|0:0,0:0:0:0:
148,96,107977,2,0,P|145:134|163:180,1,78.7499975967408,10|0,0:1|0:0,0:0:0:0:
227,229,108352,2,0,L|220:261,3,26.2499991989136,2|0|0|10,0:0|0:0|0:0|0:0,0:0:0:0:
304,193,108727,5,2,0:0:0:0:
375,234,108914,1,14,3:0:0:0:
463,206,109102,2,0,P|474:241|457:288,1,78.7499975967408,6|2,3:0|0:0,0:0:0:0:
388,329,109477,1,10,0:1:0:0:
388,329,109665,1,6,3:0:0:0:
304,296,109852,1,2,0:0:0:0:
304,296,110039,1,10,0:0:0:0:
227,352,110227,6,0,L|98:334,1,118.124996395111,6|0,3:0|0:0,0:0:0:0:
84,330,110602,1,2,0:0:0:0:
115,252,110789,2,0,P|150:229|213:229,1,84.0000010253906,2|10,0:0|0:1,0:0:0:0:
271,195,111164,1,2,0:0:0:0:
315,121,111352,6,0,P|293:56|181:48,1,168.000002050781,2|2,0:0|0:0,0:0:0:0:
106,36,111914,1,8,0:0:0:0:
145,125,112102,2,0,P|145:173|132:219,1,84.0000010253906,4|0,3:0|0:0,0:0:0:0:
46,236,112477,1,10,0:1:0:0:
45,327,112664,2,0,P|109:349|218:365,1,168.000002050781,4|0,3:0|0:0,0:0:0:0:
269,309,113227,6,0,P|294:270|409:268,1,168.000002050781,6|2,3:0|0:0,0:0:0:0:
439,351,113789,1,2,0:0:0:0:
497,289,113977,2,0,P|506:249|506:195,1,84.0000010253906,8|2,0:1|0:0,0:0:0:0:
440,147,114352,2,0,L|441:102,3,28.0000003417969,2|0|0|8,0:0|0:0|0:0|0:0,0:0:0:0:
376,207,114727,2,0,P|332:191|293:178,1,84.0000010253906,2|8,0:0|0:0,0:0:0:0:
233,125,115102,5,4,3:0:0:0:
303,300,115477,6,0,P|223:324|122:341,1,168.000002050781,6|4,3:0|3:0,0:0:0:0:
371,350,116227,6,0,L|464:374,1,84.0000010253906,6|2,3:0|0:0,0:0:0:0:
486,287,116602,2,0,L|521:276,3,28.0000003417969,2|0|0|2,0:0|0:0|0:0|0:0,0:0:0:0:
451,210,116977,1,8,0:1:0:0:
451,210,117164,1,2,0:0:0:0:
493,132,117352,2,0,P|429:122|379:147,1,84.0000010253906,2|8,0:0|0:0,0:0:0:0:
358,193,117727,6,0,P|316:189|275:199,1,84.0000010253906,2|8,0:0|0:0,0:0:0:0:
228,274,118102,2,0,L|116:274,1,84.0000010253906,4|0,3:0|0:0,0:0:0:0:
70,228,118477,1,10,0:1:0:0:
70,228,118664,1,4,3:0:0:0:
42,148,118852,2,0,L|4:160,3,28.0000003417969
136,95,119227,6,0,B|161:141|259:150|294:111|246:78|309:41|383:-50|460:-19|542:74|513:174|424:239|395:157|296:212|305:324|352:368,1,681.749986476517,6|4,0:3|3:0,0:0:0:0:
420,303,121102,1,6,3:0:0:0:
420,303,121289,2,0,P|493:285|521:290,2,75.7499984973908,0|8|4,0:0|0:1|3:0,0:0:0:0:
477,360,121852,2,0,L|485:394,3,25.2499994991303,0|0|0|8,0:0|0:0|0:0|0:0,0:0:0:0:
420,303,122227,6,0,B|478:255|423:191|423:191|356:209|356:209|353:216|353:216|283:238,1,269.999991760254,2|0,0:0|0:0,0:0:0:0:
240,153,123727,2,0,B|203:117|239:34|324:89|327:125|334:169|285:245,1,269.999991760254,2|0,0:0|0:0,0:0:0:0:
165,307,125227,1,0,0:0:0:0:
165,307,125977,6,0,B|127:301|127:301|117:304|117:304|62:296,1,89.9999972534181,0|2,0:0|0:0,0:0:0:0:
31,241,126539,2,0,B|70:190|140:217|149:279|149:279|169:347|235:355|278:317,1,314.999990386963,2|0,0:0|0:0,0:0:0:0:
362,229,128227,6,0,B|410:193|409:126|356:78|356:78|305:123|325:174,1,269.999991760254,0|2,0:0|0:0,0:0:0:0:
355,313,129914,2,0,P|420:296|502:278,1,134.999995880127
303,136,131227,6,0,B|341:154|356:212|306:251|306:251|258:280|259:348|308:373,1,269.999991760254,2|0,0:0|0:0,0:0:0:0:
442,126,132914,6,0,B|379:82|304:135|304:135|354:122|394:149,1,224.999993133545
289,265,134227,6,0,P|230:282|180:120,1,269.999991760254,2|0,0:0|0:0,0:0:0:0:
269,15,135727,5,2,0:0:0:0:
197,47,135914,2,0,B|149:39|149:39|116:58|116:58|65:50,1,134.999995880127
197,47,136852,1,0,0:0:0:0:
244,158,137227,6,0,B|262:196|320:211|358:167|358:167|391:123|455:121|481:163,1,269.999991760254,2|0,0:0|0:0,0:0:0:0:
421,315,138727,5,2,0:0:0:0:
382,250,138914,2,0,P|443:240|469:374,1,224.999993133545,0|2,0:0|0:0,0:0:0:0:
304,367,140227,6,0,B|254:343|264:290|264:290|296:112,1,269.999991760254,2|0,0:0|0:0,0:0:0:0:
125,34,141914,5,0,0:0:0:0:
68,162,142477,2,0,P|109:151|161:137,1,89.9999972534181,2|2,0:0|0:0,0:0:0:0:
256,231,143227,6,0,B|232:281|179:271|179:271|1:239,1,269.999991760254,2|0,0:0|0:0,0:0:0:0:
125,48,144914,6,0,B|179:17|231:62|231:62|276:106|341:69,1,224.999993133545
441,323,148477,6,0,B|424:308|424:308|332:330,1,98.999999697876,12|0,3:0|0:0,0:0:0:0:
332,334,148852,2,0,L|326:372,3,24.749999924469
350,237,149227,2,0,B|362:191|362:191|356:167|349:146|349:146|366:88,1,148.499999546814,10|2,0:1|0:0,0:0:0:0:
419,35,149852,2,0,B|417:-1|417:-1|293:28,1,148.499999546814,10|8,0:0|0:0,0:0:0:0:
280,33,150352,1,4,3:0:0:0:
108,70,150727,2,0,L|87:228,2,148.499999546814,10|2|4,0:1|0:0|3:0,0:0:0:0:
181,1,151727,1,8,0:0:0:0:
186,15,151852,1,0,0:0:0:0:
259,145,152227,2,0,B|322:137|322:137|346:149|346:149|423:141,1,148.499999546814,10|2,0:1|0:0,0:0:0:0:
483,56,152852,2,0,B|461:71|461:71|493:205,1,148.499999546814,10|8,0:0|0:0,0:0:0:0:
495,213,153352,1,6,3:0:0:0:
446,349,153727,2,0,B|401:338|401:338|395:326|395:326|345:317,1,98.999999697876,10|0,0:1|0:0,0:0:0:0:
334,317,154102,2,0,L|290:331,3,24.749999924469,6|0|0|0,3:3|0:0|0:0|0:0,0:0:0:0:
388,240,154477,6,0,L|283:218,1,98.999999697876,4|0,3:0|0:0,0:0:0:0:
267,212,154852,1,0,0:0:0:0:
153,193,155227,2,0,B|140:189|140:189|170:330,1,148.499999546814,10|2,0:1|0:0,0:0:0:0:
70,375,155852,1,10,0:0:0:0:
54,368,155977,2,0,L|25:215,1,148.499999546814,2|6,0:0|3:0,0:0:0:0:
153,76,156727,2,0,L|161:32,3,24.749999924469,10|0|0|0,0:1|0:0|0:0|0:0,0:0:0:0:
224,129,157102,2,0,L|337:103,1,98.999999697876,2|8,0:0|0:0,0:0:0:0:
345,100,157477,2,0,B|364:123|364:123|338:211,1,98.999999697876,6|0,3:0|0:0,0:0:0:0:
334,213,157852,1,0,0:0:0:0:
333,343,158227,2,0,B|400:331|400:331|416:317|416:317|490:300,2,148.499999546814,10|2|2,0:1|0:0|0:0,0:0:0:0:
235,256,159227,1,14,3:0:0:0:
213,249,159352,1,6,3:0:0:0:
256,32,160477,5,14,3:0:0:0:
