osu file format v14

[General]
AudioFilename: audio.mp3
AudioLeadIn: 0
PreviewTime: 54191
Countdown: 1
SampleSet: Soft
StackLeniency: 0.7
Mode: 0
LetterboxInBreaks: 0
WidescreenStoryboard: 1

[Editor]
Bookmarks: 79355,115679
DistanceSpacing: 0.8
BeatDivisor: 2
GridSize: 8
TimelineZoom: 2.599999

[Metadata]
Title:Flower
TitleUnicode:花
Artist:Mayday
ArtistUnicode:五月天
Creator:Rucker
Version:Normal
Source:
Tags:五月天 MAYDAY 花 音樂來自四方
BeatmapID:1074535
BeatmapSetID:500464

[Difficulty]
HPDrainRate:4
CircleSize:3.5
OverallDifficulty:4
ApproachRate:5
SliderMultiplier:1.4
SliderTickRate:1

[Events]
//Background and Video events
0,0,"bg2.jpg",0,0
//Break Periods
//Storyboard Layer 0 (Background)
//Storyboard Layer 1 (Fail)
//Storyboard Layer 2 (Pass)
//Storyboard Layer 3 (Foreground)
//Storyboard Sound Samples

[TimingPoints]
39,333.296300411065,4,2,0,100,1,0
29702,337.076300411066,4,2,0,100,1,0
32398,333.296300411065,4,2,0,100,1,0
33544,326.086956521739,4,2,0,100,1,0
34196,333.296300411065,4,2,0,100,1,0
36195,326.086956521739,4,2,0,100,1,0
36847,333.296300411065,4,2,0,100,1,0
39372,333.296300411065,4,2,0,100,1,0
43371,327.868852459016,4,2,0,100,1,0
44359,333.296300411065,4,2,0,100,1,0
49691,-200,4,2,0,40,0,0
51024,-200,4,2,0,50,0,0
51358,-200,4,2,0,60,0,0
51691,-200,4,2,0,70,0,0
52024,-200,4,2,0,80,0,0
52358,-100,4,2,0,90,0,0
91020,-200,4,2,0,5,0,0
92353,-200,4,2,0,50,0,0
92686,-200,4,2,0,60,0,0
93020,-200,4,2,0,70,0,0
93353,-200,4,2,0,80,0,0
93686,-100,4,2,0,90,0,0
95020,-100,4,2,0,90,0,0
95686,-200,4,2,0,10,0,0
96353,-100,4,2,0,90,0,0
115020,335.195530726257,4,2,0,100,1,0
117703,324.324324324324,4,2,0,100,1,0
120349,333.296300411065,4,2,0,100,1,0
125681,338.983050847458,4,2,0,100,1,0
126870,333.296300411065,4,2,0,100,1,0
132369,331.491712707182,4,2,0,100,1,0
137672,666.666666666667,4,2,0,5,1,0
137672,-200,4,2,0,5,0,0
141679,333.296300411065,4,2,0,100,1,0
141679,-100,4,2,0,40,0,0
142012,-100,4,2,0,50,0,0
142345,-100,4,2,0,60,0,0
142678,-100,4,2,0,70,0,0
143012,-100,4,2,0,90,0,0
156344,337.078651685393,4,2,0,100,1,0
159022,333.296300411065,4,2,0,100,1,0
159022,-100,4,2,0,90,0,0
164354,331.491712707182,4,2,0,100,1,0

[HitObjects]
112,216,23036,6,0,P|168:272|152:328,2,140,8|8|8,0:0|0:0|0:0,0:0:0:0:
152,112,24036,1,8,0:0:0:0:
152,112,24202,2,0,B|232:72|288:168|360:120,1,210,4|8,0:0|0:0,0:0:0:0:
432,208,25036,1,0,0:0:0:0:
376,304,25369,1,8,0:0:0:0:
376,304,25536,2,0,P|280:336|176:280,1,210,4|8,0:0|0:0,0:0:0:0:
104,216,26369,2,0,L|32:288,2,70,0|0|8,0:0|0:0|0:0,0:0:0:0:
184,144,27036,5,0,0:0:0:0:
80,104,27369,1,8,0:0:0:0:
104,216,27702,1,0,0:0:0:0:
184,144,28035,1,8,0:0:0:0:
184,144,28202,2,0,P|272:80|376:112,1,210,4|8,0:0|0:0,0:0:0:0:
456,168,29035,1,0,0:0:0:0:
456,224,29202,2,0,L|304:280,1,140
296,320,29702,6,0,P|272:280|272:248,3,70,4|0|8|4,0:0|0:0|0:0|0:0,0:0:0:0:
160,248,30544,2,0,P|132:269|118:301,2,70,0|8|4,0:0|0:0|0:0,0:0:0:0:
136,136,31218,2,0,P|103:123|69:126,2,70,0|8|4,0:0|0:0|0:0,0:0:0:0:
232,80,31892,2,0,P|226:45|206:17,2,70,0|8|0,0:0|0:0|0:0,0:0:0:0:
288,96,32398,2,0,L|456:56,2,140,4|8|0,0:0|0:0|0:0,0:0:0:0:
352,184,33397,1,8,0:0:0:0:
392,216,33544,2,0,P|352:288|280:288,2,140
368,168,34362,2,0,L|216:152,1,140,0|10,0:0|0:0,0:0:0:0:
120,176,35029,6,0,B|168:120|168:120|152:48,2,140,4|8|0,0:0|0:0|0:0,0:0:0:0:
216,120,36029,1,8,0:0:0:0:
256,80,36195,2,0,P|304:24|392:32,2,140
264,136,37013,2,0,P|216:192|128:184,1,140,0|8,0:0|0:0,0:0:0:0:
160,88,37680,6,0,L|96:16,3,70,8|0|8|0,0:0|0:0|0:0|0:0,0:0:0:0:
80,80,38346,2,0,L|-12:49,3,70,8|0|8|0,0:0|0:0|0:0|0:0,0:0:0:0:
32,112,39013,6,0,P|56:200|120:208,1,140,4|8,0:0|0:0,0:0:0:0:
208,168,39705,1,0,0:0:0:0:
208,280,40038,1,8,0:0:0:0:
208,280,40205,2,0,B|280:248|280:248|288:184,1,140
336,160,40705,1,8,0:0:0:0:
320,48,41038,2,0,P|344:16|376:8,2,70,0|0|8,0:0|0:0|0:0,0:0:0:0:
208,72,41705,5,0,0:0:0:0:
96,96,42038,1,8,0:0:0:0:
120,208,42371,1,0,0:0:0:0:
232,192,42704,1,8,0:0:0:0:
232,192,42871,2,0,P|220:267|156:299,2,140,4|0|0,0:0|0:0|0:0,0:0:0:0:
264,144,43698,2,0,L|384:48,1,140,0|2,0:0|0:0,0:0:0:0:
456,136,44359,6,0,P|440:200|368:208,1,140,4|8,0:0|0:0,0:0:0:0:
336,312,45025,1,0,0:0:0:0:
224,280,45358,1,8,0:0:0:0:
224,280,45525,2,0,P|152:232|160:168,1,140
128,136,46025,1,8,0:0:0:0:
216,64,46358,2,0,L|304:16,2,70,0|0|8,0:0|0:0|0:0,0:0:0:0:
128,136,47025,5,0,0:0:0:0:
232,184,47358,1,8,0:0:0:0:
128,224,47691,1,0,0:0:0:0:
232,272,48025,1,8,0:0:0:0:
232,272,48191,2,0,P|296:248|368:280,2,140
208,320,49025,2,0,L|128:184,1,140,0|8,0:0|0:0,0:0:0:0:
80,96,49691,5,4,0:0:0:0:
432,192,51024,6,0,P|448:152|432:112,3,70
344,72,52358,2,0,L|288:24,3,70,8|0|8|0,0:0|0:0|0:0|0:0,0:0:0:0:
248,56,53024,2,0,L|175:42,3,70,8|0|8|0,0:0|0:0|0:0|0:0,0:0:0:0:
152,96,53691,2,0,L|82:120,7,70,2|0|2|0|2|0|2|0,0:0|0:0|0:0|0:0|0:0|0:0|0:0|0:0,0:0:0:0:
104,176,55024,6,0,P|152:240|208:240,1,140,4|8,0:0|0:0,0:0:0:0:
296,312,55691,2,0,L|328:400,2,70,0|0|8,0:0|0:0|0:0,0:0:0:0:
352,328,56191,2,0,P|384:263|324:188,1,140,4|0,0:0|0:0,0:0:0:0:
384,152,56690,1,8,0:0:0:0:
296,80,57024,2,0,P|272:48|280:-8,2,70,0|0|8,0:0|0:0|0:0,0:0:0:0:
184,88,57690,6,0,L|64:184,2,140,0|8|0,0:0|0:0|0:0,0:0:0:0:
144,192,58690,1,8,0:0:0:0:
144,192,58857,2,0,P|192:256|272:248,1,140,4|0,0:0|0:0,0:0:0:0:
256,312,59357,1,8,0:0:0:0:
360,280,59690,2,0,L|416:344,2,70,0|0|8,0:0|0:0|0:0,0:0:0:0:
328,168,60357,6,0,P|384:128|456:152,2,140,0|8|0,0:0|0:0|0:0,0:0:0:0:
256,88,61357,1,8,0:0:0:0:
256,88,61523,2,0,L|96:128,1,140,4|0,0:0|0:0,0:0:0:0:
120,121,62023,1,8,0:0:0:0:
96,216,62357,2,0,P|64:240|16:232,2,70,0|0|8,0:0|0:0|0:0,0:0:0:0:
160,312,63023,2,0,L|368:296,3,140,0|8|0|8,0:0|0:0|0:0|0:0,0:0:0:0:
384,224,64356,1,8,0:0:0:0:
384,224,64523,2,4,P|368:152|280:96,2,140
432,248,65356,1,8,0:0:0:0:
360,328,65689,6,0,P|280:360|208:320,1,140,4|8,0:0|0:0,0:0:0:0:
128,304,66356,1,0,0:0:0:0:
96,200,66689,1,8,0:0:0:0:
64,152,66856,2,0,L|240:112,1,140,4|0,0:0|0:0,0:0:0:0:
216,64,67356,1,8,0:0:0:0:
320,96,67689,2,0,P|328:56|312:16,2,70,0|0|8,0:0|0:0|0:0,0:0:0:0:
416,152,68356,5,0,0:0:0:0:
320,208,68689,1,8,0:0:0:0:
416,264,69022,1,0,0:0:0:0:
416,152,69356,1,8,0:0:0:0:
416,152,69522,2,0,P|351:127|315:68,1,140,4|0,0:0|0:0,0:0:0:0:
264,40,70022,1,8,0:0:0:0:
176,112,70356,2,0,P|136:96|112:48,2,70,0|0|8,0:0|0:0|0:0,0:0:0:0:
80,168,71022,5,0,0:0:0:0:
192,200,71356,1,8,0:0:0:0:
104,264,71689,1,0,0:0:0:0:
216,296,72022,1,8,0:0:0:0:
216,296,72189,2,0,L|392:328,1,140,4|0,0:0|0:0,0:0:0:0:
400,288,72689,1,8,0:0:0:0:
384,176,73022,6,0,L|480:200,2,70,0|0|8,0:0|0:0|0:0,0:0:0:0:
296,104,73689,2,0,P|224:120|152:64,2,140,4|8|0,0:0|0:0|0:0,0:0:0:0:
232,192,74688,1,8,0:0:0:0:
232,192,74855,2,0,L|184:352,2,140,2|2|2,0:0|0:0|0:0,0:0:0:0:
192,152,75688,2,0,P|240:88|328:104,1,140,0|8,0:0|0:0,0:0:0:0:
368,168,76355,6,0,L|440:32,2,140,4|8|0,0:0|0:0|0:0,0:0:0:0:
392,280,77355,1,8,0:0:0:0:
392,280,77521,2,0,P|312:304|240:256,2,140,2|2|2,0:0|0:0|0:0,0:0:0:0:
432,240,78355,2,0,L|368:88,1,140,0|8,0:0|0:0,0:0:0:0:
264,88,79021,6,0,L|232:16,3,70,8|0|8|0,0:0|0:0|0:0|0:0,0:0:0:0:
184,88,79688,2,0,L|152:16,3,70,8|0|8|8,0:0|0:0|0:0|0:0,0:0:0:0:
104,88,80355,2,0,P|64:144|80:240,1,140,12|8,0:0|0:0,0:0:0:0:
136,296,81021,1,0,0:0:0:0:
200,200,81354,1,8,0:0:0:0:
200,200,81521,2,0,L|248:56,1,140
296,40,82021,1,8,0:0:0:0:
384,104,82354,2,0,L|464:56,2,70,0|0|8,0:0|0:0|0:0,0:0:0:0:
416,208,83021,5,0,0:0:0:0:
336,136,83354,1,8,0:0:0:0:
448,144,83687,1,0,0:0:0:0:
352,200,84021,1,8,0:0:0:0:
352,200,84187,2,0,L|176:224,2,140
360,256,85021,2,0,P|400:184|368:112,1,140,0|8,0:0|0:0,0:0:0:0:
456,48,85687,6,0,L|296:64,1,140,2|8,0:0|0:0,0:0:0:0:
208,48,86354,1,0,0:0:0:0:
112,104,86687,1,8,0:0:0:0:
112,104,86854,2,0,P|80:160|104:256,1,140
128,272,87354,1,8,0:0:0:0:
184,176,87687,2,0,L|136:96,2,70,0|0|8,0:0|0:0|0:0,0:0:0:0:
240,272,88354,5,0,0:0:0:0:
344,304,88687,1,8,0:0:0:0:
232,280,89020,1,0,0:0:0:0:
336,312,89354,1,8,0:0:0:0:
336,312,89520,2,0,L|400:160,2,140
288,336,90353,2,0,P|206:343|155:297,1,140,0|8,0:0|0:0,0:0:0:0:
80,224,91020,5,4,0:0:0:0:
200,80,92353,6,0,L|280:72,3,70
408,72,93686,2,0,L|320:112,1,70,8|0,0:0|0:0,0:0:0:0:
360,152,94020,2,0,L|263:142,1,70,8|0,0:0|0:0,0:0:0:0:
280,200,94353,2,0,L|201:143,1,70,8|0,0:0|0:0,0:0:0:0:
184,200,94686,2,0,L|144:111,1,70,8|0,0:0|0:0,0:0:0:0:
96,144,95020,2,0,L|105:47,4,70,8|0|2|0|8,0:0|0:0|0:0|0:0|0:0,0:0:0:0:
304,272,96353,6,0,P|256:344|192:328,2,140,4|8|0,0:0|0:0|0:0,0:0:0:0:
416,272,97353,1,8,0:0:0:0:
416,272,97519,2,0,L|384:136,1,140,4|0,0:0|0:0,0:0:0:0:
368,80,98019,1,8,0:0:0:0:
288,152,98353,2,0,P|336:168|384:152,2,70,0|0|8,0:0|0:0|0:0,0:0:0:0:
176,176,99019,6,0,L|216:24,2,140,0|8|0,0:0|0:0|0:0,0:0:0:0:
75,233,100019,1,8,0:0:0:0:
75,233,100186,2,0,P|139:297|211:281,1,140,4|0,0:0|0:0,0:0:0:0:
208,248,100686,1,8,0:0:0:0:
296,320,101019,2,0,L|360:376,2,70,0|0|8,0:0|0:0|0:0,0:0:0:0:
256,216,101685,6,0,P|208:168|120:168,2,140,0|8|0,0:0|0:0|0:0,0:0:0:0:
328,128,102685,1,8,0:0:0:0:
328,128,102852,2,0,L|408:264,1,140,4|0,0:0|0:0,0:0:0:0:
432,296,103352,1,8,0:0:0:0:
328,344,103685,2,0,P|320:304|336:280,2,70,0|0|8,0:0|0:0|0:0,0:0:0:0:
224,304,104352,5,0,0:0:0:0:
120,256,104685,1,8,0:0:0:0:
216,192,105018,1,0,0:0:0:0:
224,304,105352,1,8,0:0:0:0:
120,256,105685,1,0,0:0:0:0:
120,256,105852,2,0,L|120:104,2,140,4|4|0,0:0|0:0|0:0,0:0:0:0:
120,256,106685,1,8,0:0:0:0:
192,168,107018,6,0,P|120:136|40:168,2,140,4|8|0,0:0|0:0|0:0,0:0:0:0:
272,88,108018,1,8,0:0:0:0:
272,88,108185,2,0,P|344:136|344:200,1,140,4|0,0:0|0:0,0:0:0:0:
296,192,108685,1,8,0:0:0:0:
184,176,109018,2,0,L|136:96,2,70,0|0|8,0:0|0:0|0:0,0:0:0:0:
224,280,109685,6,0,P|144:272|112:216,2,140,0|8|0,0:0|0:0|0:0,0:0:0:0:
320,336,110684,1,8,0:0:0:0:
320,336,110851,2,0,L|304:184,1,140,4|0,0:0|0:0,0:0:0:0:
256,176,111351,1,8,0:0:0:0:
192,88,111684,2,0,P|144:72|104:88,2,70,0|0|8,0:0|0:0|0:0,0:0:0:0:
136,184,112351,6,0,L|104:336,2,140,0|8|0,0:0|0:0|0:0,0:0:0:0:
176,80,113351,1,8,0:0:0:0:
176,80,113517,2,0,P|232:144|296:136,1,140,4|0,0:0|0:0,0:0:0:0:
304,96,114017,1,8,0:0:0:0:
400,160,114351,2,0,L|376:72,2,70,0|0|8,0:0|0:0|0:0,0:0:0:0:
360,264,115017,5,4,0:0:0:0:
472,240,115355,1,8,0:0:0:0:
400,160,115690,1,0,0:0:0:0:
360,264,116025,1,8,0:0:0:0:
360,264,116193,2,0,P|264:296|216:272,2,140
416,280,117031,2,0,L|368:136,1,140,0|8,0:0|0:0,0:0:0:0:
280,88,117701,6,0,P|360:72|392:8,2,140,4|8|0,0:0|0:0|0:0,0:0:0:0:
176,64,118675,1,8,0:0:0:0:
176,64,118838,2,0,B|112:88|112:88|40:48,2,140
192,120,119648,2,0,P|232:96|240:56,2,70,0|8|8,0:0|0:0|0:0,0:0:0:0:
144,240,120349,6,0,P|72:184|-8:208,2,140,4|8|0,0:0|0:0|0:0,0:0:0:0:
256,264,121348,1,8,0:0:0:0:
256,264,121515,2,0,L|336:384,2,140,4|4|0,0:0|0:0|0:0,0:0:0:0:
312,248,122348,2,0,B|288:200|288:200|224:200|232:120,1,140,0|8,0:0|0:0,0:0:0:0:
128,104,123015,6,0,P|184:24|256:40,2,140,4|8|0,0:0|0:0|0:0,0:0:0:0:
120,216,124015,1,8,0:0:0:0:
120,216,124181,2,0,P|22:207|0:137,2,140,4|4|0,0:0|0:0|0:0,0:0:0:0:
160,176,125015,2,0,P|201:264|151:318,1,140,0|8,0:0|0:0,0:0:0:0:
288,248,125681,6,0,L|360:96,2,140,8|8|8,0:0|0:0|0:0,0:0:0:0:
376,312,126697,1,8,0:0:0:0:
376,312,126870,2,0,P|256:360|192:312,1,210,8|8,0:0|0:0,0:0:0:0:
88,304,127703,1,0,0:0:0:0:
48,200,128036,1,8,0:0:0:0:
48,200,128203,2,0,B|168:216|168:104|168:104|216:56,1,210,4|8,0:0|0:0,0:0:0:0:
296,72,129036,2,0,L|248:0,2,70,0|0|8,0:0|0:0|0:0,0:0:0:0:
392,128,129703,5,0,0:0:0:0:
296,192,130036,1,8,0:0:0:0:
392,256,130369,1,0,0:0:0:0:
296,320,130702,1,8,0:0:0:0:
296,320,130869,2,0,L|80:280,1,210,4|8,0:0|0:0,0:0:0:0:
32,184,131702,1,0,0:0:0:0:
32,184,131869,2,0,P|152:224|200:176,1,140
176,168,132369,6,0,L|144:80,3,70,4|0|8|4,0:0|0:0|0:0|0:0,0:0:0:0:
264,240,133197,6,0,L|288:312,2,70,0|8|4,0:0|0:0|0:0,0:0:0:0:
288,128,133860,6,0,L|265:61,2,70,0|8|4,0:0|0:0|0:0,0:0:0:0:
376,200,134523,6,0,L|398:266,2,70,0|8|0,0:0|0:0|0:0,0:0:0:0:
408,152,135020,2,0,P|336:88|256:96,2,140,4|8|0,0:0|0:0|0:0,0:0:0:0:
352,248,136015,1,8,0:0:0:0:
352,248,136181,2,0,L|408:424,2,140,4|4|4,0:0|0:0|0:0,0:0:0:0:
320,200,137009,2,0,P|320:160|360:128,2,70,0|0|8,0:0|0:0|0:0,0:0:0:0:
252,288,137672,6,0,P|252:172|260:288,1,350
72,128,141679,6,0,L|96:56,3,70,8|0|8|0,0:0|0:0|0:0|0:0,0:0:0:0:
136,104,142345,2,0,L|160:32,3,70,8|0|8|0,0:0|0:0|0:0|0:0,0:0:0:0:
184,144,143012,6,0,P|136:216|72:216,2,140,4|8|0,0:0|0:0|0:0,0:0:0:0:
256,56,144012,1,8,0:0:0:0:
256,56,144178,2,0,L|432:104,1,140,4|0,0:0|0:0,0:0:0:0:
416,144,144678,1,8,0:0:0:0:
440,256,145011,2,0,L|512:304,2,70,0|0|8,0:0|0:0|0:0,0:0:0:0:
328,280,145678,5,0,0:0:0:0:
248,352,146011,1,8,0:0:0:0:
272,240,146345,1,0,0:0:0:0:
192,320,146678,1,8,0:0:0:0:
216,208,147011,1,8,0:0:0:0:
216,208,147178,2,0,P|144:176|144:96,2,140,4|4|0,0:0|0:0|0:0,0:0:0:0:
256,168,148011,1,8,0:0:0:0:
312,72,148344,6,0,L|480:136,2,140,4|8|0,0:0|0:0|0:0,0:0:0:0:
184,88,149344,1,8,0:0:0:0:
184,88,149511,2,0,P|128:128|112:200,1,140,4|0,0:0|0:0,0:0:0:0:
160,216,150011,1,8,0:0:0:0:
216,312,150344,2,0,B|184:336|184:336|120:328,2,70,0|0|8,0:0|0:0|0:0,0:0:0:0:
320,264,151011,6,0,P|368:328|424:328,2,140,0|8|0,0:0|0:0|0:0,0:0:0:0:
400,184,152011,1,8,0:0:0:0:
400,184,152177,2,0,L|248:120,1,140,4|0,0:0|0:0,0:0:0:0:
216,112,152677,1,8,0:0:0:0:
112,152,153011,2,0,P|72:128|64:80,2,70,0|0|8,0:0|0:0|0:0,0:0:0:0:
160,248,153677,6,0,B|56:376,2,140,0|8|0,0:0|0:0|0:0,0:0:0:0:
216,152,154677,1,8,0:0:0:0:
216,152,154844,2,0,P|288:88|360:104,1,140,4|0,0:0|0:0,0:0:0:0:
376,120,155344,1,8,0:0:0:0:
368,232,155677,2,0,L|464:224,2,70,0|0|8,0:0|0:0|0:0,0:0:0:0:
296,320,156344,6,0,P|192:296|168:240,1,140,4|8,0:0|0:0,0:0:0:0:
128,304,156849,6,0,L|192:72,1,210,4|8,0:0|0:0,0:0:0:0:
144,64,157523,6,0,B|248:104|248:104|376:64,1,210,4|8,0:0|0:0,0:0:0:0:
392,48,158197,6,0,P|440:152|384:232,1,210,4|8,0:0|0:0,0:0:0:0:
408,280,158872,5,0,0:0:0:0:
408,280,159022,2,0,L|248:328,2,140,4|8|0,0:0|0:0|0:0,0:0:0:0:
360,176,160021,1,8,0:0:0:0:
360,176,160188,2,0,P|392:104|464:88,2,140,4|4|0,0:0|0:0|0:0,0:0:0:0:
320,136,161021,2,0,L|128:80,1,140,0|8,0:0|0:0,0:0:0:0:
120,184,161688,6,0,B|48:176|48:176|8:120,2,140,4|8|0,0:0|0:0|0:0,0:0:0:0:
216,240,162688,1,8,0:0:0:0:
216,240,162854,2,0,P|258:293|237:384,2,140,4|4|0,0:0|0:0|0:0,0:0:0:0:
200,184,163688,2,0,L|264:40,1,140,0|8,0:0|0:0,0:0:0:0:
368,64,164354,6,0,L|432:160,1,70,8|0,0:0|0:0,0:0:0:0:
352,144,164685,2,0,L|369:258,1,70,8|0,0:0|0:0,0:0:0:0:
304,224,165016,6,0,L|271:334,1,70,8|0,0:0|0:0,0:0:0:0:
232,280,165348,2,8,L|155:366,1,70,8|0,0:0|0:0,0:0:0:0:
136,304,165679,5,8,0:0:0:0:
