osu file format v14

[General]
AudioFilename: audio.mp3
AudioLeadIn: 0
PreviewTime: 54191
Countdown: 1
SampleSet: Soft
StackLeniency: 0.7
Mode: 0
LetterboxInBreaks: 0
WidescreenStoryboard: 1

[Editor]
Bookmarks: 115679
DistanceSpacing: 0.7
BeatDivisor: 4
GridSize: 8
TimelineZoom: 2.1

[Metadata]
Title:Flower
TitleUnicode:花
Artist:Mayday
ArtistUnicode:五月天
Creator:Rucker
Version:Insane
Source:
Tags:五月天 MAYDAY 花 音樂來自四方
BeatmapID:1066138
BeatmapSetID:500464

[Difficulty]
HPDrainRate:6
CircleSize:4
OverallDifficulty:7.5
ApproachRate:9
SliderMultiplier:2
SliderTickRate:1

[Events]
//Background and Video events
0,0,"bg4.jpg",0,0
//Break Periods
//Storyboard Layer 0 (Background)
//Storyboard Layer 1 (Fail)
//Storyboard Layer 2 (Pass)
//Storyboard Layer 3 (Foreground)
//Storyboard Sound Samples

[TimingPoints]
39,333.296300411065,4,2,0,100,1,0
29702,337.076300411066,4,2,0,100,1,0
32398,333.296300411065,4,2,0,100,1,0
33544,326.086956521739,4,2,0,100,1,0
34196,333.296300411065,4,2,0,100,1,0
36195,326.086956521739,4,2,0,100,1,0
36847,333.296300411065,4,2,0,100,1,0
39372,333.296300411065,4,2,0,100,1,0
43371,327.868852459016,4,2,0,100,1,0
44359,333.296300411065,4,2,0,100,1,0
49691,-200,4,2,0,40,0,0
51024,-200,4,2,0,50,0,0
51358,-200,4,2,0,60,0,0
51691,-200,4,2,0,70,0,0
52024,-200,4,2,0,80,0,0
52358,-100,4,2,0,90,0,0
90353,-200,4,2,0,90,0,0
91020,-200,4,2,0,5,0,0
92353,-200,4,2,0,50,0,0
92686,-200,4,2,0,60,0,0
93020,-200,4,2,0,70,0,0
93353,-200,4,2,0,80,0,0
93686,-100,4,2,0,90,0,0
95020,-200,4,2,0,90,0,0
95686,-200,4,2,0,10,0,0
96353,-100,4,2,0,90,0,0
115020,335.195530726257,4,2,0,100,1,0
117703,324.324324324324,4,2,0,100,1,0
120349,333.296300411065,4,2,0,100,1,0
125681,338.983050847458,4,2,0,100,1,0
126870,333.296300411065,4,2,0,100,1,0
132369,331.491712707182,4,2,0,100,1,0
137672,666.666666666667,4,2,0,5,1,0
137672,-200,4,2,0,5,0,0
141679,333.296300411065,4,2,0,10,1,0
141845,-100,4,2,0,20,0,0
142012,-100,4,2,0,30,0,0
142178,-100,4,2,0,40,0,0
142345,-100,4,2,0,50,0,0
142512,-100,4,2,0,60,0,0
142678,-100,4,2,0,70,0,0
142845,-100,4,2,0,80,0,0
143012,-100,4,2,0,100,0,0
156344,337.078651685393,4,2,0,100,1,0
159022,333.296300411065,4,2,0,100,1,0
159022,-100,4,2,0,90,0,0
164354,331.491712707182,4,2,0,100,1,0

[HitObjects]
424,112,23036,6,0,L|448:160,3,50,8|0|0|0,0:0|0:0|0:0|0:0,0:0:0:0:
344,80,23369,2,0,L|320:32,3,50,8|0|0|0,0:0|0:0|0:0|0:0,0:0:0:0:
272,128,23703,1,8,0:0:0:0:
280,160,23786,1,0,0:0:0:0:
288,192,23869,1,8,0:0:0:0:
296,224,23953,1,0,0:0:0:0:
304,256,24036,1,8,0:0:0:0:
312,288,24119,1,0,0:0:0:0:
320,320,24202,6,0,P|224:352|144:296,1,200,12|0,0:0|0:0,0:0:0:0:
88,112,24702,1,8,0:0:0:0:
56,248,24869,1,0,0:0:0:0:
16,112,25036,1,0,0:0:0:0:
120,208,25202,1,0,0:0:0:0:
168,80,25369,1,8,0:0:0:0:
56,168,25536,6,0,P|136:184|184:152,1,100,4|0,0:0|0:0,0:0:0:0:
224,56,25869,1,0,0:0:0:0:
368,48,26036,2,0,P|408:96|408:160,1,100,8|0,0:0|0:0,0:0:0:0:
368,312,26369,1,0,0:0:0:0:
328,176,26536,1,0,0:0:0:0:
448,248,26702,1,8,0:0:0:0:
304,256,26869,1,0,0:0:0:0:
416,168,27036,6,0,L|440:280,1,100
324,353,27369,2,0,L|300:241,1,100,8|0,0:0|0:0,0:0:0:0:
184,328,27702,1,0,0:0:0:0:
56,272,27869,1,0,0:0:0:0:
184,216,28035,1,8,0:0:0:0:
56,152,28202,2,0,P|96:104|152:96,1,100,4|0,0:0|0:0,0:0:0:0:
272,104,28535,1,0,0:0:0:0:
392,32,28702,2,0,L|376:152,1,100,8|0,0:0|0:0,0:0:0:0:
424,264,29035,1,0,0:0:0:0:
424,264,29202,2,0,P|384:304|304:296,1,100,0|8,0:0|0:0,0:0:0:0:
256,192,29535,1,0,0:0:0:0:
88,336,29702,6,0,L|40:216,1,100,4|0,0:0|0:0,0:0:0:0:
50,243,30039,1,8,0:0:0:0:
208,336,30207,2,0,L|160:216,1,100,4|0,0:0|0:0,0:0:0:0:
170,243,30544,1,0,0:0:0:0:
170,243,30713,1,8,0:0:0:0:
320,336,30881,2,0,L|272:216,1,100,4|0,0:0|0:0,0:0:0:0:
282,243,31218,1,0,0:0:0:0:
282,243,31387,1,8,0:0:0:0:
440,336,31555,2,0,L|392:216,1,100,4|0,0:0|0:0,0:0:0:0:
456,112,31892,5,0,0:0:0:0:
312,48,32061,1,8,0:0:0:0:
456,48,32230,1,0,0:0:0:0:
312,112,32398,2,0,L|176:64,1,100,6|0,0:0|0:0,0:0:0:0:
88,128,32731,1,8,0:0:0:0:
184,232,32897,1,0,0:0:0:0:
48,264,33064,2,0,P|96:320|152:320,1,100
256,280,33397,1,8,0:0:0:0:
376,208,33564,6,0,L|328:328,1,100
488,152,33870,2,0,L|440:272,1,100
352,64,34196,1,0,0:0:0:0:
352,64,34362,2,0,P|288:88|232:72,1,100
136,48,34695,1,8,0:0:0:0:
88,312,35029,6,0,P|104:256|168:216,1,100,4|0,0:0|0:0,0:0:0:0:
272,200,35362,1,8,0:0:0:0:
184,88,35529,1,0,0:0:0:0:
320,72,35695,2,0,L|464:96,1,100
464,224,36029,1,8,0:0:0:0:
328,256,36195,6,0,L|368:368,1,100
232,232,36521,2,0,L|272:344,1,100
96,136,36847,1,0,0:0:0:0:
96,136,37013,2,0,P|48:176|32:224,1,100
72,344,37346,1,8,0:0:0:0:
328,320,37680,6,0,L|384:336,3,50,8|0|0|0,0:0|0:0|0:0|0:0,0:0:0:0:
304,240,38013,2,0,L|255:226,3,50,8|0|0|0,0:0|0:0|0:0|0:0,0:0:0:0:
376,192,38346,1,8,0:0:0:0:
392,168,38430,1,0,0:0:0:0:
408,144,38513,1,0,0:0:0:0:
424,120,38596,1,0,0:0:0:0:
440,96,38680,5,8,0:0:0:0:
400,104,38763,1,0,0:0:0:0:
360,96,38846,1,8,0:0:0:0:
328,72,38930,1,0,0:0:0:0:
312,32,39013,1,12,0:0:0:0:
40,136,39372,6,0,L|80:264,1,100,8|0,0:0|0:0,0:0:0:0:
232,320,39705,2,0,L|192:192,1,100
184,120,40038,1,8,0:0:0:0:
184,120,40205,2,0,P|248:48|352:96,1,200
448,248,40705,2,0,L|480:120,1,100,8|0,0:0|0:0,0:0:0:0:
344,336,41038,1,0,0:0:0:0:
304,192,41205,1,0,0:0:0:0:
272,336,41371,2,0,P|264:272|224:216,1,100,8|0,0:0|0:0,0:0:0:0:
120,208,41705,5,0,0:0:0:0:
200,136,41871,1,0,0:0:0:0:
208,232,42038,1,8,0:0:0:0:
120,128,42205,1,0,0:0:0:0:
240,136,42371,1,0,0:0:0:0:
120,224,42538,1,0,0:0:0:0:
152,80,42704,5,8,0:0:0:0:
232,248,42871,1,12,0:0:0:0:
232,248,43204,1,12,0:0:0:0:
232,248,43534,1,12,0:0:0:0:
312,344,43698,2,0,P|352:304|352:240,1,100
472,232,44026,2,0,P|464:175|413:137,1,100,10|0,0:0|0:0,0:0:0:0:
400,40,44359,6,0,L|296:56,1,100,4|0,0:0|0:0,0:0:0:0:
152,152,44692,1,8,0:0:0:0:
32,48,44858,1,0,0:0:0:0:
56,208,45025,1,0,0:0:0:0:
144,72,45192,2,0,L|232:144,1,100,0|8,0:0|0:0,0:0:0:0:
144,320,45525,2,0,P|64:256|64:160,1,200
208,40,46025,2,0,L|88:64,1,100,8|0,0:0|0:0,0:0:0:0:
192,184,46358,1,0,0:0:0:0:
296,304,46525,1,0,0:0:0:0:
352,152,46692,2,0,L|464:240,1,100,8|0,0:0|0:0,0:0:0:0:
344,336,47025,5,0,0:0:0:0:
288,224,47192,1,0,0:0:0:0:
240,320,47358,1,8,0:0:0:0:
256,184,47525,1,0,0:0:0:0:
128,256,47691,1,0,0:0:0:0:
208,128,47858,1,0,0:0:0:0:
40,144,48025,5,8,0:0:0:0:
240,80,48191,1,12,0:0:0:0:
240,80,48525,1,12,0:0:0:0:
240,80,48858,1,12,0:0:0:0:
352,32,49025,1,0,0:0:0:0:
356,44,49108,1,0,0:0:0:0:
360,56,49191,1,0,0:0:0:0:
364,68,49275,1,0,0:0:0:0:
368,80,49358,2,0,L|412:200,1,100,8|0,0:0|0:0,0:0:0:0:
456,312,49691,5,14,0:0:0:0:
256,344,51024,6,0,L|256:272,1,50,2|0,0:0|0:0,0:0:0:0:
152,288,51358,2,0,L|188:225,1,50,2|0,0:0|0:0,0:0:0:0:
88,192,51691,2,0,L|150:156,1,50,2|0,0:0|0:0,0:0:0:0:
72,72,52024,2,0,L|136:72,1,50,2|0,0:0|0:0,0:0:0:0:
256,88,52358,5,10,0:0:0:0:
288,96,52441,1,0,0:0:0:0:
320,104,52524,1,0,0:0:0:0:
352,112,52608,1,0,0:0:0:0:
384,120,52691,2,0,L|448:96,3,50,10|0|0|0,0:0|0:0|0:0|0:0,0:0:0:0:
440,184,53024,5,8,0:0:0:0:
424,200,53108,1,0,0:0:0:0:
408,216,53191,1,0,0:0:0:0:
392,232,53274,1,0,0:0:0:0:
376,248,53358,1,10,0:0:0:0:
360,264,53441,1,8,0:0:0:0:
344,280,53524,1,8,0:0:0:0:
328,296,53607,1,8,0:0:0:0:
312,312,53691,5,8,0:0:0:0:
192,272,53857,1,0,0:0:0:0:
272,336,54024,1,8,0:0:0:0:
152,296,54191,1,0,0:0:0:0:
232,360,54357,1,8,0:0:0:0:
112,320,54524,1,0,0:0:0:0:
192,384,54691,1,8,0:0:0:0:
72,344,54857,1,0,0:0:0:0:
192,384,55024,6,0,L|152:248,1,100,4|0,0:0|0:0,0:0:0:0:
176,80,55357,1,8,0:0:0:0:
48,160,55524,1,0,0:0:0:0:
176,240,55691,2,0,P|240:224|272:184,1,100
400,184,56024,1,8,0:0:0:0:
296,48,56191,6,0,L|392:96,1,100,4|0,0:0|0:0,0:0:0:0:
352,200,56524,1,0,0:0:0:0:
480,304,56690,2,0,P|424:344|376:344,1,100,8|0,0:0|0:0,0:0:0:0:
272,248,57024,1,0,0:0:0:0:
144,320,57190,1,0,0:0:0:0:
224,216,57357,1,8,0:0:0:0:
80,216,57524,1,0,0:0:0:0:
224,168,57690,6,0,P|176:112|128:96,1,100
384,104,58024,1,8,0:0:0:0:
256,16,58190,1,0,0:0:0:0:
224,168,58357,2,0,P|272:208|344:208,1,100
456,280,58690,1,8,0:0:0:0:
456,280,58857,6,0,P|408:320|336:320,1,100,4|0,0:0|0:0,0:0:0:0:
280,208,59190,1,0,0:0:0:0:
152,336,59357,2,0,L|176:224,1,100,8|0,0:0|0:0,0:0:0:0:
48,120,59690,1,0,0:0:0:0:
200,48,59857,1,0,0:0:0:0:
48,120,60023,1,8,0:0:0:0:
200,48,60190,1,0,0:0:0:0:
192,208,60357,6,0,P|168:280|192:320,1,100
312,320,60690,1,8,0:0:0:0:
424,184,60857,1,0,0:0:0:0:
496,352,61023,2,0,L|384:288,1,100
368,128,61357,1,8,0:0:0:0:
368,128,61523,6,0,P|384:176|360:248,1,100,4|0,0:0|0:0,0:0:0:0:
208,32,61857,1,0,0:0:0:0:
208,32,62023,2,0,P|256:46|301:107,1,100,8|0,0:0|0:0,0:0:0:0:
104,96,62357,1,0,0:0:0:0:
160,240,62523,1,0,0:0:0:0:
72,96,62690,2,0,P|48:152|48:224,1,100,8|0,0:0|0:0,0:0:0:0:
88,336,63023,5,0,0:0:0:0:
128,216,63190,1,0,0:0:0:0:
168,336,63356,1,8,0:0:0:0:
208,192,63523,1,0,0:0:0:0:
248,336,63690,1,0,0:0:0:0:
288,168,63856,1,0,0:0:0:0:
328,336,64023,1,8,0:0:0:0:
368,144,64190,1,0,0:0:0:0:
408,336,64356,5,0,0:0:0:0:
448,120,64523,1,4,0:0:0:0:
448,120,64856,1,4,0:0:0:0:
448,120,65190,2,0,L|448:16,2,100,4|8|0,0:0|0:0|0:0,0:0:0:0:
304,160,65689,6,0,P|264:120|248:56,1,100,4|0,0:0|0:0,0:0:0:0:
80,24,66023,2,0,P|120:64|136:128,1,100,8|0,0:0|0:0,0:0:0:0:
224,192,66356,1,0,0:0:0:0:
88,288,66523,1,0,0:0:0:0:
144,152,66689,1,8,0:0:0:0:
184,312,66856,6,0,P|240:336|312:312,1,100,4|0,0:0|0:0,0:0:0:0:
328,208,67189,1,0,0:0:0:0:
488,256,67356,2,0,L|424:144,1,100,8|0,0:0|0:0,0:0:0:0:
352,32,67689,1,0,0:0:0:0:
200,96,67856,1,0,0:0:0:0:
344,32,68023,1,8,0:0:0:0:
192,96,68189,1,0,0:0:0:0:
344,88,68356,6,0,P|376:144|376:208,1,100
296,328,68689,2,0,P|264:272|264:208,1,100,8|0,0:0|0:0,0:0:0:0:
120,192,69022,1,0,0:0:0:0:
96,32,69189,1,0,0:0:0:0:
208,144,69356,1,8,0:0:0:0:
48,120,69522,6,0,P|112:112|160:72,1,100,4|0,0:0|0:0,0:0:0:0:
288,120,69856,1,0,0:0:0:0:
416,48,70022,2,0,L|400:168,1,100,8|0,0:0|0:0,0:0:0:0:
448,280,70356,1,0,0:0:0:0:
304,336,70522,2,0,P|264:280|272:224,1,100,0|8,0:0|0:0,0:0:0:0:
232,56,70856,1,0,0:0:0:0:
232,56,71022,6,0,L|120:96,1,100
40,224,71356,2,0,L|152:184,1,100,8|0,0:0|0:0,0:0:0:0:
184,328,71689,1,0,0:0:0:0:
272,192,71855,1,0,0:0:0:0:
384,312,72022,1,8,0:0:0:0:
224,264,72189,6,0,P|192:216|200:144,1,100,4|0,0:0|0:0,0:0:0:0:
72,144,72522,1,0,0:0:0:0:
72,144,72689,2,0,P|97:92|163:63,1,100,8|0,0:0|0:0,0:0:0:0:
294,140,73022,5,0,0:0:0:0:
432,208,73189,1,0,0:0:0:0:
288,168,73355,1,8,0:0:0:0:
424,232,73522,1,0,0:0:0:0:
144,152,73689,6,0,P|192:216|192:272,1,100,4|0,0:0|0:0,0:0:0:0:
256,336,74022,1,8,0:0:0:0:
256,336,74189,1,0,0:0:0:0:
368,152,74355,2,0,P|320:216|320:272,1,100
256,336,74688,1,8,0:0:0:0:
56,248,74855,2,0,P|120:264|152:304,1,100
456,248,75188,2,0,P|392:264|360:304,1,100
256,192,75522,1,0,0:0:0:0:
256,344,75688,2,0,L|256:244,2,100,0|0|8,0:0|0:0|0:0,0:0:0:0:
408,192,76355,6,0,L|312:224,1,100,4|0,0:0|0:0,0:0:0:0:
256,64,76688,1,8,0:0:0:0:
256,64,76855,1,0,0:0:0:0:
104,192,77022,2,0,L|200:224,1,100
256,64,77355,1,8,0:0:0:0:
431,223,77521,2,0,P|385:208|354:169,1,100
80,224,77855,2,0,P|128:208|160:160,1,100,0|0,0:0|0:0,0:0:0:0:
256,64,78188,1,0,0:0:0:0:
256,264,78355,2,0,L|256:64,1,200,0|8,0:0|0:0,0:0:0:0:
328,232,79021,5,8,0:0:0:0:
304,272,79105,1,0,0:0:0:0:
256,288,79188,1,0,0:0:0:0:
208,272,79271,1,0,0:0:0:0:
176,232,79355,2,0,L|104:192,3,50,8|0|0|0,0:0|0:0|0:0|0:0,0:0:0:0:
160,128,79688,5,8,0:0:0:0:
168,96,79771,1,0,0:0:0:0:
192,64,79855,1,8,0:0:0:0:
224,48,79938,1,0,0:0:0:0:
256,40,80021,1,8,0:0:0:0:
288,48,80105,1,8,0:0:0:0:
320,64,80188,1,0,0:0:0:0:
344,96,80271,1,8,0:0:0:0:
352,128,80355,1,12,0:0:0:0:
360,128,80688,6,0,L|472:176,1,100,8|0,0:0|0:0,0:0:0:0:
408,304,81021,1,0,0:0:0:0:
408,304,81188,2,0,P|360:256|304:264,1,100,0|8,0:0|0:0,0:0:0:0:
224,96,81521,2,0,P|292:170|270:259,1,200
120,344,82021,2,0,L|64:224,1,100,8|0,0:0|0:0,0:0:0:0:
24,120,82354,1,0,0:0:0:0:
144,224,82521,1,0,0:0:0:0:
176,64,82688,2,0,L|288:24,1,100,8|0,0:0|0:0,0:0:0:0:
416,64,83021,5,0,0:0:0:0:
352,88,83188,1,0,0:0:0:0:
440,144,83354,1,8,0:0:0:0:
336,176,83521,1,0,0:0:0:0:
464,224,83687,1,0,0:0:0:0:
320,264,83854,1,0,0:0:0:0:
496,304,84021,5,8,0:0:0:0:
296,344,84187,1,12,0:0:0:0:
296,344,84521,1,12,0:0:0:0:
296,344,84854,1,12,0:0:0:0:
296,344,85021,2,0,L|184:328,1,100
56,208,85354,1,10,0:0:0:0:
168,112,85521,1,0,0:0:0:0:
48,232,85687,6,0,P|32:176|48:104,1,100,4|0,0:0|0:0,0:0:0:0:
208,32,86021,2,0,P|224:88|208:160,1,100,8|0,0:0|0:0,0:0:0:0:
216,312,86354,1,0,0:0:0:0:
128,184,86520,1,0,0:0:0:0:
272,208,86687,1,8,0:0:0:0:
176,328,86854,6,0,P|272:317|353:402,1,200
448,240,87354,2,0,L|336:272,1,100,8|0,0:0|0:0,0:0:0:0:
336,64,87687,1,0,0:0:0:0:
248,200,87854,1,0,0:0:0:0:
392,136,88020,2,0,P|320:144|264:112,1,100,8|0,0:0|0:0,0:0:0:0:
152,72,88354,5,0,0:0:0:0:
184,176,88520,1,0,0:0:0:0:
72,136,88687,1,8,0:0:0:0:
208,176,88854,1,0,0:0:0:0:
32,248,89020,1,0,0:0:0:0:
232,176,89187,1,0,0:0:0:0:
88,352,89354,5,8,0:0:0:0:
256,176,89520,1,4,0:0:0:0:
256,176,89853,1,4,0:0:0:0:
256,176,90187,1,4,0:0:0:0:
256,176,90353,2,0,L|256:296,1,100,0|8,0:0|0:0,0:0:0:0:
256,344,91020,5,0,0:0:0:0:
408,304,92353,2,0,L|472:336,1,50,2|0,0:0|0:0,0:0:0:0:
408,232,92686,2,0,L|472:264,1,50,2|0,0:0|0:0,0:0:0:0:
408,160,93020,2,0,L|472:192,1,50,2|0,0:0|0:0,0:0:0:0:
408,88,93353,2,0,L|472:120,1,50,2|0,0:0|0:0,0:0:0:0:
296,40,93686,5,8,0:0:0:0:
280,48,93770,1,0,0:0:0:0:
264,56,93853,1,0,0:0:0:0:
248,64,93936,1,0,0:0:0:0:
232,72,94020,2,0,L|160:64,1,50,2|0,0:0|0:0,0:0:0:0:
120,112,94186,2,0,L|48:104,1,50,10|0,0:0|0:0,0:0:0:0:
72,184,94353,1,8,0:0:0:0:
80,200,94436,1,8,0:0:0:0:
88,216,94520,1,8,0:0:0:0:
96,232,94603,1,8,0:0:0:0:
64,256,94686,5,10,0:0:0:0:
80,296,94770,1,0,0:0:0:0:
112,320,94853,1,10,0:0:0:0:
152,328,94936,1,8,0:0:0:0:
192,312,95020,2,0,L|232:256,3,50,8|0|0|0,0:0|0:0|0:0|0:0,0:0:0:0:
221,271,95686,1,0,0:0:0:0:
408,64,96353,6,0,L|296:88,1,100,4|0,0:0|0:0,0:0:0:0:
216,64,96686,1,8,0:0:0:0:
328,208,96853,1,0,0:0:0:0:
416,40,97019,2,0,L|368:136,1,100
296,256,97353,1,8,0:0:0:0:
112,336,97519,6,0,P|136:272|184:232,1,100,4|0,0:0|0:0,0:0:0:0:
256,160,97853,1,0,0:0:0:0:
40,160,98019,2,0,P|88:128|144:128,1,100,8|0,0:0|0:0,0:0:0:0:
296,40,98353,1,0,0:0:0:0:
208,176,98519,1,0,0:0:0:0:
304,48,98686,1,8,0:0:0:0:
216,184,98852,1,0,0:0:0:0:
344,112,99019,6,0,P|328:176|296:216,1,100
96,256,99352,2,0,P|112:192|144:152,1,100,8|0,0:0|0:0,0:0:0:0:
232,40,99686,1,0,0:0:0:0:
232,192,99852,1,0,0:0:0:0:
160,40,100019,1,8,0:0:0:0:
304,192,100186,6,0,P|336:152|408:144,1,100,4|0,0:0|0:0,0:0:0:0:
320,304,100519,1,0,0:0:0:0:
488,272,100686,2,0,P|456:312|384:320,1,100,8|0,0:0|0:0,0:0:0:0:
264,216,101019,1,0,0:0:0:0:
253,378,101186,2,0,L|325:298,1,100,0|8,0:0|0:0,0:0:0:0:
488,192,101519,1,0,0:0:0:0:
488,192,101685,6,0,P|456:136|400:120,1,100
288,32,102019,2,0,L|320:144,1,100,8|0,0:0|0:0,0:0:0:0:
136,88,102352,1,0,0:0:0:0:
224,232,102519,1,0,0:0:0:0:
64,152,102685,1,8,0:0:0:0:
232,120,102852,6,0,L|144:184,1,100,4|0,0:0|0:0,0:0:0:0:
48,248,103185,1,0,0:0:0:0:
232,216,103352,2,0,L|144:280,1,100,8|0,0:0|0:0,0:0:0:0:
320,216,103685,1,0,0:0:0:0:
256,376,103852,1,0,0:0:0:0:
432,328,104019,2,0,P|464:280|456:216,1,100,8|0,0:0|0:0,0:0:0:0:
328,112,104352,5,0,0:0:0:0:
408,144,104518,1,0,0:0:0:0:
296,176,104685,1,8,0:0:0:0:
400,80,104852,1,0,0:0:0:0:
336,216,105018,1,0,0:0:0:0:
352,56,105185,1,0,0:0:0:0:
408,240,105352,1,8,0:0:0:0:
280,64,105518,1,0,0:0:0:0:
472,192,105685,5,0,0:0:0:0:
232,112,105852,1,12,0:0:0:0:
232,112,106185,1,12,0:0:0:0:
232,112,106518,1,12,0:0:0:0:
232,112,106685,2,0,P|184:88|168:32,1,100
40,152,107018,6,0,L|136:192,1,100,4|0,0:0|0:0,0:0:0:0:
192,328,107352,2,0,L|95:288,1,100,8|0,0:0|0:0,0:0:0:0:
136,112,107685,1,0,0:0:0:0:
56,248,107851,1,0,0:0:0:0:
72,88,108018,1,8,0:0:0:0:
120,280,108185,6,0,L|152:184,1,100,4|0,0:0|0:0,0:0:0:0:
200,48,108518,1,0,0:0:0:0:
248,192,108685,2,0,L|280:96,1,100,8|0,0:0|0:0,0:0:0:0:
352,232,109018,1,0,0:0:0:0:
480,88,109185,2,0,P|424:104|384:168,1,100,0|8,0:0|0:0,0:0:0:0:
456,280,109518,1,0,0:0:0:0:
456,280,109685,6,0,L|336:320,1,100
248,224,110018,2,0,L|208:336,1,100,8|0,0:0|0:0,0:0:0:0:
88,312,110351,1,0,0:0:0:0:
24,152,110518,1,0,0:0:0:0:
128,288,110684,1,8,0:0:0:0:
104,120,110851,6,0,P|160:64|208:56,1,100,4|0,0:0|0:0,0:0:0:0:
80,216,111184,1,0,0:0:0:0:
240,128,111351,2,0,L|224:240,1,100,8|0,0:0|0:0,0:0:0:0:
368,192,111684,1,0,0:0:0:0:
344,368,111851,2,0,L|360:248,1,100,0|8,0:0|0:0,0:0:0:0:
448,64,112184,1,0,0:0:0:0:
448,64,112351,6,0,P|384:104|320:96,1,100
200,160,112684,2,0,L|240:48,1,100,8|0,0:0|0:0,0:0:0:0:
152,320,113018,1,0,0:0:0:0:
128,152,113184,1,0,0:0:0:0:
288,208,113351,1,8,0:0:0:0:
152,320,113517,6,0,P|112:256|112:208,1,100,4|0,0:0|0:0,0:0:0:0:
120,104,113851,1,0,0:0:0:0:
320,184,114017,2,0,P|245:169|210:136,1,100,8|0,0:0|0:0,0:0:0:0:
424,104,114351,5,0,0:0:0:0:
358,276,114517,1,0,0:0:0:0:
185,209,114684,1,8,0:0:0:0:
251,37,114851,1,0,0:0:0:0:
448,144,115020,6,0,P|408:184|344:200,1,100,4|0,0:0|0:0,0:0:0:0:
224,56,115355,1,8,0:0:0:0:
256,192,115522,1,0,0:0:0:0:
120,144,115690,2,0,P|88:200|80:256,1,100
144,344,116025,1,8,0:0:0:0:
296,216,116193,2,0,L|240:328,1,100
384,216,116528,2,0,L|328:328,1,100
432,80,116863,1,0,0:0:0:0:
264,144,117031,2,0,P|280:88|328:48,1,100
432,80,117366,1,8,0:0:0:0:
72,152,117703,6,0,L|120:40,1,100,4|0,0:0|0:0,0:0:0:0:
216,192,118027,1,8,0:0:0:0:
120,296,118189,1,0,0:0:0:0:
256,320,118351,2,0,P|200:296|176:248,1,100
184,104,118675,1,8,0:0:0:0:
344,56,118838,2,0,L|264:136,1,100
432,88,119162,2,0,L|352:168,1,100
472,216,119486,1,0,0:0:0:0:
368,344,119648,2,0,P|336:296|344:224,2,100,0|8|8,0:0|0:0|0:0,0:0:0:0:
128,256,120349,6,0,P|88:304|32:328,1,100,4|0,0:0|0:0,0:0:0:0:
72,176,120682,1,8,0:0:0:0:
128,320,120848,1,0,0:0:0:0:
192,200,121015,2,0,L|272:112,1,100
352,40,121348,1,8,0:0:0:0:
480,168,121515,2,0,L|384:208,1,100
448,264,121848,2,0,L|352:304,1,100
240,192,122182,1,0,0:0:0:0:
120,344,122348,2,0,P|144:288|136:232,1,100
240,192,122682,1,10,0:0:0:0:
432,352,123015,6,0,L|320:304,1,100,4|0,0:0|0:0,0:0:0:0:
384,144,123348,1,8,0:0:0:0:
440,256,123515,1,0,0:0:0:0:
440,256,123681,2,0,L|328:208,1,100
208,160,124015,1,8,0:0:0:0:
400,40,124181,2,0,L|352:152,1,100
296,64,124515,2,0,L|248:176,1,100
208,296,124848,1,0,0:0:0:0:
16,208,125015,2,0,P|56:168|128:160,1,100,0|8,0:0|0:0,0:0:0:0:
208,296,125348,1,8,0:0:0:0:
448,96,125681,6,0,L|464:152,1,50,8|0,0:0|0:0,0:0:0:0:
392,128,125850,2,0,L|398:185,1,50
336,144,126019,2,0,L|331:202,1,50,8|0,0:0|0:0,0:0:0:0:
272,152,126189,2,0,L|257:208,1,50
208,136,126358,1,8,0:0:0:0:
208,136,126443,1,0,0:0:0:0:
208,136,126528,5,0,0:0:0:0:
168,152,126613,1,0,0:0:0:0:
128,144,126697,1,8,0:0:0:0:
104,112,126782,1,0,0:0:0:0:
104,72,126867,6,0,L|208:48,1,100,4|0,0:0|0:0,0:0:0:0:
357,105,127203,1,0,0:0:0:0:
344,184,127369,1,8,0:0:0:0:
419,156,127536,1,0,0:0:0:0:
280,136,127703,1,0,0:0:0:0:
408,232,127869,1,0,0:0:0:0:
432,72,128036,1,8,0:0:0:0:
432,72,128203,6,0,L|392:176,1,100,4|0,0:0|0:0,0:0:0:0:
288,232,128536,1,0,0:0:0:0:
448,328,128703,2,0,P|376:320|328:280,1,100,8|0,0:0|0:0,0:0:0:0:
432,200,129036,1,0,0:0:0:0:
296,176,129203,1,0,0:0:0:0:
408,272,129369,1,8,0:0:0:0:
360,120,129536,1,0,0:0:0:0:
360,120,129703,6,0,L|224:64,1,100
96,24,130036,2,0,P|104:88|136:120,1,100,8|0,0:0|0:0,0:0:0:0:
72,224,130369,1,0,0:0:0:0:
224,304,130536,1,0,0:0:0:0:
72,224,130702,1,8,0:0:0:0:
224,304,130869,6,0,L|320:256,1,100,4|0,0:0|0:0,0:0:0:0:
480,288,131202,1,0,0:0:0:0:
456,88,131369,2,0,P|408:136|392:184,1,100,8|0,0:0|0:0,0:0:0:0:
296,16,131702,1,0,0:0:0:0:
296,16,131869,2,0,L|272:144,1,100,0|8,0:0|0:0,0:0:0:0:
256,208,132202,1,0,0:0:0:0:
424,264,132369,6,0,P|352:288|320:328,1,100,4|0,0:0|0:0,0:0:0:0:
256,208,132700,1,8,0:0:0:0:
88,264,132866,2,0,P|160:288|192:328,1,100,4|0,0:0|0:0,0:0:0:0:
256,208,133197,1,0,0:0:0:0:
256,208,133363,1,8,0:0:0:0:
376,64,133529,6,0,L|320:152,1,100,4|0,0:0|0:0,0:0:0:0:
256,208,133860,1,0,0:0:0:0:
256,208,134026,1,8,0:0:0:0:
136,64,134192,2,0,L|192:152,1,100,4|0,0:0|0:0,0:0:0:0:
256,328,134523,1,0,0:0:0:0:
256,152,134689,1,8,0:0:0:0:
256,328,134855,1,0,0:0:0:0:
432,200,135020,6,0,L|384:304,1,100,4|0,0:0|0:0,0:0:0:0:
328,80,135352,1,8,0:0:0:0:
288,216,135518,1,0,0:0:0:0:
184,120,135683,2,0,P|216:64|264:32,1,100
64,88,136015,1,8,0:0:0:0:
128,224,136181,2,0,L|56:312,1,100
200,280,136512,2,0,L|128:368,1,100
256,120,136844,1,0,0:0:0:0:
376,232,137009,2,0,P|392:176|432:144,1,100
256,120,137341,1,8,0:0:0:0:
248,280,137672,6,0,P|256:88|264:280,1,575
296,136,141672,5,0,0:0:0:0:
320,256,141845,1,0,0:0:0:0:
336,112,142012,1,0,0:0:0:0:
360,280,142178,1,0,0:0:0:0:
376,88,142345,1,0,0:0:0:0:
400,304,142512,1,0,0:0:0:0:
416,64,142678,1,0,0:0:0:0:
440,328,142845,1,0,0:0:0:0:
456,40,143012,6,0,L|488:160,1,100,4|0,0:0|0:0,0:0:0:0:
176,128,143345,2,0,P|232:88|296:88,1,100,8|0,0:0|0:0,0:0:0:0:
288,192,143678,1,0,0:0:0:0:
416,128,143845,1,0,0:0:0:0:
408,272,144012,1,8,0:0:0:0:
224,240,144178,6,0,L|280:128,1,100,4|0,0:0|0:0,0:0:0:0:
72,168,144512,1,0,0:0:0:0:
232,32,144678,2,0,L|176:144,1,100,8|0,0:0|0:0,0:0:0:0:
152,288,145011,1,0,0:0:0:0:
288,160,145178,1,0,0:0:0:0:
328,344,145345,2,0,L|248:240,1,100,8|0,0:0|0:0,0:0:0:0:
264,80,145678,5,0,0:0:0:0:
192,248,145845,1,0,0:0:0:0:
192,80,146011,1,8,0:0:0:0:
264,240,146178,1,0,0:0:0:0:
136,128,146345,1,0,0:0:0:0:
304,184,146511,1,0,0:0:0:0:
144,192,146678,1,8,0:0:0:0:
296,128,146845,1,0,0:0:0:0:
96,136,147011,5,0,0:0:0:0:
400,200,147178,1,12,0:0:0:0:
400,200,147511,1,12,0:0:0:0:
400,200,147844,1,12,0:0:0:0:
400,200,148011,2,0,P|384:264|336:304,1,100
200,368,148344,6,0,L|264:272,1,100,4|0,0:0|0:0,0:0:0:0:
264,96,148678,2,0,L|200:192,1,100,8|0,0:0|0:0,0:0:0:0:
88,256,149011,1,0,0:0:0:0:
120,96,149178,1,0,0:0:0:0:
144,280,149344,1,8,0:0:0:0:
56,64,149511,6,0,L|104:192,1,100,4|0,0:0|0:0,0:0:0:0:
264,272,149844,1,0,0:0:0:0:
168,40,150011,2,0,L|216:168,1,100,8|0,0:0|0:0,0:0:0:0:
384,80,150344,1,0,0:0:0:0:
328,264,150511,1,0,0:0:0:0:
480,152,150678,1,8,0:0:0:0:
288,152,150844,1,0,0:0:0:0:
448,264,151011,6,0,L|408:168,1,100
328,32,151344,2,0,L|288:128,1,100,8|0,0:0|0:0,0:0:0:0:
208,216,151677,1,0,0:0:0:0:
80,96,151844,1,0,0:0:0:0:
168,256,152011,1,8,0:0:0:0:
184,80,152177,6,0,L|160:192,1,100,4|0,0:0|0:0,0:0:0:0:
48,288,152511,1,0,0:0:0:0:
272,328,152677,2,0,P|224:288|152:288,1,100,8|0,0:0|0:0,0:0:0:0:
96,128,153011,1,0,0:0:0:0:
96,128,153177,2,0,L|232:88,1,100,0|8,0:0|0:0,0:0:0:0:
400,72,153511,1,0,0:0:0:0:
352,224,153677,6,0,P|400:176|456:168,1,100
464,328,154010,2,0,P|416:376|360:384,1,100,8|0,0:0|0:0,0:0:0:0:
256,320,154344,1,0,0:0:0:0:
104,272,154510,1,0,0:0:0:0:
256,232,154677,1,8,0:0:0:0:
104,192,154844,6,0,L|56:96,1,100,4|0,0:0|0:0,0:0:0:0:
208,144,155177,1,0,0:0:0:0:
208,144,155344,2,0,L|160:48,1,100,8|0,0:0|0:0,0:0:0:0:
320,256,155677,5,0,0:0:0:0:
128,168,155844,1,0,0:0:0:0:
408,136,156010,1,8,0:0:0:0:
48,256,156177,1,0,0:0:0:0:
360,56,156344,6,0,L|232:40,1,100,4|0,0:0|0:0,0:0:0:0:
392,144,156681,5,8,0:0:0:0:
392,144,156849,2,0,L|264:128,1,100,4|0,0:0|0:0,0:0:0:0:
416,232,157186,5,0,0:0:0:0:
424,232,157355,1,8,0:0:0:0:
424,232,157523,2,0,L|296:216,1,100,4|0,0:0|0:0,0:0:0:0:
448,328,157860,5,0,0:0:0:0:
456,328,158029,1,8,0:0:0:0:
456,328,158197,2,0,L|328:312,1,100,4|0,0:0|0:0,0:0:0:0:
128,296,158535,1,0,0:0:0:0:
192,144,158703,1,8,0:0:0:0:
104,304,158872,1,0,0:0:0:0:
168,152,159022,6,0,P|192:88|232:64,1,100,4|0,0:0|0:0,0:0:0:0:
400,72,159355,1,8,0:0:0:0:
304,200,159521,1,0,0:0:0:0:
464,216,159688,2,0,P|440:280|400:303,1,100
256,208,160021,1,8,0:0:0:0:
120,328,160188,2,0,L|16:264,1,100
104,224,160521,2,0,L|0:160,1,100
128,56,160855,1,0,0:0:0:0:
216,192,161021,2,0,P|232:128|272:96,1,100
376,64,161355,1,8,0:0:0:0:
256,352,161688,6,0,L|304:248,1,100,4|0,0:0|0:0,0:0:0:0:
384,272,162021,1,8,0:0:0:0:
240,200,162188,1,0,0:0:0:0:
344,320,162354,2,0,L|312:192,1,100
416,88,162688,1,8,0:0:0:0:
224,48,162854,2,0,L|288:152,1,100
136,88,163188,2,0,L|200:192,1,100
40,176,163521,1,0,0:0:0:0:
152,344,163688,2,0,L|88:240,1,100
40,176,164021,1,8,0:0:0:0:
256,192,164354,5,8,0:0:0:0:
246,188,164436,1,8,0:0:0:0:
242,178,164519,1,8,0:0:0:0:
246,169,164602,1,8,0:0:0:0:
256,165,164685,1,8,0:0:0:0:
265,169,164768,1,0,0:0:0:0:
269,178,164851,1,8,0:0:0:0:
265,188,164934,1,0,0:0:0:0:
256,192,165016,5,8,0:0:0:0:
220,207,165099,1,8,0:0:0:0:
205,245,165182,1,8,0:0:0:0:
219,281,165265,1,8,0:0:0:0:
256,296,165348,1,8,0:0:0:0:
294,281,165431,1,0,0:0:0:0:
309,244,165514,1,8,0:0:0:0:
293,207,165597,1,0,0:0:0:0:
256,192,165679,1,12,0:0:0:0:
