osu file format v14

[General]
AudioFilename: audio.mp3
AudioLeadIn: 0
PreviewTime: 54191
Countdown: 1
SampleSet: Soft
StackLeniency: 0.7
Mode: 0
LetterboxInBreaks: 0
WidescreenStoryboard: 1

[Editor]
Bookmarks: 79355,115679
DistanceSpacing: 1
BeatDivisor: 4
GridSize: 8
TimelineZoom: 2.599999

[Metadata]
Title:Flower
TitleUnicode:花
Artist:Mayday
ArtistUnicode:五月天
Creator:Rucker
Version:Hard
Source:
Tags:五月天 MAYDAY 花 音樂來自四方
BeatmapID:1072186
BeatmapSetID:500464

[Difficulty]
HPDrainRate:5
CircleSize:3.7
OverallDifficulty:6.5
ApproachRate:8
SliderMultiplier:1.8
SliderTickRate:1

[Events]
//Background and Video events
0,0,"bg3.jpg",0,0
//Break Periods
//Storyboard Layer 0 (Background)
//Storyboard Layer 1 (Fail)
//Storyboard Layer 2 (Pass)
//Storyboard Layer 3 (Foreground)
//Storyboard Sound Samples

[TimingPoints]
39,333.296300411065,4,2,0,100,1,0
29702,337.076300411066,4,2,0,100,1,0
32398,333.296300411065,4,2,0,100,1,0
33544,326.086956521739,4,2,0,100,1,0
34196,333.296300411065,4,2,0,100,1,0
36195,326.086956521739,4,2,0,100,1,0
36847,333.296300411065,4,2,0,100,1,0
39372,333.296300411065,4,2,0,100,1,0
43371,327.868852459016,4,2,0,100,1,0
44359,333.296300411065,4,2,0,100,1,0
49691,-200,4,2,0,40,0,0
51024,-200,4,2,0,50,0,0
51358,-200,4,2,0,60,0,0
51691,-200,4,2,0,70,0,0
52024,-200,4,2,0,80,0,0
52358,-100,4,2,0,90,0,0
91020,-200,4,2,0,5,0,0
92353,-200,4,2,0,50,0,0
92686,-200,4,2,0,60,0,0
93020,-200,4,2,0,70,0,0
93353,-200,4,2,0,80,0,0
93686,-100,4,2,0,90,0,0
95020,-200,4,2,0,90,0,0
95686,-200,4,2,0,10,0,0
96353,-100,4,2,0,90,0,0
115020,335.195530726257,4,2,0,100,1,0
117703,324.324324324324,4,2,0,100,1,0
120349,333.296300411065,4,2,0,100,1,0
125681,338.983050847458,4,2,0,100,1,0
126870,333.296300411065,4,2,0,100,1,0
132369,331.491712707182,4,2,0,100,1,0
137672,666.666666666667,4,2,0,5,1,0
137672,-200,4,2,0,5,0,0
141679,333.296300411065,4,2,0,40,1,0
141679,-100,4,2,0,40,0,0
142012,-100,4,2,0,50,0,0
142345,-100,4,2,0,60,0,0
142678,-100,4,2,0,70,0,0
143012,-100,4,2,0,90,0,0
156344,337.078651685393,4,2,0,100,1,0
159022,333.296300411065,4,2,0,100,1,0
159022,-100,4,2,0,90,0,0
164354,331.491712707182,4,2,0,100,1,0

[HitObjects]
40,176,23036,6,0,L|0:64,1,90,8|0,0:0|0:0,0:0:0:0:
112,112,23369,2,0,P|128:160|176:200,1,90,8|0,0:0|0:0,0:0:0:0:
240,120,23703,1,8,0:0:0:0:
240,120,23869,1,0,0:0:0:0:
240,120,24036,1,0,0:0:0:0:
240,120,24202,2,0,P|344:88|400:144,1,180,4|0,0:0|0:0,0:0:0:0:
432,224,24702,2,0,L|320:200,2,90,8|0|0,0:0|0:0|0:0,0:0:0:0:
256,336,25369,5,8,0:0:0:0:
256,336,25536,2,0,B|168:360|168:360|176:296|112:264,1,180,4|0,0:0|0:0,0:0:0:0:
137,280,26036,1,8,0:0:0:0:
104,104,26369,6,0,P|64:136|16:136,1,90
192,128,26702,2,0,P|232:96|280:96,1,90,8|0,0:0|0:0,0:0:0:0:
336,32,27036,2,0,L|416:200,1,180,0|8,0:0|0:0,0:0:0:0:
256,312,27702,2,0,B|224:352|224:352|184:352,1,90
104,312,28035,1,8,0:0:0:0:
104,312,28202,6,0,P|104:216|168:144,1,180,4|0,0:0|0:0,0:0:0:0:
184,72,28702,2,0,L|256:144,1,90,8|0,0:0|0:0,0:0:0:0:
320,88,29035,1,0,0:0:0:0:
320,88,29202,2,0,B|392:80|400:136|400:136|376:184|432:224,1,180
440,304,29702,2,0,L|344:256,2,90,4|0|8,0:0|0:0|0:0,0:0:0:0:
440,304,30207,1,4,0:0:0:0:
216,344,30544,6,0,L|232:240,1,90,0|8,0:0|0:0,0:0:0:0:
229,255,30881,1,4,0:0:0:0:
376,112,31218,6,0,P|328:96|296:40,1,90,0|8,0:0|0:0,0:0:0:0:
303,66,31555,1,4,0:0:0:0:
64,72,31892,6,0,L|128:152,1,90,0|8,0:0|0:0,0:0:0:0:
48,192,32230,1,0,0:0:0:0:
48,192,32398,6,0,P|136:272|184:248,1,180,4|8,0:0|0:0,0:0:0:0:
256,216,32897,1,0,0:0:0:0:
296,296,33064,2,0,L|392:240,1,90
456,200,33397,1,8,0:0:0:0:
456,200,33564,2,0,L|440:88,1,90
352,56,33870,2,0,P|395:24|468:27,1,90
352,152,34196,1,0,0:0:0:0:
352,152,34362,2,0,L|352:256,2,90,0|0|8,0:0|0:0|0:0,0:0:0:0:
256,344,35029,6,0,P|200:264|104:264,1,180,4|8,0:0|0:0,0:0:0:0:
48,200,35529,1,0,0:0:0:0:
128,152,35695,2,0,L|232:104,1,90
272,48,36029,1,8,0:0:0:0:
272,48,36195,2,0,P|320:80|336:128,1,90
424,112,36521,2,0,P|422:169|390:208,1,90
336,248,36847,1,0,0:0:0:0:
336,248,37013,2,0,L|448:312,2,90,0|0|8,0:0|0:0|0:0,0:0:0:0:
128,304,37680,6,0,L|56:256,3,45,8|0|0|0,0:0|0:0|0:0|0:0,0:0:0:0:
104,232,38013,2,0,L|59:158,3,45,8|0|0|0,0:0|0:0|0:0|0:0,0:0:0:0:
112,160,38346,2,0,L|102:73,3,45,8|0|0|0,0:0|0:0|0:0|0:0,0:0:0:0:
152,96,38680,2,0,L|179:14,3,45,8|0|0|0,0:0|0:0|0:0|0:0,0:0:0:0:
216,56,39013,6,0,B|265:66|306:43|306:43|307:90|333:124,1,180,4|8,0:0|0:0,0:0:0:0:
416,168,39538,1,0,0:0:0:0:
416,168,39705,2,0,L|400:256,1,90
352,336,40038,1,8,0:0:0:0:
352,336,40205,2,0,B|264:336|224:312|224:312|168:264,1,180
104,240,40705,1,8,0:0:0:0:
184,192,40871,1,0,0:0:0:0:
144,104,41038,2,0,P|184:72|248:80,1,90
304,104,41371,2,0,L|272:-8,1,90,8|0,0:0|0:0,0:0:0:0:
392,136,41705,5,0,0:0:0:0:
440,208,41871,1,0,0:0:0:0:
416,296,42038,2,0,P|368:320|312:312,1,90,8|0,0:0|0:0,0:0:0:0:
264,256,42371,1,0,0:0:0:0:
264,256,42538,2,0,L|176:320,1,90,0|8,0:0|0:0,0:0:0:0:
104,312,42871,5,4,0:0:0:0:
24,152,43204,1,4,0:0:0:0:
168,40,43534,1,4,0:0:0:0:
256,72,43698,2,0,L|360:24,1,90
184,128,44026,2,0,P|157:163|115:175,1,90,2|0,0:0|0:0,0:0:0:0:
56,240,44359,6,0,L|248:344,1,180,4|8,0:0|0:0,0:0:0:0:
304,352,44858,1,0,0:0:0:0:
304,352,45025,2,0,P|344:328|368:280,1,90
440,248,45358,1,8,0:0:0:0:
440,248,45525,2,0,B|456:163|365:142|365:142|331:120,1,180
264,80,46025,1,8,0:0:0:0:
176,48,46192,1,0,0:0:0:0:
192,136,46358,2,0,L|176:240,1,90
80,272,46692,2,0,L|96:176,1,90,8|0,0:0|0:0,0:0:0:0:
152,328,47025,5,0,0:0:0:0:
232,288,47192,1,0,0:0:0:0:
312,320,47358,2,0,P|360:312|384:272,1,90,8|0,0:0|0:0,0:0:0:0:
456,224,47691,1,0,0:0:0:0:
456,224,47858,2,0,L|416:112,1,90,0|8,0:0|0:0,0:0:0:0:
360,80,48191,5,4,0:0:0:0:
184,48,48525,1,4,0:0:0:0:
112,216,48858,1,4,0:0:0:0:
112,216,49025,2,0,P|152:304|248:288,1,180,0|8,0:0|0:0,0:0:0:0:
256,80,49691,5,12,0:0:0:0:
360,272,51024,6,0,L|376:216,1,45,2|0,0:0|0:0,0:0:0:0:
280,272,51358,2,0,L|296:216,1,45,2|0,0:0|0:0,0:0:0:0:
200,272,51691,2,0,L|216:216,1,45,2|0,0:0|0:0,0:0:0:0:
120,272,52024,2,0,L|136:216,1,45,2|0,0:0|0:0,0:0:0:0:
96,152,52358,6,0,L|40:168,3,45,8|0|0|0,0:0|0:0|0:0|0:0,0:0:0:0:
119,99,52691,2,0,L|61:95,3,45,8|0|0|0,0:0|0:0|0:0|0:0,0:0:0:0:
159,58,53024,2,0,L|105:34,3,45,8|0|0|0,0:0|0:0|0:0|0:0,0:0:0:0:
208,64,53358,1,8,0:0:0:0:
224,68,53441,1,0,0:0:0:0:
240,72,53524,1,0,0:0:0:0:
256,76,53607,1,0,0:0:0:0:
272,80,53691,6,0,L|320:176,1,90,2|0,0:0|0:0,0:0:0:0:
208,152,54024,2,0,L|256:248,1,90,2|0,0:0|0:0,0:0:0:0:
144,224,54357,2,0,L|192:320,1,90,2|0,0:0|0:0,0:0:0:0:
72,296,54691,2,0,L|120:392,1,90,2|0,0:0|0:0,0:0:0:0:
32,208,55024,6,0,P|48:120|144:72,1,180,4|8,0:0|0:0,0:0:0:0:
208,104,55524,1,0,0:0:0:0:
208,104,55691,2,0,L|160:-8,1,90
128,144,56024,1,8,0:0:0:0:
128,144,56191,2,0,B|104:232|104:232|122:294|177:322,1,180,4|0,0:0|0:0,0:0:0:0:
232,344,56690,2,0,L|216:248,1,90,8|0,0:0|0:0,0:0:0:0:
304,264,57024,5,0,0:0:0:0:
376,320,57190,1,0,0:0:0:0:
392,232,57357,1,8,0:0:0:0:
392,232,57524,2,0,P|392:152|304:72,1,180
280,152,58024,2,0,L|224:248,1,90,8|0,0:0|0:0,0:0:0:0:
160,296,58357,1,0,0:0:0:0:
72,248,58524,2,0,P|59:195|99:147,1,90,0|8,0:0|0:0,0:0:0:0:
176,160,58857,2,0,P|280:144|304:48,1,180,4|0,0:0|0:0,0:0:0:0:
408,56,59357,2,0,L|472:152,1,90,8|0,0:0|0:0,0:0:0:0:
448,232,59690,5,0,0:0:0:0:
448,232,59857,2,0,P|416:288|360:280,1,90,0|8,0:0|0:0,0:0:0:0:
328,224,60190,2,0,B|288:238|256:270|256:270|224:238|176:222,1,180
88,264,60690,2,0,L|48:168,1,90,8|0,0:0|0:0,0:0:0:0:
168,320,61023,1,0,0:0:0:0:
256,272,61190,1,0,0:0:0:0:
320,344,61357,1,8,0:0:0:0:
320,344,61523,2,0,P|408:304|424:192,1,180,4|0,0:0|0:0,0:0:0:0:
488,144,62023,2,0,L|400:80,1,90,8|0,0:0|0:0,0:0:0:0:
360,8,62357,5,0,0:0:0:0:
360,8,62523,2,0,P|329:54|276:77,1,90,0|8,0:0|0:0,0:0:0:0:
216,24,62856,1,0,0:0:0:0:
216,24,63023,6,0,L|280:128,1,90
224,200,63356,2,0,L|160:104,1,90,8|0,0:0|0:0,0:0:0:0:
336,88,63690,2,0,L|336:192,1,90
136,176,64023,2,0,L|136:72,1,90,8|0,0:0|0:0,0:0:0:0:
32,192,64356,1,0,0:0:0:0:
96,272,64523,5,4,0:0:0:0:
288,240,64856,1,4,0:0:0:0:
464,328,65190,2,0,L|440:224,1,90,4|8,0:0|0:0,0:0:0:0:
264,120,65689,6,0,P|304:32|400:32,2,180,4|8|0,0:0|0:0|0:0,0:0:0:0:
176,56,66523,1,0,0:0:0:0:
176,56,66689,2,0,L|136:144,1,90,8|4,0:0|0:0,0:0:0:0:
280,296,67189,6,0,P|288:344|344:368,1,90,0|8,0:0|0:0,0:0:0:0:
400,320,67523,1,0,0:0:0:0:
448,240,67689,2,0,L|520:152,2,90,0|0|8,0:0|0:0|0:0,0:0:0:0:
400,320,68189,1,0,0:0:0:0:
400,320,68356,2,0,B|336:344|336:344|264:336|248:264,2,180,0|8|0,0:0|0:0|0:0,0:0:0:0:
464,256,69189,2,0,L|424:160,2,90,0|8|4,0:0|0:0|0:0,0:0:0:0:
256,56,69856,6,0,P|320:88|368:72,1,90,0|8,0:0|0:0,0:0:0:0:
208,128,70189,1,0,0:0:0:0:
208,128,70356,2,0,L|120:56,2,90,0|0|8,0:0|0:0|0:0,0:0:0:0:
224,216,70856,1,0,0:0:0:0:
224,216,71022,2,0,P|152:288|72:240,2,180,0|8|0,0:0|0:0|0:0,0:0:0:0:
280,304,71855,2,0,L|344:208,1,90,0|8,0:0|0:0,0:0:0:0:
384,152,72189,2,0,B|435:188|435:188|483:108|435:86,1,180,4|0,0:0|0:0,0:0:0:0:
352,48,72689,2,0,L|256:80,1,90,8|0,0:0|0:0,0:0:0:0:
184,48,73022,1,0,0:0:0:0:
104,80,73189,1,0,0:0:0:0:
184,120,73355,1,8,0:0:0:0:
104,152,73522,1,0,0:0:0:0:
184,192,73689,6,0,L|112:288,2,90,4|0|8,0:0|0:0|0:0,0:0:0:0:
256,144,74189,1,0,0:0:0:0:
256,144,74355,2,0,P|272:88|304:64,2,90,0|0|8,0:0|0:0|0:0,0:0:0:0:
344,152,74855,2,0,L|448:136,1,90
400,224,75188,2,0,L|504:208,1,90
336,280,75522,1,0,0:0:0:0:
336,280,75688,2,0,L|312:376,2,90
112,248,76355,6,0,P|40:176|56:96,1,180,4|8,0:0|0:0,0:0:0:0:
144,120,76855,1,0,0:0:0:0:
144,120,77022,2,0,L|192:32,2,90,0|0|8,0:0|0:0|0:0,0:0:0:0:
240,112,77521,2,0,P|296:88|352:96,1,90
360,168,77855,2,0,P|418:185|456:227,1,90,0|0,0:0|2:0,0:0:0:0:
408,288,78188,1,0,0:0:0:0:
408,288,78355,2,0,L|352:360,2,90
328,112,79021,6,0,L|352:64,3,45,8|0|2|0,0:0|0:0|0:0|0:0,0:0:0:0:
296,92,79355,2,0,L|302:38,3,45,8|0|2|0,0:0|0:0|0:0|0:0,0:0:0:0:
259,84,79688,2,0,L|247:32,3,45,8|0|2|0,0:0|0:0|0:0|0:0,0:0:0:0:
222,89,80021,2,0,L|193:44,3,45,8|0|2|0,0:0|0:0|0:0|0:0,0:0:0:0:
192,104,80355,6,0,B|125:194|125:194|129:234|87:255,1,180,4|8,0:0|0:0,0:0:0:0:
176,304,80854,1,0,0:0:0:0:
176,304,81021,2,0,P|162:345|122:362,2,90,0|0|8,0:0|0:0|0:0,0:0:0:0:
256,344,81521,2,0,L|424:232,1,180,2|0,0:0|0:0,0:0:0:0:
408,152,82021,1,8,0:0:0:0:
408,152,82188,2,0,P|464:144|512:184,2,90
368,72,82688,2,0,L|264:48,1,90,8|0,0:0|0:0,0:0:0:0:
200,88,83021,5,0,0:0:0:0:
120,48,83188,1,0,0:0:0:0:
72,128,83354,2,0,L|32:240,1,90,8|0,0:0|0:0,0:0:0:0:
104,280,83687,1,0,0:0:0:0:
104,280,83854,2,0,P|168:272|200:296,1,90,0|8,0:0|0:0,0:0:0:0:
144,360,84187,5,4,0:0:0:0:
320,336,84521,1,4,0:0:0:0:
440,200,84854,1,4,0:0:0:0:
440,200,85021,2,0,L|331:179,1,90
392,104,85354,2,0,L|283:83,1,90,8|0,0:0|0:0,0:0:0:0:
232,40,85687,6,0,B|208:136|104:112|104:112|80:72,1,180,4|8,0:0|0:0,0:0:0:0:
48,176,86187,1,0,0:0:0:0:
48,176,86354,2,0,L|88:296,1,90
160,296,86687,1,8,0:0:0:0:
232,344,86854,2,0,P|232:240|152:208,1,180
112,144,87354,2,0,L|216:96,1,90,8|0,0:0|0:0,0:0:0:0:
280,144,87687,5,0,0:0:0:0:
312,56,87854,1,0,0:0:0:0:
312,56,88020,2,0,L|432:104,1,90,8|0,0:0|0:0,0:0:0:0:
440,168,88354,1,0,0:0:0:0:
440,168,88520,2,0,P|432:104|456:64,2,90,0|8|0,0:0|0:0|0:0,0:0:0:0:
416,256,89020,1,0,0:0:0:0:
416,256,89187,2,0,L|320:184,1,90,0|8,0:0|0:0,0:0:0:0:
368,112,89520,5,4,0:0:0:0:
160,56,89853,1,4,0:0:0:0:
72,256,90187,1,4,0:0:0:0:
72,256,90353,2,0,P|141:207|211:255,1,180,0|8,0:0|0:0,0:0:0:0:
416,312,91020,5,12,0:0:0:0:
120,88,92353,6,0,L|96:40,1,45,2|0,0:0|0:0,0:0:0:0:
200,88,92686,2,0,L|176:40,1,45,2|0,0:0|0:0,0:0:0:0:
280,88,93020,2,0,L|256:40,1,45,2|0,0:0|0:0,0:0:0:0:
360,88,93353,2,0,L|336:40,1,45,2|0,0:0|0:0,0:0:0:0:
424,144,93686,6,0,L|488:120,3,45,8|0|0|0,0:0|0:0|0:0|0:0,0:0:0:0:
440,192,94020,2,0,L|507:203,3,45,8|0|0|0,0:0|0:0|0:0|0:0,0:0:0:0:
448,240,94353,2,0,L|507:273,3,45,8|0|0|0,0:0|0:0|0:0|0:0,0:0:0:0:
408,288,94686,1,8,0:0:0:0:
392,288,94770,1,0,0:0:0:0:
376,288,94853,1,2,0:0:0:0:
360,288,94936,1,0,0:0:0:0:
344,288,95020,2,0,L|344:352,4,45,8|0|0|0|0,0:0|0:0|0:0|0:0|0:0,0:0:0:0:
56,192,96353,6,0,P|88:104|192:104,1,180,4|8,0:0|0:0,0:0:0:0:
232,160,96853,1,0,0:0:0:0:
232,160,97019,2,0,L|280:72,2,90,0|0|8,0:0|0:0|0:0,0:0:0:0:
152,216,97519,2,0,B|136:256|136:256|160:344|248:304,1,180,4|0,0:0|0:0,0:0:0:0:
328,360,98019,2,0,L|352:248,1,90,8|0,0:0|0:0,0:0:0:0:
296,184,98353,1,0,0:0:0:0:
216,240,98519,2,0,P|168:208|168:152,1,90,0|8,0:0|0:0,0:0:0:0:
80,120,98852,2,0,L|288:40,1,180
336,96,99352,2,0,P|384:96|416:136,1,90,8|0,0:0|0:0,0:0:0:0:
344,192,99686,5,0,0:0:0:0:
344,192,99852,2,0,L|392:288,1,90,0|8,0:0|0:0,0:0:0:0:
320,344,100186,2,0,P|232:288|152:320,1,180,4|0,0:0|0:0,0:0:0:0:
112,224,100686,1,8,0:0:0:0:
112,224,100852,2,0,L|64:304,2,90
80,128,101352,5,8,0:0:0:0:
176,144,101519,2,0,P|272:160|344:80,1,180
424,144,102019,2,0,L|392:40,1,90,8|0,0:0|0:0,0:0:0:0:
480,216,102352,1,0,0:0:0:0:
480,216,102519,2,0,L|456:304,1,90,0|8,0:0|0:0,0:0:0:0:
376,248,102852,2,0,P|328:336|240:328,1,180,4|0,0:0|0:0,0:0:0:0:
272,240,103352,2,0,L|208:144,1,90,8|0,0:0|0:0,0:0:0:0:
256,72,103685,2,0,P|304:88|352:72,2,90,0|0|8,0:0|0:0|0:0,0:0:0:0:
160,48,104185,1,0,0:0:0:0:
168,144,104352,6,0,L|208:232,1,90
304,248,104685,2,0,L|264:160,1,90,8|0,0:0|0:0,0:0:0:0:
144,272,105018,2,0,L|264:272,1,90
320,136,105352,2,0,L|200:136,1,90,8|0,0:0|0:0,0:0:0:0:
136,168,105685,1,0,0:0:0:0:
80,88,105852,5,4,0:0:0:0:
344,136,106185,1,4,0:0:0:0:
160,336,106518,2,0,L|200:232,1,90,4|8,0:0|0:0,0:0:0:0:
360,64,107018,6,0,B|448:112|448:112|400:160|464:184,2,180,4|8|0,0:0|0:0|0:0,0:0:0:0:
296,136,107851,1,0,0:0:0:0:
296,136,108018,2,0,L|232:64,1,90,8|4,0:0|0:0,0:0:0:0:
48,192,108518,6,0,L|0:272,1,90,0|8,0:0|0:0,0:0:0:0:
104,296,108851,1,0,0:0:0:0:
104,296,109018,2,0,P|152:320|200:304,2,90,0|0|8,0:0|0:0|0:0,0:0:0:0:
152,224,109518,1,0,0:0:0:0:
152,224,109685,2,0,B|120:104|120:104|128:64|168:88,2,180,0|8|0,0:0|0:0|0:0,0:0:0:0:
248,224,110518,2,0,L|208:320,2,90,0|8|4,0:0|0:0|0:0,0:0:0:0:
400,96,111184,6,0,L|296:32,1,90,0|8,0:0|0:0,0:0:0:0:
480,152,111518,1,0,0:0:0:0:
480,152,111684,2,0,P|512:112|512:56,2,90,0|0|8,0:0|0:0|0:0,0:0:0:0:
384,168,112184,1,0,0:0:0:0:
384,168,112351,2,0,L|208:128,2,180,0|8|0,0:0|0:0|0:0,0:0:0:0:
392,264,113184,2,0,P|440:240|496:256,1,90,0|8,0:0|0:0,0:0:0:0:
448,336,113517,2,0,P|352:344|304:264,1,180,4|0,0:0|0:0,0:0:0:0:
208,312,114017,2,0,L|232:208,1,90,8|0,0:0|0:0,0:0:0:0:
144,176,114351,1,0,0:0:0:0:
184,88,114517,1,0,0:0:0:0:
248,160,114684,1,8,0:0:0:0:
152,176,114851,1,0,0:0:0:0:
192,88,115020,6,0,P|224:40|272:24,2,90,4|0|8,0:0|0:0|0:0,0:0:0:0:
288,120,115522,1,0,0:0:0:0:
288,120,115690,2,0,P|256:168|208:184,2,90,0|0|8,0:0|0:0|0:0,0:0:0:0:
376,80,116193,2,0,L|432:192,1,90,2|0,0:0|0:0,0:0:0:0:
320,160,116528,2,0,L|376:272,1,90,2|0,0:0|0:0,0:0:0:0:
256,240,116863,1,0,0:0:0:0:
256,240,117031,2,0,L|200:128,2,90,0|0|8,0:0|0:0|0:0,0:0:0:0:
72,312,117703,6,0,P|136:256|112:168,1,180,4|8,0:0|0:0,0:0:0:0:
72,88,118189,1,0,0:0:0:0:
72,88,118351,2,0,L|24:168,2,90,0|0|8,0:0|0:0|0:0,0:0:0:0:
168,64,118838,2,0,L|80:16,1,90,2|0,0:0|0:0,0:0:0:0:
264,48,119162,2,0,L|176:0,1,90,2|2,0:0|0:0,0:0:0:0:
360,64,119486,1,0,0:0:0:0:
360,64,119648,2,0,P|408:48|432:8,2,90,0|8|8,0:0|0:0|0:0,0:0:0:0:
296,248,120349,6,0,P|336:336|424:320,1,180,4|8,0:0|0:0,0:0:0:0:
384,240,120848,1,0,0:0:0:0:
384,240,121015,2,0,L|336:152,2,90,0|0|8,0:0|0:0|0:0,0:0:0:0:
296,272,121515,2,0,L|344:360,1,90,2|0,0:0|0:0,0:0:0:0:
192,256,121848,2,0,L|240:344,1,90,2|0,0:0|0:0,0:0:0:0:
88,240,122182,1,0,0:0:0:0:
88,240,122348,2,0,L|136:328,2,90,0|0|8,0:0|0:0|0:0,0:0:0:0:
184,56,123015,6,0,B|152:80|152:80|72:72|56:160|136:192,1,180,4|8,0:0|0:0,0:0:0:0:
160,248,123515,1,0,0:0:0:0:
160,248,123681,2,0,P|112:280|48:256,2,90,0|0|8,0:0|0:0|0:0,0:0:0:0:
248,200,124181,2,0,L|248:304,1,90,2|0,0:0|0:0,0:0:0:0:
344,256,124515,2,0,L|344:360,1,90,2|0,0:0|0:0,0:0:0:0:
440,312,124848,1,0,0:0:0:0:
440,312,125015,2,0,L|440:200,2,90,0|8|8,0:0|0:0|0:0,0:0:0:0:
256,240,125681,6,0,L|272:192,3,45,8|0|0|0,0:0|0:0|0:0|0:0,0:0:0:0:
240,168,126019,2,0,L|225:125,3,45,8|0|0|0,0:0|0:0|0:0|0:0,0:0:0:0:
192,112,126358,2,0,L|158:82,3,45,8|0|0|0,0:0|0:0|0:0|0:0,0:0:0:0:
136,128,126697,5,8,0:0:0:0:
136,128,126870,2,0,L|96:312,1,180,4|0,0:0|0:0,0:0:0:0:
192,344,127369,2,0,P|184:288|232:248,2,90,8|0|0,0:0|0:0|0:0,0:0:0:0:
376,272,128036,5,8,0:0:0:0:
376,272,128203,2,0,P|424:192|368:128,1,180,4|0,0:0|0:0,0:0:0:0:
378,131,128703,1,8,0:0:0:0:
184,128,129036,6,0,P|168:80|184:32,1,90
128,200,129369,2,0,P|94:237|44:248,1,90,8|0,0:0|0:0,0:0:0:0:
224,216,129703,2,0,P|304:264|304:368,1,180,0|8,0:0|0:0,0:0:0:0:
440,192,130369,6,0,B|400:160|400:160|399:120,1,90
464,40,130702,1,8,0:0:0:0:
464,40,130869,2,0,B|432:160|296:112,1,180,4|0,0:0|0:0,0:0:0:0:
232,88,131369,2,0,L|264:192,1,90,8|0,0:0|0:0,0:0:0:0:
328,248,131702,1,0,0:0:0:0:
328,248,131869,2,0,B|304:336|216:320|216:320|184:368,1,180
120,280,132369,2,0,L|72:368,2,90,4|0|8,0:0|0:0|0:0,0:0:0:0:
120,280,132866,1,4,0:0:0:0:
312,328,133197,6,0,P|352:288|400:288,1,90,0|8,0:0|0:0,0:0:0:0:
383,284,133529,1,4,0:0:0:0:
448,96,133860,6,0,L|360:152,1,90,0|8,0:0|0:0,0:0:0:0:
372,144,134192,1,4,0:0:0:0:
176,80,134523,6,0,B|216:48|216:48|272:48,1,90,0|8,0:0|0:0,0:0:0:0:
104,136,134855,1,0,0:0:0:0:
104,136,135020,2,0,P|88:240|168:264,1,180,4|8,0:0|0:0,0:0:0:0:
208,344,135518,1,0,0:0:0:0:
280,280,135683,2,0,P|336:272|368:304,1,90
376,192,136015,1,8,0:0:0:0:
376,192,136181,6,0,L|464:240,1,90
344,104,136512,2,0,L|432:152,1,90,0|8,0:0|0:0,0:0:0:0:
256,72,136844,1,0,0:0:0:0:
256,72,137009,2,0,P|276:32|333:22,2,90,0|0|8,0:0|0:0|0:0,0:0:0:0:
260,192,137672,6,0,P|256:352|252:192,1,495
88,112,141679,6,0,L|-16:84,1,90,0|8,0:0|0:0,0:0:0:0:
176,88,142012,2,0,L|88:26,1,90,0|8,0:0|0:0,0:0:0:0:
328,104,142345,2,0,L|266:15,1,90,0|8,0:0|0:0,0:0:0:0:
496,208,142678,2,0,L|468:103,1,90,0|8,0:0|0:0,0:0:0:0:
456,288,143012,6,0,P|400:352|288:312,1,180,4|8,0:0|0:0,0:0:0:0:
264,248,143512,1,0,0:0:0:0:
264,248,143678,2,0,L|296:144,1,90
360,80,144012,1,8,0:0:0:0:
440,152,144178,2,0,P|384:232|280:200,1,180,4|0,0:0|0:0,0:0:0:0:
336,120,144678,2,0,L|240:96,1,90,8|0,0:0|0:0,0:0:0:0:
152,144,145011,1,0,0:0:0:0:
152,144,145178,2,0,P|96:176|48:160,2,90,0|8|0,0:0|0:0|0:0,0:0:0:0:
184,248,145678,6,0,L|280:200,1,90
304,104,146011,2,0,L|208:152,1,90,8|0,0:0|0:0,0:0:0:0:
352,304,146345,2,0,L|352:192,1,90
160,80,146678,2,0,L|160:191,1,90,8|0,0:0|0:0,0:0:0:0:
184,272,147011,1,0,0:0:0:0:
256,192,147178,5,12,0:0:0:0:
432,72,147511,1,12,0:0:0:0:
432,288,147844,1,4,0:0:0:0:
432,288,148011,2,0,L|344:336,1,90,8|0,0:0|0:0,0:0:0:0:
288,240,148344,2,0,P|232:320|128:304,1,180,4|8,0:0|0:0,0:0:0:0:
80,248,148844,1,0,0:0:0:0:
80,248,149011,2,0,P|48:296|48:352,2,90,0|0|8,0:0|0:0|0:0,0:0:0:0:
40,152,149511,6,0,L|240:96,1,180,4|0,0:0|0:0,0:0:0:0:
296,32,150011,2,0,P|336:80|384:80,1,90,8|0,0:0|0:0,0:0:0:0:
448,144,150344,1,0,0:0:0:0:
352,200,150511,1,0,0:0:0:0:
448,248,150678,1,8,0:0:0:0:
352,304,150844,1,0,0:0:0:0:
352,304,151011,2,0,P|272:344|184:264,2,180,0|8|0,0:0|0:0|0:0,0:0:0:0:
464,304,151844,1,0,0:0:0:0:
416,208,152011,5,8,0:0:0:0:
416,208,152177,2,0,L|288:48,1,180,4|0,0:0|0:0,0:0:0:0:
208,112,152677,2,0,P|168:64|176:16,2,90,8|0|0,0:0|0:0|0:0,0:0:0:0:
112,160,153177,1,0,0:0:0:0:
112,160,153344,1,8,0:0:0:0:
112,160,153511,1,0,0:0:0:0:
112,160,153677,2,0,P|136:272|224:280,1,180,0|8,0:0|0:0,0:0:0:0:
296,280,154177,1,0,0:0:0:0:
296,280,154344,2,0,L|256:368,2,90,0|0|8,0:0|0:0|0:0,0:0:0:0:
384,344,154844,6,0,B|432:304|432:256|432:256|392:160,1,180,4|0,0:0|0:0,0:0:0:0:
328,112,155344,2,0,P|376:72|432:80,1,90,8|0,0:0|0:0,0:0:0:0:
448,168,155677,1,0,0:0:0:0:
376,248,155844,1,0,0:0:0:0:
480,272,156010,1,8,0:0:0:0:
432,176,156177,1,0,0:0:0:0:
360,256,156344,6,0,L|176:328,1,180,4|8,0:0|0:0,0:0:0:0:
88,296,156849,2,0,P|32:200|64:120,1,180,4|0,0:0|0:0,0:0:0:0:
152,176,157355,1,8,0:0:0:0:
152,176,157523,2,0,P|256:136|272:64,1,180,4|0,0:0|0:0,0:0:0:0:
376,48,158029,1,8,0:0:0:0:
376,48,158197,2,0,L|440:240,1,180,4|0,0:0|0:0,0:0:0:0:
464,320,158703,1,8,0:0:0:0:
360,288,158872,1,0,0:0:0:0:
360,288,159022,6,0,P|288:352|208:328,1,180,4|8,0:0|0:0,0:0:0:0:
144,248,159521,1,0,0:0:0:0:
144,248,159688,2,0,L|88:336,2,90,0|0|8,0:0|0:0|0:0,0:0:0:0:
248,224,160188,2,0,P|304:256|352:248,1,90,2|0,0:0|0:0,0:0:0:0:
416,192,160521,2,0,P|360:159|312:167,1,90,2|0,0:0|0:0,0:0:0:0:
240,112,160855,1,0,0:0:0:0:
240,112,161021,2,0,L|288:24,2,90,4|0|2,0:0|0:0|0:0,0:0:0:0:
64,240,161688,6,0,B|152:208|152:208|256:248,1,180,4|8,0:0|0:0,0:0:0:0:
336,280,162188,1,0,0:0:0:0:
336,280,162354,2,0,P|312:328|264:344,2,90,0|0|8,0:0|0:0|0:0,0:0:0:0:
400,192,162854,2,0,L|472:256,1,90,2|0,0:0|0:0,0:0:0:0:
392,96,163188,2,0,L|464:160,1,90,2|0,0:0|0:0,0:0:0:0:
304,152,163521,1,0,0:0:0:0:
304,152,163688,2,0,P|256:128|248:64,2,90,0|0|8,0:0|0:0|0:0,0:0:0:0:
112,240,164354,6,0,L|136:288,3,45,8|0|0|0,0:0|0:0|0:0|0:0,0:0:0:0:
164,312,164685,2,0,L|188:264,3,45,8|0|0|0,0:0|0:0|0:0|0:0,0:0:0:0:
216,240,165016,2,0,L|236:280,3,45,8|0|0|0,0:0|0:0|0:0|0:0,0:0:0:0:
276,308,165348,1,8,0:0:0:0:
291,298,165431,1,8,0:0:0:0:
306,289,165514,1,8,0:0:0:0:
322,280,165597,1,8,0:0:0:0:
337,271,165679,1,12,0:0:0:0:
