osu file format v14

[General]
AudioFilename: audio.mp3
AudioLeadIn: 0
PreviewTime: 54191
Countdown: 1
SampleSet: Soft
StackLeniency: 0.7
Mode: 0
LetterboxInBreaks: 0
WidescreenStoryboard: 1

[Editor]
Bookmarks: 79355,115679
DistanceSpacing: 1.2
BeatDivisor: 4
GridSize: 4
TimelineZoom: 2.599999

[Metadata]
Title:Flower
TitleUnicode:花
Artist:Mayday
ArtistUnicode:五月天
Creator:Rucker
Version:Easy
Source:
Tags:五月天 MAYDAY 花 音樂來自四方
BeatmapID:1075310
BeatmapSetID:500464

[Difficulty]
HPDrainRate:3
CircleSize:3
OverallDifficulty:3
ApproachRate:3
SliderMultiplier:1
SliderTickRate:1

[Events]
//Background and Video events
0,0,"bg1.jpg",0,0
//Break Periods
//Storyboard Layer 0 (Background)
//Storyboard Layer 1 (Fail)
//Storyboard Layer 2 (Pass)
//Storyboard Layer 3 (Foreground)
//Storyboard Sound Samples

[TimingPoints]
39,333.296300411065,4,2,0,100,1,0
29702,337.076300411066,4,2,0,100,1,0
32398,333.296300411065,4,2,0,100,1,0
33544,326.086956521739,4,2,0,100,1,0
34196,333.296300411065,4,2,0,100,1,0
36195,326.086956521739,4,2,0,100,1,0
36847,333.296300411065,4,2,0,100,1,0
39372,333.296300411065,4,2,0,100,1,0
43371,327.868852459016,4,2,0,100,1,0
44359,333.296300411065,4,2,0,100,1,0
49691,-100,4,2,0,40,0,0
51024,-100,4,2,0,50,0,0
51358,-100,4,2,0,60,0,0
51691,-100,4,2,0,70,0,0
52024,-100,4,2,0,80,0,0
52358,-100,4,2,0,90,0,0
91020,-100,4,2,0,5,0,0
92353,-100,4,2,0,50,0,0
92686,-100,4,2,0,60,0,0
93020,-100,4,2,0,70,0,0
93353,-100,4,2,0,80,0,0
93686,-100,4,2,0,90,0,0
95020,-100,4,2,0,90,0,0
95686,-100,4,2,0,10,0,0
96353,-100,4,2,0,90,0,0
115020,335.195530726257,4,2,0,100,1,0
117703,324.324324324324,4,2,0,100,1,0
120349,333.296300411065,4,2,0,100,1,0
125681,338.983050847458,4,2,0,100,1,0
126870,333.296300411065,4,2,0,100,1,0
132369,331.491712707182,4,2,0,100,1,0
137672,666.666666666667,4,2,0,5,1,0
137672,-100,4,2,0,5,0,0
141679,333.296300411065,4,2,0,100,1,0
141679,-100,4,2,0,40,0,0
142012,-100,4,2,0,50,0,0
142345,-100,4,2,0,60,0,0
142678,-100,4,2,0,70,0,0
143012,-100,4,2,0,90,0,0
156344,337.078651685393,4,2,0,100,1,0
159022,333.296300411065,4,2,0,100,1,0
159022,-100,4,2,0,90,0,0
164354,331.491712707182,4,2,0,100,1,0

[HitObjects]
440,232,23036,6,0,L|440:352,2,100,8|8|8,0:0|0:0|0:0,0:0:0:0:
296,120,24202,2,0,P|176:40|72:112,1,250,4|0,0:0|0:0,0:0:0:0:
16,240,25536,2,0,B|42:294|42:294|167:232|207:374,1,250,4|0,0:0|0:0,0:0:0:0:
408,224,27036,2,0,L|440:96,2,100,0|8|0,0:0|0:0|0:0,0:0:0:0:
272,344,28202,2,0,P|128:312|136:192,1,250,4|0,0:0|0:0,0:0:0:0:
280,56,29702,6,0,L|448:88,2,150,4|4|0,0:0|0:0|0:0,0:0:0:0:
160,72,31050,2,0,L|-8:40,2,150,4|4|0,0:0|0:0|0:0,0:0:0:0:
280,104,32398,2,0,P|400:88|424:184,1,200,12|0,0:0|0:0,0:0:0:0:
368,312,33544,1,12,0:0:0:0:
272,240,33870,2,0,L|244:80,1,150.92,12|0,0:0|0:0,0:0:0:0:
40,216,35029,6,0,P|104:304|176:280,1,200,12|0,0:0|0:0,0:0:0:0:
104,120,36195,1,12,0:0:0:0:
200,56,36521,2,0,L|360:24,1,150.92,12|0,0:0|0:0,0:0:0:0:
472,232,37680,2,0,L|472:344,4,100,8|8|8|8|8,0:0|0:0|0:0|0:0|0:0,0:0:0:0:
240,144,39705,6,0,P|152:128|128:56,2,150,0|0|8,0:0|0:0|0:0,0:0:0:0:
288,32,41038,2,0,P|472:136|400:312,1,400
248,280,42871,2,0,P|208:320|168:312,1,100,8|0,0:0|0:0,0:0:0:0:
64,256,43534,2,0,L|64:200,1,50,4|0,0:0|0:0,0:0:0:0:
256,56,44354,1,12,0:0:0:0:
456,192,45025,6,0,B|496:120|496:120|448:48,2,150,0|4|8,0:0|0:0|0:0,0:0:0:0:
440,312,46358,2,0,P|256:384|160:200,1,400
56,88,48191,2,8,P|112:56|160:72,1,100
256,112,48858,2,0,L|256:176,1,50,12|4,0:0|0:0,0:0:0:0:
472,64,49691,1,12,0:0:0:0:
80,312,51024,6,0,L|192:288,3,100
296,320,52358,2,0,P|384:160|272:184,1,400,8|0,0:0|0:0,0:0:0:0:
184,232,54024,2,0,P|144:208|128:160,2,100
248,128,55024,6,0,P|288:48|392:56,1,200,12|0,0:0|0:0,0:0:0:0:
456,216,56191,2,0,P|408:312|288:272,1,250,4|0,0:0|0:0,0:0:0:0:
376,112,57690,2,0,P|416:16|416:16,2,100,0|8|0,0:0|0:0|0:0,0:0:0:0:
200,72,58857,2,0,P|72:112|104:208,1,250,4|0,0:0|0:0,0:0:0:0:
328,248,60357,6,0,P|368:288|368:352,2,100,0|8|0,0:0|0:0|0:0,0:0:0:0:
224,312,61357,2,0,L|168:288,1,50,8|4,0:0|0:0,0:0:0:0:
112,120,62023,2,0,P|48:136|16:168,2,100,8|0|8,0:0|0:0|0:0,0:0:0:0:
200,32,63023,2,0,L|272:120,1,100,0|8,0:0|0:0,0:0:0:0:
376,80,63690,2,0,L|416:192,1,100,0|8,0:0|0:0,0:0:0:0:
288,312,64523,6,8,P|328:336|376:304,2,100,8|12|8,0:0|0:0|0:0,0:0:0:0:
152,192,65689,6,0,L|112:88,2,100,4|8|0,0:0|0:0|0:0,0:0:0:0:
96,296,66689,2,0,P|120:320|152:320,1,50,8|4,0:0|0:0,0:0:0:0:
312,328,67356,2,0,L|288:216,2,100,8|0|8,0:0|0:0|0:0,0:0:0:0:
400,248,68356,2,0,L|424:360,2,100,0|8|0,0:0|0:0|0:0,0:0:0:0:
480,160,69356,2,0,P|456:136|424:136,1,50,8|4,0:0|0:0,0:0:0:0:
144,96,70356,6,0,L|200:120,1,50
304,88,70856,2,0,P|288:208|184:184,1,250
216,304,72022,2,0,L|168:320,1,50,8|4,0:0|0:0,0:0:0:0:
384,104,73022,2,0,L|368:32,2,50,0|0|8,0:0|0:0|0:0,0:0:0:0:
464,192,73689,2,0,P|424:224|360:216,2,100,4|8|0,0:0|0:0|0:0,0:0:0:0:
344,320,74855,1,12,0:0:0:0:
224,344,75188,2,0,L|280:192,1,150,12|0,0:0|0:0,0:0:0:0:
88,48,76355,6,0,P|144:56|168:104,2,100,4|8|0,0:0|0:0|0:0,0:0:0:0:
112,224,77521,1,12,0:0:0:0:
16,296,77855,2,0,L|160:352,1,150,12|0,0:0|0:0,0:0:0:0:
384,288,79021,6,8,P|336:312|320:376,4,100
304,64,81021,6,0,L|456:16,2,150
192,32,82354,2,0,P|24:144|128:232,1,400
296,184,84187,2,12,P|328:145|379:152,1,100
376,272,84854,2,0,L|320:296,1,50,8|4,0:0|0:0,0:0:0:0:
224,344,85354,2,0,L|144:272,1,100,8|0,0:0|0:0,0:0:0:0:
184,64,86354,6,0,B|128:8|128:8|56:8,2,150
96,144,87687,2,0,P|160:288|376:256,1,400
488,120,89520,2,12,L|488:0,1,100
368,40,90187,2,0,L|304:64,1,50,12|0,0:0|0:0,0:0:0:0:
208,112,90687,2,0,P|168:72|176:32,1,100,8|4,0:0|0:0,0:0:0:0:
208,328,92353,6,0,L|328:328,3,100
424,304,93686,2,0,B|368:224|368:224|464:176|464:176|392:88,1,300,8|0,0:0|0:0,0:0:0:0:
288,72,95020,2,0,L|240:104,4,50,2|0|2|0|2,0:0|0:0|0:0|0:0|0:0,0:0:0:0:
80,192,96353,6,0,P|128:296|200:288,1,200,12|0,0:0|0:0,0:0:0:0:
376,288,97519,2,0,B|400:232|456:192|456:192|400:160|376:96,1,250,4|0,0:0|0:0,0:0:0:0:
136,104,99019,2,0,P|117:58|75:33,2,100,0|8|0,0:0|0:0|0:0,0:0:0:0:
168,280,100186,2,0,B|256:376|368:296|368:296|416:304,1,250,4|0,0:0|0:0,0:0:0:0:
296,80,101685,6,0,L|400:40,2,100,0|8|0,0:0|0:0|0:0,0:0:0:0:
216,168,102685,2,0,L|152:152,1,50,8|4,0:0|0:0,0:0:0:0:
64,304,103352,2,0,P|56:248|88:208,2,100,8|0|8,0:0|0:0|0:0,0:0:0:0:
184,288,104352,2,0,L|272:344,1,100,0|8,0:0|0:0,0:0:0:0:
376,288,105018,2,0,L|480:272,1,100,0|8,0:0|0:0,0:0:0:0:
416,104,105852,6,0,P|360:88|328:136,2,100,4|4|8,0:0|0:0|0:0,0:0:0:0:
240,120,107018,6,0,L|272:24,2,100,4|8|0,0:0|0:0|0:0,0:0:0:0:
168,216,108018,2,0,P|143:203|136:184,1,50,8|4,2:0|0:0,0:0:0:0:
296,272,108685,2,0,L|256:384,2,100,8|0|8,0:0|0:0|0:0,0:0:0:0:
400,208,109685,2,0,L|440:312,2,100,0|8|0,0:0|0:0|0:0,0:0:0:0:
416,88,110684,2,0,L|472:104,1,50,8|4,0:0|0:0,0:0:0:0:
216,264,111684,6,0,L|232:208,1,50
112,224,112184,2,0,P|64:128|176:64,1,250
280,40,113351,2,0,L|296:96,1,50,8|4,0:0|0:0,0:0:0:0:
328,264,114017,1,8,0:0:0:0:
216,304,114351,2,0,L|208:368,2,50,0|0|8,0:0|0:0|0:0,0:0:0:0:
152,200,115020,6,0,P|116:150|73:144,2,100,4|8|0,0:0|0:0|0:0,0:0:0:0:
264,56,116193,1,12,0:0:0:0:
384,72,116528,2,0,L|456:224,1,150,12|8,0:0|0:0,0:0:0:0:
272,336,117701,6,0,B|328:336|328:336|368:368,2,100,4|8|0,0:0|0:0|0:0,0:0:0:0:
104,304,118838,1,12,0:0:0:0:
32,208,119162,2,0,L|104:64,1,150,12|0,0:0|0:0,0:0:0:0:
352,104,120349,6,0,P|312:64|320:8,2,100,4|8|0,0:0|0:0|0:0,0:0:0:0:
480,224,121515,1,12,0:0:0:0:
432,336,121848,2,0,L|304:232,1,150,12|2,0:0|0:0,0:0:0:0:
128,96,123015,6,0,L|176:0,2,100,4|8|0,0:0|0:0|0:0,0:0:0:0:
240,240,124181,1,12,0:0:0:0:
144,312,124515,2,0,P|200:368|280:352,1,150,4|0,0:0|0:0,0:0:0:0:
256,128,125681,6,8,L|256:248,2,100
424,56,126870,2,0,P|488:160|392:240,1,250,4|0,0:0|0:0,0:0:0:0:
264,344,128203,2,0,B|192:240|192:240|56:208,1,250,4|0,0:0|0:0,0:0:0:0:
248,48,129703,2,0,L|128:72,2,100,0|8|0,0:0|0:0|0:0,0:0:0:0:
112,168,130869,2,0,P|288:184|320:80,1,300,4|0,0:0|0:0,0:0:0:0:
448,232,132369,6,0,L|488:88,2,150,4|4|8,0:0|0:0|0:0,0:0:0:0:
328,208,133694,2,0,L|288:352,2,150,4|4|8,0:0|0:0|0:0,0:0:0:0:
288,96,135020,2,0,P|192:88|128:184,1,200,4|0,0:0|0:0,0:0:0:0:
128,344,136181,1,12,0:0:0:0:
32,272,136512,2,0,L|184:208,1,150,12|0,0:0|0:0,0:0:0:0:
256,128,137672,6,0,P|260:292|264:128,1,500
256,368,141679,6,8,L|256:256,3,100
144,224,143012,2,0,P|136:120|216:80,1,200,4|0,0:0|0:0,0:0:0:0:
320,32,144012,2,0,L|352:96,1,50,8|4,0:0|0:0,0:0:0:0:
392,248,144678,2,0,P|448:272|496:256,2,100,8|0|8,0:0|0:0|0:0,0:0:0:0:
336,352,145678,2,0,L|240:280,1,100,0|8,0:0|0:0,0:0:0:0:
144,344,146345,2,0,L|136:224,1,100,0|8,0:0|0:0,0:0:0:0:
176,72,147178,6,0,P|129:64|97:112,2,100,12|12|4,0:0|0:0|0:0,0:0:0:0:
344,136,148344,6,0,L|456:112,2,100,4|8|0,0:0|0:0|0:0,0:0:0:0:
384,248,149344,2,0,P|403:262|411:286,1,50,8|4,0:0|0:0,0:0:0:0:
256,192,150011,2,0,L|232:80,2,100,8|0|8,0:0|0:0|0:0,0:0:0:0:
136,208,151011,2,0,L|160:320,2,100,0|8|0,0:0|0:0|0:0,0:0:0:0:
80,104,152011,2,0,P|98:87|122:83,1,50,8|4,0:0|0:0,0:0:0:0:
24,232,152677,5,8,0:0:0:0:
136,272,153011,2,0,L|192:256,1,50
272,336,153511,2,0,P|408:296|384:208,1,250
216,216,154844,2,0,L|296:72,1,150
176,56,155677,2,0,L|144:8,2,50,0|0|8,0:0|0:0|0:0,0:0:0:0:
176,168,156344,2,0,P|112:136|40:160,2,150,4|4|8,0:0|0:0|0:0,0:0:0:0:
120,272,157692,2,0,P|184:303|256:279,2,150,4|4|8,0:0|0:0|0:0,0:0:0:0:
144,152,159022,6,0,L|48:88,2,100,4|8|0,0:0|0:0|0:0,0:0:0:0:
320,152,160188,1,12,0:0:0:0:
288,32,160521,2,0,P|368:32|424:96,1,150,12|2,0:0|0:0,0:0:0:0:
256,256,161688,6,0,L|304:368,2,100,4|8|0,0:0|0:0|0:0,0:0:0:0:
160,104,162854,1,12,0:0:0:0:
56,48,163188,2,0,P|32:128|80:184,1,150,12|0,0:0|0:0,0:0:0:0:
240,344,164354,6,8,L|192:256,1,100
312,248,165016,2,8,L|264:160,1,100
256,40,165679,1,8,0:0:0:0:
