osu file format v14

[General]
AudioFilename: audio.mp3
AudioLeadIn: 0
PreviewTime: 60011
Countdown: 0
SampleSet: Soft
StackLeniency: 0.2
Mode: 0
LetterboxInBreaks: 0
WidescreenStoryboard: 1

[Editor]
Bookmarks: 4638,6260,11449,21828,23855,24422,26936,28638,29287,29611,31719,31963,34152,34882,39909,42584,45179,50368,52963,54260,55557,58152,62044,62692
DistanceSpacing: 0.9
BeatDivisor: 4
GridSize: 32
TimelineZoom: 2.5

[Metadata]
Title:Anime o Katare! ~Animegatari Doukoukai no Thema~
TitleUnicode:アニメを語レ!~アニメガタリ同好会のテーマ~
Artist:Maya(CV.Minase Inori) & Erika(CV.Inami Anju)
ArtistUnicode:マヤ(CV.水瀬いのり)&エリカ(CV.伊波杏樹)
Creator:Antares-
Version:anime lol
Source:アニメガタリ
Tags:Anime-Gatari animegatari W-Toon Studio
BeatmapID:1565419
BeatmapSetID:742125

[Difficulty]
HPDrainRate:5
CircleSize:2
OverallDifficulty:8.5
ApproachRate:9.5
SliderMultiplier:2.52
SliderTickRate:1

[Events]
//Background and Video events
0,0,"BG.jpg",0,0
//Break Periods
//Storyboard Layer 0 (Background)
//Storyboard Layer 1 (Fail)
//Storyboard Layer 2 (Pass)
//Storyboard Layer 3 (Foreground)
//Storyboard Sound Samples

[TimingPoints]
-226,324.324324324324,4,2,2,32,1,0
422,-100,4,2,2,32,0,0
1071,-108.695652173913,4,2,2,52,0,0
1719,-57.1428571428571,4,2,2,52,0,0
3017,-54.3478260869565,4,2,2,52,0,0
3341,-108.695652173913,4,2,2,52,0,0
4314,-66.6666666666667,4,2,2,52,0,0
5611,-54.3478260869565,4,2,2,52,0,0
5936,-108.695652173913,4,2,2,52,0,0
6909,-50,4,2,2,62,0,0
7557,-108.695652173913,4,2,2,52,0,0
8206,-54.3478260869565,4,2,2,52,0,0
8530,-108.695652173913,4,2,2,52,0,0
8855,-50,4,2,2,52,0,0
9179,-151.515151515152,4,2,2,52,0,0
9503,-50,4,2,2,52,0,0
9828,-151.515151515152,4,2,2,52,0,0
10801,-200,4,2,2,52,0,0
11125,-75.7575757575758,4,2,2,62,0,0
11368,-75.7575757575758,4,2,2,5,0,0
11449,-98.0392156862745,4,2,2,62,0,0
13719,-50,4,2,2,62,0,0
14044,-98.0392156862745,4,2,2,62,0,0
15828,-66.6666666666667,4,2,2,62,0,0
16314,-50,4,2,2,62,0,0
16557,-81.9672131147541,4,2,2,5,0,0
16638,-98.0392156862745,4,2,2,62,0,0
18909,-50,4,2,2,62,0,0
19233,-98.0392156862745,4,2,2,62,0,0
21017,-66.6666666666667,4,2,2,62,0,0
21503,-50,4,2,2,62,0,0
21746,-81.9672131147541,4,2,2,5,0,0
21827,-200,4,2,2,62,0,0
24422,-98.0392156862745,4,2,2,62,0,0
26206,-65.7894736842105,4,2,2,62,0,0
27017,-98.0392156862745,4,2,2,62,0,0
29611,-138.888888888889,4,2,2,62,0,0
29855,-138.888888888889,4,2,2,5,0,0
29936,-138.888888888889,4,2,2,62,0,0
31638,-50,4,2,2,62,0,0
31882,-138.888888888889,4,2,2,62,0,0
34152,-81.9672131147541,4,2,2,62,0,0
34801,-600,4,2,2,42,0,0
35125,-138.888888888889,4,2,2,42,0,0
38368,-138.888888888889,4,2,2,42,0,0
38692,-600,4,2,2,42,0,0
39017,-138.888888888889,4,2,2,42,0,0
39990,-138.888888888889,4,2,2,5,0,0
40152,-175.438596491228,4,2,2,42,0,0
40638,-175.438596491228,4,2,2,5,0,0
40963,-175.438596491228,4,2,2,42,0,0
41936,-175.438596491228,4,2,2,5,0,0
42260,-175.438596491228,4,2,2,42,0,0
44530,-600,4,2,2,42,0,0
44855,-50,4,2,2,42,0,0
45179,-138.888888888889,4,2,2,62,0,0
46152,-58.1395348837209,4,2,2,62,0,0
46476,-138.888888888889,4,2,2,62,0,0
49071,-192.307692307692,4,2,2,62,0,0
50368,-98.0392156862745,4,2,2,62,0,0
51260,-61.7283950617284,4,2,2,62,0,0
51503,-98.0392156862745,4,2,2,62,0,0
52395,-61.7283950617284,4,2,2,62,0,0
52963,-61.7283950617284,4,2,2,62,0,0
60098,-200,4,2,2,62,0,0
60341,-200,4,2,2,5,0,0
60422,-52.0833333333333,4,2,2,62,0,0
60665,-52.0833333333333,4,2,2,5,0,0
60746,-50,4,2,2,72,0,1
67719,-81.9672131147541,4,2,2,72,0,1
70476,-151.515151515152,4,2,2,72,0,1
70719,-161.290322580645,4,2,2,5,0,1
70801,-70.4225352112676,4,2,2,72,0,1
71044,-70.4225352112676,4,2,2,5,0,1
71125,-50,4,2,2,72,0,1
73395,-151.515151515152,4,2,2,72,0,1
73719,-50,4,2,2,72,0,1
75503,-151.515151515152,4,2,2,72,0,1
76314,-100,4,2,2,72,0,1
77611,-81.9672131147541,4,2,2,72,0,1
77773,-81.9672131147541,4,2,2,5,0,1
77855,-81.9672131147541,4,2,2,72,0,1
78017,-81.9672131147541,4,2,2,5,0,1
78098,-81.9672131147541,4,2,2,72,0,1
80855,-133.333333333333,4,2,2,72,0,1
81098,-133.333333333333,4,2,2,5,0,1
81179,-81.9672131147541,4,2,2,72,0,1
81503,-142.857142857143,4,2,2,72,0,0
82152,-50,4,2,2,72,0,0
82801,-108.695652173913,4,2,2,72,0,0
83449,-50,4,2,2,72,0,0
83773,-100,4,2,2,72,0,0
84134,324.324324324324,4,2,2,72,1,0
84134,-62.5,4,2,2,72,0,0
84458,-188.679245283019,4,2,2,72,0,0
84782,-62.5,4,2,2,72,0,0
85106,-188.679245283019,4,2,2,72,0,0
85431,-100,4,2,2,72,0,0
85755,-66.6666666666667,4,2,2,72,0,0
86079,-50,4,2,2,72,0,0
86404,-133.333333333333,4,2,2,72,0,0
86728,-75.7575757575758,4,2,2,32,0,0

[Colours]
Combo1 : 175,253,153
Combo2 : 252,67,169
Combo3 : 131,98,217
Combo4 : 17,234,228

[HitObjects]
106,100,422,5,0,0:0:0:0:
215,164,584,1,0,0:0:0:0:
254,96,665,1,0,0:0:0:0:
293,164,746,1,0,0:0:0:0:
402,100,909,1,0,0:0:0:0:
310,267,1071,6,0,L|178:268,1,115.919996108643
194,267,1395,2,0,L|310:267,1,115.919996108643
172,58,1719,6,0,P|159:193|243:315,1,220.500002102852
331,57,2044,2,0,P|349:164|310:266,1,220.500002102852
310,267,2368,5,0,0:0:0:0:
254,145,2530,1,0,0:0:0:0:
193,267,2692,1,0,0:0:0:0:
193,267,3017,6,0,L|313:267,1,115.919996108643
308,267,3179,2,0,L|193:267,1,115.919996108643
138,145,3341,6,0,L|258:145,1,115.919996108643
446,143,3665,5,0,0:0:0:0:
383,45,3828,1,0,0:0:0:0:
509,241,3990,1,0,0:0:0:0:
198,44,4314,6,0,P|286:27|390:48,1,189.000007209778
13,44,4638,2,0,P|101:61|205:40,1,189.000007209778
197,43,4963,5,0,0:0:0:0:
256,188,5125,1,0,0:0:0:0:
198,333,5287,1,0,0:0:0:0:
197,43,5611,6,0,L|75:43,1,115.919996108643
140,188,5773,2,0,L|255:188,1,115.919996108643
198,333,5936,6,0,L|76:333,1,115.919996108643
332,85,6260,6,0,P|378:166|359:262,1,173.879994162964
368,243,6584,2,0,P|376:158|332:85,1,173.879994162964
128,168,6909,6,0,L|442:266,1,252
128,168,7233,2,0,L|442:266,1,252
368,243,7557,5,0,0:0:0:0:
348,66,7719,1,0,0:0:0:0:
295,324,7882,1,0,0:0:0:0:
295,324,8206,6,0,P|353:282|368:243,1,115.919996108643
368,242,8368,2,0,P|343:294|295:324,1,115.919996108643
274,147,8530,6,0,P|298:95|347:65,1,115.919996108643
295,324,8855,6,0,P|234:341|140:321,1,126
151,157,9017,2,0,P|212:140|306:160,1,126
295,324,9179,6,0,P|234:341|140:321,1,126
151,157,9503,6,0,P|134:96|154:2,1,126
355,44,9665,2,0,P|372:105|352:199,1,126
151,157,9828,6,0,P|134:96|154:2,1,126
355,44,10152,5,0,0:0:0:0:
355,60,10233,1,0,0:0:0:0:
355,76,10314,1,0,0:0:0:0:
355,92,10395,1,0,0:0:0:0:
265,120,10476,5,0,0:0:0:0:
265,136,10557,1,0,0:0:0:0:
265,152,10638,1,0,0:0:0:0:
265,168,10719,1,0,0:0:0:0:
175,196,10801,6,0,L|175:290,1,94.5
354,341,11125,6,0,L|354:90,1,249.479999238647
354,91,11449,6,0,P|280:77|208:106,1,128.520000784424
150,178,11773,1,0,0:0:0:0:
194,204,11855,1,0,0:0:0:0:
244,215,11936,1,0,0:0:0:0:
292,199,12017,1,0,0:0:0:0:
354,91,12098,6,0,P|280:77|208:106,1,128.520000784424
76,240,12422,1,0,0:0:0:0:
73,120,12584,2,0,P|54:176|106:264,1,128.520000784424
162,323,12909,1,0,0:0:0:0:
300,253,13071,5,0,0:0:0:0:
325,208,13152,1,0,0:0:0:0:
406,245,13233,5,0,0:0:0:0:
431,200,13314,1,0,0:0:0:0:
512,237,13395,5,0,0:0:0:0:
366,33,13557,1,0,0:0:0:0:
201,92,13719,6,0,P|159:227|124:86,1,378
366,33,14044,6,0,L|366:177,1,128.520000784424
269,267,14368,1,0,0:0:0:0:
269,222,14449,1,0,0:0:0:0:
269,177,14530,1,0,0:0:0:0:
269,132,14611,1,0,0:0:0:0:
366,33,14692,6,0,L|366:177,1,128.520000784424
413,348,15017,1,0,0:0:0:0:
269,267,15179,2,0,P|189:236|127:256,1,128.520000784424
12,369,15503,2,0,P|34:301|12:209,1,128.520000784424
11,96,15828,6,0,P|184:153|412:81,1,378.000014419556
410,230,16314,6,0,P|451:94|493:231,1,378
358,338,16638,6,0,P|274:351|222:335,1,128.520000784424
152,230,16963,1,0,2:0:0:0:
197,211,17045,1,0,2:0:0:0:
247,209,17126,1,0,2:0:0:0:
293,232,17207,1,0,2:0:0:0:
358,338,17287,6,0,P|296:354|234:339,1,128.520000784424,0|0,2:0|2:0,2:0:0:0:
67,173,17611,1,0,0:0:0:0:
71,294,17773,2,0,P|50:227|79:157,1,128.520000784424
160,67,18098,1,0,0:0:0:0:
248,183,18260,5,0,0:0:0:0:
273,138,18341,1,0,0:0:0:0:
354,175,18422,5,0,0:0:0:0:
379,130,18503,1,0,0:0:0:0:
460,167,18584,5,0,0:0:0:0:
271,21,18746,1,0,0:0:0:0:
405,251,18909,6,0,P|413:364|328:238,1,378
460,38,19233,6,0,L|460:201,1,128.520000784424
357,311,19557,1,0,0:0:0:0:
356,266,19638,1,0,0:0:0:0:
354,221,19719,1,0,0:0:0:0:
354,175,19801,1,0,0:0:0:0:
460,38,19882,6,0,L|460:201,1,128.520000784424
498,358,20206,1,0,0:0:0:0:
356,266,20368,2,0,P|287:244|229:255,1,128.520000784424
48,318,20692,2,0,P|81:226|61:158,1,128.520000784424
86,53,21017,6,0,P|218:81|372:40,1,283.500010814667
457,51,21341,5,0,0:0:0:0:
418,119,21422,1,0,0:0:0:0:
434,193,21503,2,0,P|531:217|394:269,1,378
335,74,21828,6,0,L|327:37,3,31.5
289,33,22152,2,0,P|331:56|225:93,1,252
226,104,22882,1,0,0:0:0:0:
221,125,22963,1,0,0:0:0:0:
205,137,23044,1,0,0:0:0:0:
184,143,23125,5,0,0:0:0:0:
210,201,23206,1,0,0:0:0:0:
204,262,23287,1,0,0:0:0:0:
154,308,23368,1,0,0:0:0:0:
86,311,23449,2,0,P|151:299|203:315,1,94.5
211,319,23773,5,0,0:0:0:0:
20,42,24098,5,0,0:0:0:0:
224,94,24422,6,0,P|288:106|353:91,1,128.520000784424
349,92,24746,1,0,0:0:0:0:
350,310,24909,1,0,0:0:0:0:
304,202,25071,5,0,0:0:0:0:
270,210,25233,1,0,0:0:0:0:
349,92,25395,5,0,0:0:0:0:
383,98,25557,1,0,0:0:0:0:
350,310,25719,5,0,0:0:0:0:
438,255,25882,1,0,0:0:0:0:
255,272,26044,1,0,0:0:0:0:
488,379,26206,6,0,P|485:295|447:399,1,287.279996493164
350,310,26530,5,0,0:0:0:0:
394,284,26611,1,0,0:0:0:0:
438,255,26692,1,0,0:0:0:0:
255,272,26855,1,0,0:0:0:0:
438,255,27017,5,0,0:0:0:0:
459,156,27179,1,0,0:0:0:0:
213,74,27341,5,0,0:0:0:0:
234,173,27503,1,0,0:0:0:0:
480,57,27665,5,0,0:0:0:0:
383,88,27827,1,0,0:0:0:0:
255,272,27990,5,0,0:0:0:0:
213,74,28152,1,0,0:0:0:0:
255,272,28314,5,0,0:0:0:0:
238,282,28395,1,0,0:0:0:0:
219,285,28476,1,0,0:0:0:0:
199,283,28557,1,0,0:0:0:0:
181,274,28638,1,0,0:0:0:0:
169,258,28719,1,0,0:0:0:0:
158,241,28801,6,0,L|181:169,1,64.2600003922119
55,246,28963,2,0,L|74:307,1,64.2600003922119
273,178,29125,2,0,L|296:106,1,64.2600003922119
59,87,29287,2,0,L|78:148,1,64.2600003922119
158,241,29449,5,2,0:0:0:0:
270,309,29530,1,2,0:0:0:0:
384,245,29611,6,0,P|444:216|512:217,1,136.080003322266,2|0,0:0|0:0,0:0:0:0:
473,335,29936,1,0,0:0:0:0:
349,119,30098,6,0,P|382:177|383:245,1,136.080003322266
260,209,30422,1,0,0:0:0:0:
295,14,30584,1,0,0:0:0:0:
383,245,30746,6,0,P|336:210|247:215,1,136.080003322266
293,326,31071,1,0,0:0:0:0:
232,104,31233,1,0,0:0:0:0:
203,375,31395,6,0,L|103:348,1,90.7200022148438
57,264,31638,6,0,P|99:324|114:214,1,252
46,173,31882,5,0,0:0:0:0:
364,206,32044,5,0,0:0:0:0:
293,133,32206,1,0,0:0:0:0:
264,230,32368,1,0,0:0:0:0:
506,352,32531,5,0,0:0:0:0:
435,279,32693,1,0,0:0:0:0:
406,376,32855,1,0,0:0:0:0:
464,182,33017,5,0,0:0:0:0:
478,143,33098,1,0,0:0:0:0:
264,230,33260,1,0,0:0:0:0:
278,269,33341,1,0,0:0:0:0:
294,132,33503,5,0,0:0:0:0:
239,365,33665,1,0,0:0:0:0:
223,59,33827,1,0,0:0:0:0:
194,156,33989,1,0,0:0:0:0:
478,143,34152,5,0,0:0:0:0:
223,59,34314,1,0,0:0:0:0:
190,102,34395,1,0,0:0:0:0:
194,156,34476,2,0,P|155:151|83:165,1,76.8599968334657
32,291,34638,2,0,P|71:286|143:300,1,76.8599968334657
239,365,34801,5,0,0:0:0:0:
476,326,35125,6,0,P|496:248|473:183,1,120.960002953125
498,94,35449,2,0,P|478:172|501:237,1,120.960002953125
371,255,35773,2,0,P|315:232|276:187,1,120.960002953125
76,168,36098,6,0,P|153:146|198:93,1,120.960002953125
276,187,36422,2,0,P|218:130|150:118,1,120.960002953125
192,3,36746,2,0,P|172:81|195:146,1,120.960002953125
276,187,37071,5,0,0:0:0:0:
81,73,37233,1,0,0:0:0:0:
276,187,37395,6,0,P|347:201|400:184,1,120.960002953125
451,87,37719,2,0,P|403:141|391:195,1,120.960002953125
449,288,38044,2,0,P|425:219|384:182,1,120.960002953125
135,167,38368,2,0,P|109:206|132:306,1,120.960002953125
225,227,38692,6,0,L|190:240,1,31.5
292,300,39017,6,0,P|318:261|295:161,1,120.960002953125
247,116,39341,2,0,P|221:155|244:255,1,120.960002953125
292,300,39665,6,0,L|473:278,1,181.440004429688
365,338,40152,6,0,P|362:249|299:318,1,215.459997369873
293,300,40963,5,0,0:0:0:0:
293,300,41125,1,0,0:0:0:0:
83,223,41449,6,0,P|100:136|164:197,1,215.459997369873
165,198,42260,5,0,0:0:0:0:
165,198,42422,1,0,0:0:0:0:
165,198,42584,6,0,B|202:268|202:268|239:196|239:196|314:186|314:186|257:128|257:128|272:53|272:53|199:89|199:89|131:52|131:52|144:132|144:132|87:184|87:184|166:198,1,787.5
382,120,44530,6,0,L|344:87,1,31.5
380,282,44855,6,0,P|396:153|474:286,1,378
382,120,45179,5,0,0:0:0:0:
286,146,45341,1,0,0:0:0:0:
145,33,45503,5,0,0:0:0:0:
382,120,45665,1,0,0:0:0:0:
234,322,45828,6,0,P|202:245|214:157,1,136.080003322266
23,48,46152,6,0,P|88:163|93:367,1,325.080004960327
234,322,46476,6,0,L|165:359,1,45.3600011074219
355,314,46638,2,0,L|313:380,1,45.3600011074219
455,246,46801,2,0,L|452:324,1,45.3600011074219
491,125,46963,2,0,L|527:194,1,45.3600011074219
355,314,47125,5,0,0:0:0:0:
491,125,47287,1,0,0:0:0:0:
234,322,47449,5,0,0:0:0:0:
455,246,47611,1,0,0:0:0:0:
131,267,47773,6,0,P|70:249|0:268,1,136.080003322266
64,370,48098,1,0,0:0:0:0:
228,156,48260,1,0,0:0:0:0:
245,336,48422,5,0,0:0:0:0:
270,291,48503,1,0,0:0:0:0:
351,328,48584,5,0,0:0:0:0:
376,283,48665,1,0,0:0:0:0:
457,320,48746,5,0,0:0:0:0:
228,156,48909,1,0,0:0:0:0:
228,156,49072,6,0,L|273:146,1,32.7599998000488
191,37,49234,2,0,L|200:82,1,32.7599998000488
307,1,49396,2,0,L|261:10,1,32.7599998000488
343,119,49558,2,0,L|333:73,1,32.7599998000488
109,190,49720,6,0,L|118:235,1,32.7599998000488
228,156,49882,2,0,L|182:165,1,32.7599998000488
262,271,50044,2,0,L|252:225,1,32.7599998000488
145,306,50206,2,0,L|190:296,1,32.7599998000488
95,91,50368,6,0,L|231:65,1,128.520000784424
290,133,50611,1,0,0:0:0:0:
196,163,50692,2,0,L|171:227,1,64.2600003922119
237,330,50855,2,0,L|261:271,1,64.2600003922119
221,66,51017,6,0,L|95:91,1,128.520000784424
36,243,51260,6,0,B|79:172|79:172|49:10,1,204.120004983399
135,263,51503,2,0,L|153:331,1,64.2600003922119
322,138,51665,6,0,L|195:162,1,128.520000784424
135,263,51909,1,0,0:0:0:0:
249,290,51990,2,0,L|316:276,1,64.2600003922119
37,338,52152,2,0,L|37:205,1,128.520000784424
280,153,52395,6,0,B|244:237|244:237|86:273,1,204.120004983399
37,209,52638,2,0,B|73:125|73:125|231:89,1,204.120004983399
374,95,52882,1,0,0:0:0:0:
389,120,52963,6,0,L|422:23,1,102.060002491699
494,104,53125,1,0,0:0:0:0:
494,126,53206,1,0,0:0:0:0:
446,206,53287,6,0,P|396:223|339:210,1,102.060002491699
169,146,53449,2,0,P|121:140|46:165,1,102.060002491699
84,365,53611,6,0,L|127:243,1,102.060002491699
20,230,53773,1,0,0:0:0:0:
24,249,53854,1,0,0:0:0:0:
117,268,53936,6,0,P|177:283|246:255,1,102.060002491699
348,214,54098,2,0,P|395:196|445:205,1,102.060002491699
407,299,54260,5,0,0:0:0:0:
338,105,54422,5,0,0:0:0:0:
350,88,54503,1,0,0:0:0:0:
362,71,54584,1,0,0:0:0:0:
209,115,54746,5,0,0:0:0:0:
221,98,54827,1,0,0:0:0:0:
233,81,54908,1,0,0:0:0:0:
78,125,55071,5,0,0:0:0:0:
90,108,55152,1,0,0:0:0:0:
102,91,55233,1,0,0:0:0:0:
114,150,55314,1,0,0:0:0:0:
105,220,55395,1,0,0:0:0:0:
66,279,55476,1,0,0:0:0:0:
34,215,55557,5,0,0:0:0:0:
34,215,55882,1,0,0:0:0:0:
34,215,56206,5,0,0:0:0:0:
34,215,56530,1,0,0:0:0:0:
302,317,56855,5,0,0:0:0:0:
34,215,57179,1,0,0:0:0:0:
478,215,57503,5,0,0:0:0:0:
210,317,57827,1,0,0:0:0:0:
445,116,57990,1,0,0:0:0:0:
412,17,58152,1,0,0:0:0:0:
210,317,58638,5,0,0:0:0:0:
243,218,58800,1,0,0:0:0:0:
463,276,59287,5,0,0:0:0:0:
340,239,59449,2,0,P|334:296|357:341,1,102.060002491699
478,162,59611,2,0,P|482:111|464:63,1,102.060002491699
308,146,59773,2,0,P|265:173|242:218,1,102.060002491699
492,369,59936,2,0,P|467:329|463:275,1,102.060002491699
465,64,60098,6,0,L|365:43,1,94.5
413,139,60422,6,0,B|464:64|464:64|519:139|521:258|441:295|293:294,1,362.880008859375
132,247,60746,6,0,P|105:170|34:134,1,126,0|0,0:0|0:0,0:0:0:0:
160,89,60909,2,0,P|240:104|306:60,1,126,0|0,0:0|0:0,0:0:0:0:
132,247,61071,2,0,P|105:170|34:134,1,126,0|0,0:2|0:0,0:0:0:0:
160,89,61233,2,0,P|240:104|306:60,1,126,0|0,0:0|0:0,0:0:0:0:
490,136,61395,6,0,P|436:197|441:277,1,126,0|0,0:0|0:0,0:0:0:0:
339,190,61558,2,0,P|312:113|241:77,1,126,0|0,0:0|0:0,0:0:0:0:
490,136,61719,2,0,P|436:197|441:277,1,126,0|0,0:2|0:0,0:0:0:0:
339,190,61883,2,0,P|312:113|241:77,1,126,0|0,0:0|0:0,0:0:0:0:
124,128,62044,6,0,P|172:169|262:180,1,126,0|0,0:0|0:0,0:0:0:0:
339,190,62206,2,0,P|310:260|255:291,1,126,0|0,0:0|0:0,0:0:0:0:
124,128,62368,2,0,P|172:169|262:180,1,126,0|0,0:2|0:0,0:0:0:0:
339,190,62530,2,0,P|310:260|255:291,1,126,0|0,0:0|0:0,0:0:0:0:
232,72,62693,6,0,P|184:113|94:124,1,126
13,134,62854,2,0,P|42:204|97:235,1,126
232,72,63017,2,0,P|184:113|94:124,1,126,0|0,0:2|0:0,0:0:0:0:
13,134,63178,2,0,P|42:204|97:235,1,126,0|0,0:0|0:0,0:0:0:0:
236,194,63341,6,0,P|314:158|383:169,1,126,0|0,0:0|0:0,0:0:0:0:
351,370,63503,2,0,P|315:292|326:223,1,126,0|0,0:0|0:0,0:0:0:0:
236,194,63665,2,0,P|314:158|383:169,1,126,0|0,0:2|0:0,0:0:0:0:
351,370,63827,2,0,P|315:292|326:223,1,126,0|0,0:0|0:0,0:0:0:0:
216,90,63990,6,0,P|139:125|65:103,1,126,0|0,0:0|0:0,0:0:0:0:
121,217,64152,2,0,P|170:270|177:356,1,126,0|0,0:0|0:0,0:0:0:0:
216,90,64314,2,0,P|139:125|65:103,1,126,0|0,0:2|0:0,0:0:0:0:
121,217,64476,2,0,P|170:270|177:356,1,126,0|0,0:0|0:0,0:0:0:0:
60,322,64638,5,0,0:0:0:0:
266,188,64801,1,0,0:0:0:0:
472,54,64963,1,0,0:0:0:0:
54,181,65125,2,0,P|121:24|77:191,1,504,0|0,0:0|0:0,0:0:0:0:
100,107,65611,1,0,0:0:0:0:
458,146,65773,1,0,0:0:0:0:
100,107,65936,5,0,0:0:0:0:
249,218,66098,2,0,B|323:277|323:277|365:198|334:117,2,252,0|0|0,0:0|0:0|0:0,0:0:0:0:
173,57,66584,1,0,0:0:0:0:
342,68,66746,1,0,0:0:0:0:
404,80,66828,1,0,0:0:0:0:
336,124,66909,1,0,0:0:0:0:
310,181,66990,1,0,0:0:0:0:
322,242,67071,1,0,0:0:0:0:
371,280,67152,1,0,0:0:0:0:
402,193,67233,5,0,0:0:0:0:
236,361,67476,5,0,0:0:0:0:
404,80,67719,5,0,0:0:0:0:
230,111,67882,1,0,0:0:0:0:
232,103,67963,1,0,0:0:0:0:
234,95,68044,1,0,0:0:0:0:
84,77,68206,1,0,0:0:0:0:
64,135,68287,1,0,0:0:0:0:
88,191,68368,1,0,0:0:0:0:
102,250,68449,1,0,0:0:0:0:
80,307,68530,6,0,P|158:288|245:314,1,153.719993666931,0|0,0:0|0:0,0:0:0:0:
325,333,68773,2,0,P|409:360|495:339,1,153.719993666931,0|0,0:0|0:0,0:0:0:0:
258,137,69017,1,0,0:0:0:0:
80,307,69179,2,0,P|158:288|245:314,1,153.719993666931,0|0,0:0|0:0,0:0:0:0:
325,333,69422,2,0,P|409:360|495:339,1,153.719993666931,0|0,0:0|0:0,0:0:0:0:
493,238,69665,1,0,0:0:0:0:
470,181,69746,1,0,0:0:0:0:
475,119,69828,5,0,0:0:0:0:
353,49,69990,1,0,0:0:0:0:
332,106,70071,1,0,0:0:0:0:
206,158,70233,1,0,0:0:0:0:
185,101,70314,1,0,0:0:0:0:
40,115,70476,6,0,P|30:177|54:244,1,124.739999619324
383,255,70801,2,0,P|278:232|357:304,1,268.379986485993,0|0,0:0|0:0,0:0:0:0:
48,237,71125,6,0,P|35:131|72:69,1,126,0|0,0:0|0:0,0:0:0:0:
125,171,71287,2,0,P|150:120|233:83,1,126,0|0,0:0|0:0,0:0:0:0:
345,211,71449,6,0,P|288:214|214:161,1,126
270,0,71611,2,0,P|301:47|292:137,1,126
125,171,71773,2,0,P|149:120|233:83,1,126
345,211,71936,2,0,P|288:214|214:161,1,126
270,0,72098,6,0,P|301:47|292:137,1,126
125,171,72260,2,0,P|149:120|233:83,1,126
345,211,72422,2,0,P|288:214|214:161,1,126
270,0,72584,2,0,P|301:47|292:137,1,126
125,171,72746,6,0,P|149:120|233:83,1,126
345,211,72909,2,0,P|288:214|214:161,1,126
270,0,73071,2,0,P|301:47|292:137,1,126
125,171,73233,2,0,P|149:120|233:83,1,126
345,211,73395,6,0,P|288:214|214:161,1,126
358,113,73719,6,0,P|407:131|444:192,1,126
436,369,73882,2,0,P|331:388|240:339,1,126
214,361,74044,2,0,P|140:304|122:234,1,126,0|0,0:0|0:0,0:0:0:0:
97,180,74206,2,0,P|101:86|148:30,1,126,0|0,0:0|0:0,0:0:0:0:
127,276,74368,6,0,P|160:329|214:361,1,126,0|0,0:0|0:0,0:0:0:0:
7,116,74530,2,0,P|99:62|201:77,1,126,0|0,0:0|0:0,0:0:0:0:
216,64,74692,2,0,P|305:92|345:151,1,126,0|0,0:0|0:0,0:0:0:0:
388,194,74854,2,0,P|416:283|390:351,1,126,0|0,0:0|0:0,0:0:0:0:
325,113,75017,6,0,P|277:74|216:64,1,126
508,239,75179,2,0,P|426:307|323:311,1,126,0|0,0:0|0:0,0:0:0:0:
310,326,75341,2,0,P|217:313|166:262,1,126
80,110,75503,6,0,P|87:172|127:232,1,124.739999619324
200,126,75828,2,0,L|208:68,1,41.5799998731079
306,12,75990,2,0,L|311:53,1,41.5799998731079,0|0,0:0|0:0,0:0:0:0:
318,204,76152,2,0,L|327:153,1,41.5799998731079
420,210,76314,6,0,P|370:294|240:267,1,189
200,126,76638,1,0,0:0:0:0:
286,301,76801,5,0,0:0:0:0:
213,278,76882,1,0,0:0:0:0:
141,254,76963,1,0,0:0:0:0:
342,277,77125,5,0,0:0:0:0:
269,254,77206,1,0,0:0:0:0:
197,230,77287,1,0,0:0:0:0:
397,249,77449,5,0,0:0:0:0:
324,226,77530,1,0,0:0:0:0:
252,202,77611,1,0,0:0:0:0:
510,371,77855,5,0,0:0:0:0:
505,15,78098,5,0,0:0:0:0:
302,107,78260,1,0,0:0:0:0:
300,99,78341,1,0,0:0:0:0:
298,91,78422,1,0,0:0:0:0:
448,73,78584,1,0,0:0:0:0:
468,131,78665,1,0,0:0:0:0:
444,187,78746,1,0,0:0:0:0:
430,246,78827,1,0,0:0:0:0:
452,303,78908,6,0,P|374:284|287:310,1,153.719993666931,0|0,0:0|0:0,0:0:0:0:
212,335,79151,2,0,P|136:355|50:334,1,153.719993666931,0|0,0:0|0:0,0:0:0:0:
274,133,79395,1,0,0:0:0:0:
452,303,79557,2,0,P|374:284|287:310,1,153.719993666931,0|0,0:0|0:0,0:0:0:0:
212,335,79801,2,0,P|136:355|50:334,1,153.719993666931
22,243,80043,1,0,0:0:0:0:
50,188,80124,1,0,0:0:0:0:
51,125,80206,5,0,0:0:0:0:
179,45,80368,1,0,0:0:0:0:
191,105,80449,1,0,0:0:0:0:
325,163,80611,1,0,0:0:0:0:
337,103,80692,1,0,0:0:0:0:
492,111,80855,6,0,P|509:195|481:275,1,141.750005407334
337,103,81179,2,0,P|259:70|319:152,1,230.579990500397
382,237,81503,6,0,P|317:281|257:275,1,132.299995962525
265,278,81828,2,0,P|330:277|382:237,1,132.299995962525
346,39,82152,6,0,L|265:282,1,252
346,39,82476,2,0,L|265:282,1,252
266,278,82801,5,0,0:0:0:0:
145,250,82963,1,0,0:0:0:0:
28,275,83125,1,0,0:0:0:0:
266,278,83449,6,0,L|236:118,1,126
122,126,83611,2,0,L|145:250,1,126
28,275,83773,6,0,L|-1:115,1,126
58,53,84134,6,0,P|111:30|179:49,1,100.8
424,82,84296,2,0,P|371:105|303:86,1,100.8
58,53,84458,6,0,P|111:30|179:49,1,100.8
117,384,84782,6,0,P|94:331|113:263,1,100.8
152,34,84944,2,0,P|175:87|156:155,1,100.8
117,384,85106,6,0,P|94:331|113:263,1,100.8
152,34,85431,6,0,P|210:79|130:91,1,189
152,34,85755,6,0,P|222:88|105:92,1,283.500010814667
152,34,86079,6,0,P|222:88|74:79,1,378
152,34,86404,6,0,L|361:34,1,189.000007209778
