osu file format v14

[General]
AudioFilename: audio.mp3
AudioLeadIn: 0
PreviewTime: 60011
Countdown: 0
SampleSet: Soft
StackLeniency: 0.7
Mode: 0
LetterboxInBreaks: 0
WidescreenStoryboard: 0

[Editor]
Bookmarks: 20686
DistanceSpacing: 1.2
BeatDivisor: 4
GridSize: 32
TimelineZoom: 1.9

[Metadata]
Title:Anime o Katare! ~Animegatari Doukoukai no Thema~
TitleUnicode:アニメを語レ!~アニメガタリ同好会のテーマ~
Artist:Maya(CV.Minase Inori) & Erika(CV.Inami Anju)
ArtistUnicode:マヤ(CV.水瀬いのり)&エリカ(CV.伊波杏樹)
Creator:Sotarks
Version:Sh1n1's Hard
Source:アニメガタリ
Tags:Anime-Gatari animegatari W-Toon Studio kalibe haruto haruto_aizawa akitoshi corinn -Sh1n1- shini irohas mugiwarasekai milan- toybot
BeatmapID:1373441
BeatmapSetID:644332

[Difficulty]
HPDrainRate:5
CircleSize:4
OverallDifficulty:6
ApproachRate:7
SliderMultiplier:1.3
SliderTickRate:1

[Events]
//Background and Video events
0,0,"BG.jpg",0,0
//Break Periods
//Storyboard Layer 0 (Background)
//Storyboard Layer 1 (Fail)
//Storyboard Layer 2 (Pass)
//Storyboard Layer 3 (Foreground)
//Storyboard Sound Samples

[TimingPoints]
-226,324.324324324324,4,2,2,32,1,0
422,-100,4,2,2,32,0,0
1071,-100,4,2,2,52,0,0
6909,-100,4,2,2,62,0,0
7557,-100,4,2,2,52,0,0
8530,-100,4,2,2,52,0,0
8773,-100,4,2,2,5,0,0
8855,-100,4,2,2,52,0,0
11125,-100,4,2,2,62,0,0
11368,-100,4,2,2,5,0,0
11449,-100,4,2,2,62,0,0
21828,-133.333333333333,4,2,2,62,0,0
23125,-100,4,2,2,62,0,0
24422,-100,4,2,2,62,0,0
29611,-100,4,2,2,62,0,0
34801,-111.111111111111,4,2,2,62,0,0
40152,-111.111111111111,4,2,2,42,0,0
45179,-100,4,2,2,62,0,0
45746,-100,4,2,2,5,0,0
45828,-100,4,2,2,62,0,0
48017,-100,4,2,2,5,0,0
48098,-100,4,2,2,62,0,0
51665,-100,4,2,2,62,0,0
52963,-100,4,2,2,62,0,0
54260,-100,4,2,2,62,0,0
55557,-100,4,2,2,62,0,0
55801,-100,4,2,2,5,0,0
55882,-100,4,2,2,62,0,0
56125,-100,4,2,2,5,0,0
56206,-100,4,2,2,62,0,0
56449,-100,4,2,2,5,0,0
56530,-100,4,2,2,62,0,0
56773,-100,4,2,2,5,0,0
56855,-100,4,2,2,62,0,0
57098,-100,4,2,2,5,0,0
57179,-100,4,2,2,62,0,0
57422,-100,4,2,2,5,0,0
57503,-100,4,2,2,62,0,0
57746,-100,4,2,2,5,0,0
57828,-100,4,2,2,62,0,0
57909,-100,4,2,2,5,0,0
57990,-100,4,2,2,62,0,0
60098,-100,4,2,2,62,0,0
60341,-100,4,2,2,5,0,0
60422,-100,4,2,2,62,0,0
60665,-100,4,2,2,5,0,0
60746,-100,4,2,2,72,0,1
67395,-100,4,2,2,5,0,1
67476,-100,4,2,2,72,0,1
67638,-100,4,2,2,5,0,1
67719,-100,4,2,2,72,0,1
69990,-100,4,2,2,5,0,1
70071,-100,4,2,2,72,0,1
70233,-100,4,2,2,5,0,1
70314,-100,4,2,2,72,0,1
70395,-100,4,2,2,5,0,1
70476,-100,4,2,2,72,0,1
70719,-100,4,2,2,5,0,1
70801,-100,4,2,2,72,0,1
71044,-100,4,2,2,5,0,1
71125,-100,4,2,2,72,0,1
73395,-100,4,2,2,72,0,1
73719,-100,4,2,2,72,0,1
75503,-100,4,2,2,72,0,1
77611,-100,4,2,2,72,0,1
78584,-100,4,2,2,72,0,1
80206,-100,4,2,2,72,0,1
81503,-100,4,2,2,72,0,0
82152,-100,4,2,2,72,0,0
82801,-100,4,2,2,72,0,0
83773,-100,4,2,2,72,0,0
84134,324.324324324324,4,2,2,72,1,0
86728,-100,4,2,2,32,0,0

[Colours]
Combo1 : 175,253,153
Combo2 : 252,67,169
Combo3 : 131,98,217
Combo4 : 17,234,228

[HitObjects]
35,286,422,5,8,3:0:0:0:
90,231,584,2,0,L|76:187,2,32.5,8|8|12,3:0|3:0|0:0,0:0:0:0:
223,312,1071,6,0,L|243:375,2,65,6|0|2,1:0|0:0|1:0,0:0:0:0:
297,175,1719,1,8,1:1:0:0:
297,175,2044,1,8,1:1:0:0:
417,273,2368,6,0,B|493:273,2,65,2|2|2,1:0|1:0|1:0,0:0:0:0:
297,175,3017,1,8,1:1:0:0:
275,100,3179,1,8,1:1:0:0:
299,26,3341,1,8,1:1:0:0:
436,100,3665,6,0,B|500:100,2,65,2|0|2,1:0|0:0|1:0,0:0:0:0:
275,100,4314,1,8,1:1:0:0:
275,100,4638,1,8,1:1:0:0:
174,220,4963,6,0,B|110:220,2,65,2|2|2,1:0|1:0|1:0,0:0:0:0:
329,222,5611,1,8,1:1:0:0:
406,219,5773,1,8,1:1:0:0:
365,152,5935,1,8,1:1:0:0:
374,305,6260,6,0,L|441:304,1,65,6|0,1:0|0:0,0:0:0:0:
498,253,6584,2,0,P|507:217|497:186,1,65,2|0,1:0|0:0,0:0:0:0:
483,114,6909,1,8,0:1:0:0:
483,114,7233,1,8,0:1:0:0:
337,56,7557,6,0,B|272:55,1,65,2|2,1:0|0:1,0:0:0:0:
202,20,7882,2,0,P|193:52|201:89,1,65,2|0,1:0|0:0,0:0:0:0:
259,130,8206,1,8,0:1:0:0:
321,176,8368,1,8,0:1:0:0:
250,208,8530,1,8,0:1:0:0:
155,329,8855,6,0,L|230:317,1,65,2|0,1:0|0:0,0:0:0:0:
288,355,9179,2,0,L|363:343,1,65,2|0,1:0|0:0,0:0:0:0:
428,360,9503,1,8,0:1:0:0:
428,360,9665,1,2,1:0:0:0:
479,300,9828,2,0,P|487:263|475:223,1,65,8|0,0:1|1:0,0:0:0:0:
417,192,10152,6,0,L|423:154,3,32.5,8|0|0|0,0:1|0:0|1:0|1:0,0:0:0:0:
400,127,10476,2,0,L|406:89,3,32.5,8|0|0|0,0:1|0:0|1:0|1:0,0:0:0:0:
384,61,10801,5,2,1:0:0:0:
512,150,11125,1,2,0:0:0:0:
369,40,11449,6,0,L|294:49,1,65,4|0,1:2|0:0,0:0:0:0:
241,97,11773,2,0,L|176:89,1,65,10|0,0:0|0:0,0:0:0:0:
131,155,12098,2,0,P|114:218|127:290,1,130,8|8,3:0|0:0,0:0:0:0:
188,329,12584,6,0,L|252:321,1,65,2|8,0:0|3:0,0:0:0:0:
328,291,12908,2,0,P|360:293|400:307,1,65,2|10,0:0|0:0,0:0:0:0:
471,315,13233,2,0,L|463:183,1,130,2|2,0:0|0:0,0:0:0:0:
455,104,13719,1,10,0:0:0:0:
316,188,14044,6,0,P|283:194|250:187,1,65,2|0,1:2|0:0,0:0:0:0:
171,178,14368,2,0,L|177:248,1,65,10|2,0:0|0:0,0:0:0:0:
97,264,14693,2,0,B|85:127,1,130,8|8,3:0|0:0,0:0:0:0:
77,53,15179,2,0,L|12:44,1,65,2|8,0:0|3:0,0:0:0:0:
150,85,15503,6,0,L|214:76,1,65,2|8,0:0|0:0,0:0:0:0:
295,72,15828,2,0,P|286:36|265:10,2,65,2|8|2,0:0|3:0|0:0,0:0:0:0:
258,144,16314,1,10,0:0:0:0:
262,306,16638,6,0,L|326:312,1,65,6|0,1:2|0:0,0:0:0:0:
390,223,16963,2,0,L|326:230,1,65,8|2,0:0|0:0,0:0:0:0:
244,223,17287,2,0,L|112:207,1,130,8|8,3:0|0:0,0:0:0:0:
47,252,17773,6,0,P|39:291|49:323,1,65,2|8,0:0|3:0,0:0:0:0:
107,366,18097,2,0,L|179:358,1,65,2|10,0:0|0:0,0:0:0:0:
251,341,18422,2,0,B|313:316|313:364|379:340,1,130,2|2,0:0|0:0,0:0:0:0:
347,265,18908,1,10,0:0:0:0:
264,124,19233,6,0,P|258:90|268:57,1,65,2|0,1:2|0:0,0:0:0:0:
339,94,19557,2,0,L|406:83,1,65,10|2,0:0|0:0,0:0:0:0:
479,112,19882,2,0,P|492:177|479:242,1,130,8|8,3:0|0:0,0:0:0:0:
399,240,20368,2,0,L|329:233,1,65,2|8,0:0|3:0,0:0:0:0:
334,123,20692,6,0,L|398:116,1,65,2|8,0:0|0:0,0:0:0:0:
273,179,21017,2,0,L|208:179,1,65,2|8,0:0|3:0,0:0:0:0:
151,237,21341,1,8,0:0:0:0:
151,237,21422,1,0,1:0:0:0:
151,237,21503,2,0,P|143:267|151:303,1,65,2|2,0:0|0:0,0:0:0:0:
215,347,21828,6,0,B|264:364|264:364|329:351|329:351|409:361|409:361|442:333|439:266|404:241|404:241|375:253|346:240,1,390.00001487732,4|0,0:0|1:0,0:0:0:0:
376,164,23287,2,0,L|378:115,2,32.5,8|8|2,3:0|3:0|0:0,0:0:0:0:
228,214,23773,5,8,3:0:0:0:
78,259,24098,1,12,0:0:0:0:
9,107,24422,6,0,P|13:51|82:20,1,130,4|0,0:0|1:0,0:0:0:0:
154,24,24909,1,0,0:0:0:0:
212,79,25071,2,0,L|276:88,1,65,0|0,1:0|0:0,0:0:0:0:
343,43,25395,2,0,L|407:33,1,65,0|0,1:0|0:0,0:0:0:0:
476,75,25719,6,0,P|488:42|484:10,2,65,0|2|0,1:0|0:0|1:0,0:0:0:0:
417,132,26206,2,0,P|400:212|416:257,1,130,2|2,0:0|0:0,0:0:0:0:
437,333,26692,2,0,L|364:333,1,65,0|2,1:0|0:0,0:0:0:0:
297,365,27017,6,0,L|232:365,2,65,4|0|0,1:2|0:0|1:0,0:0:0:0:
307,284,27503,1,0,0:0:0:0:
296,203,27665,2,0,P|292:167|297:137,1,65,0|0,1:0|0:0,0:0:0:0:
312,58,27990,2,0,L|247:52,1,65,0|2,1:0|0:0,0:0:0:0:
169,77,28314,6,0,L|31:65,1,130,0|0,1:0|1:0,0:0:0:0:
60,144,28801,1,0,0:0:0:0:
83,221,28963,2,0,L|77:297,1,65,0|2,1:0|0:0,0:0:0:0:
71,366,29287,2,0,P|39:359|6:356,1,65,0|8,1:0|3:3,0:0:0:0:
144,332,29611,6,0,B|183:325|183:325|279:337,1,130,4|8,0:0|0:0,0:0:0:0:
347,303,30098,2,0,P|363:236|343:172,1,130,2|8,0:0|3:0,0:0:0:0:
312,105,30584,1,8,0:0:0:0:
232,123,30746,6,0,B|197:133|197:133|101:123,1,130,8|8,3:0|3:0,0:0:0:0:
22,113,31233,1,8,0:0:0:0:
8,192,31395,2,0,L|25:324,1,130,2|8,0:0|3:0,0:0:0:0:
96,359,31882,1,8,0:0:0:0:
237,281,32206,6,0,P|268:274|301:282,1,65,8|0,3:0|0:0,0:0:0:0:
373,316,32530,2,0,P|404:323|437:315,1,65,8|0,0:0|0:0,0:0:0:0:
494,259,32855,2,0,L|494:182,1,65,2|8,0:0|3:0,0:0:0:0:
490,112,33179,2,0,B|463:119|463:119|414:112,1,65,8|8,0:0|3:0,0:0:0:0:
345,114,33503,6,0,L|347:180,1,65,0|8,0:0|3:0,0:0:0:0:
265,177,33828,2,0,L|263:111,1,65,8|0,0:0|0:0,0:0:0:0:
199,61,34152,1,8,3:0:0:0:
120,80,34314,1,8,3:0:0:0:
120,80,34395,1,8,3:0:0:0:
120,80,34476,2,0,L|79:79,3,32.5,8|8|8|8,0:0|0:0|0:0|0:0,0:0:0:0:
49,82,34801,6,0,P|27:139|55:186,1,116.999996429443,8|2,3:0|0:0,0:0:0:0:
139,236,35341,1,0,0:0:0:0:
176,223,35449,2,0,B|214:217|214:217|259:223,1,77.999997619629,8|0,0:0|0:0,0:0:0:0:
289,236,35773,1,2,0:0:0:0:
390,236,35990,1,0,1:0:0:0:
427,226,36098,6,0,L|429:148,1,77.999997619629,2|0,0:0|0:0,0:0:0:0:
429,109,36422,2,0,P|385:115|349:108,1,77.999997619629,0|0,1:0|0:0,0:0:0:0:
320,87,36746,2,0,P|276:81|240:88,1,77.999997619629,8|0,0:0|0:0,0:0:0:0:
204,90,37071,1,2,0:0:0:0:
107,119,37287,1,8,0:0:0:0:
90,154,37395,6,0,P|81:191|92:229,1,77.999997619629,8|0,3:0|0:0,0:0:0:0:
119,256,37719,2,0,P|127:293|117:330,1,77.999997619629,2|0,0:0|0:0,0:0:0:0:
105,368,38044,2,0,B|194:361,1,77.999997619629,8|2,0:0|0:0,0:0:0:0:
221,361,38368,1,0,0:0:0:0:
322,357,38584,1,0,1:0:0:0:
355,337,38692,6,0,L|355:259,1,77.999997619629,2|0,0:0|0:0,0:0:0:0:
355,219,39017,1,0,1:0:0:0:
352,117,39233,1,0,1:0:0:0:
313,114,39341,2,0,L|229:122,1,77.999997619629,8|0,0:0|0:0,0:0:0:0:
204,144,39665,2,0,L|120:136,1,77.999997619629,0|0,1:0|0:0,0:0:0:0:
87,134,39990,6,0,L|73:268,2,116.999996429443,0|2|2,0:0|0:0|0:0,0:0:0:0:
235,121,40963,1,0,0:0:0:0:
386,134,41287,2,0,L|400:268,2,116.999996429443,0|2|2,0:0|0:0|0:0,0:0:0:0:
235,121,42260,1,0,0:0:0:0:
235,273,42584,5,4,0:3:0:0:
256,192,42746,12,0,44855,0:0:0:0:
126,153,45179,6,0,B|116:113|116:113|124:19,2,130,4|0|8,3:2|1:0|3:0,0:0:0:0:
187,201,45990,1,0,0:0:0:0:
261,179,46152,2,0,L|326:165,1,65,10|0,0:0|0:0,0:0:0:0:
385,214,46476,6,0,L|448:200,2,65,8|2|8,3:0|0:0|0:0,0:0:0:0:
344,281,46963,2,0,L|203:273,1,130,2|0,0:0|0:0,0:0:0:0:
136,268,47449,1,8,0:0:0:0:
25,158,47773,6,0,P|6:94|27:34,1,130,8|8,3:0|0:0,0:0:0:0:
101,17,48260,1,0,0:0:0:0:
175,38,48422,2,0,B|207:43|207:43|239:38,1,65,8|2,3:0|0:0,0:0:0:0:
317,31,48746,2,0,L|313:102,1,65,8|0,0:0|0:0,0:0:0:0:
312,174,49071,6,0,B|344:169|344:169|376:174,2,65,10|2|10,3:0|0:0|3:0,0:0:0:0:
235,189,49557,1,2,0:0:0:0:
156,199,49719,2,0,P|158:167|173:139,1,65,10|2,3:0|0:0,0:0:0:0:
107,98,50044,2,0,P|132:72|168:60,1,65,8|2,0:0|0:0,0:0:0:0:
235,49,50368,5,4,0:0:0:0:
307,86,50530,1,8,3:0:0:0:
307,86,50611,1,8,3:0:0:0:
307,86,50692,2,0,P|337:91|372:87,1,65,8|8,0:0|3:0,0:0:0:0:
452,76,51017,2,0,L|446:153,1,65,8|8,0:0|3:0,0:0:0:0:
442,221,51341,1,8,0:0:0:0:
436,301,51503,1,8,3:0:0:0:
436,301,51584,1,8,3:0:0:0:
436,301,51665,6,0,P|406:296|371:300,1,65,8|8,0:0|3:0,0:0:0:0:
298,335,51990,2,0,P|265:338|233:333,1,65,8|8,0:0|3:0,0:0:0:0:
156,310,52314,2,0,L|136:374,1,65,8|8,0:0|3:0,0:0:0:0:
59,345,52638,1,8,0:0:0:0:
10,279,52801,1,8,0:0:0:0:
10,279,52963,6,0,L|29:216,1,65,8|8,3:0|3:0,0:0:0:0:
106,190,53287,1,8,0:0:0:0:
186,184,53449,1,8,0:0:0:0:
186,184,53611,2,0,L|258:198,1,65,8|8,3:0|3:0,0:0:0:0:
300,131,53936,1,8,0:0:0:0:
343,62,54098,1,8,0:0:0:0:
343,62,54260,6,0,L|279:49,1,65,8|8,3:0|0:0,0:0:0:0:
224,109,54584,2,0,L|160:96,1,65,8|8,3:0|0:0,0:0:0:0:
105,157,54909,2,0,L|41:144,1,65,10|8,3:0|0:3,0:0:0:0:
0,77,55233,1,8,0:0:0:0:
62,229,55557,6,0,B|70:274|70:274|61:373,2,130,8|8|8,0:0|3:0|3:0,0:0:0:0:
0,77,56530,1,8,3:0:0:0:
156,124,56855,2,0,B|221:138|220:107|290:124,2,130,8|8|8,3:0|3:0|3:0,0:0:0:0:
43,15,57828,1,8,3:0:0:0:
118,35,57990,6,0,L|192:41,1,65,12|8,0:0|0:0,0:0:0:0:
413,79,58638,2,0,L|429:15,1,65,8|8,0:0|0:0,0:0:0:0:
278,195,59287,6,0,L|294:259,1,65,8|8,0:0|0:0,0:0:0:0:
321,330,59611,2,0,P|355:307|366:283,2,65,8|8|8,0:0|0:0|0:0,0:0:0:0:
242,316,60098,2,0,P|210:318|182:334,1,65,10|0,0:0|0:0,0:0:0:0:
105,344,60422,1,12,0:1:0:0:
105,344,60746,6,0,P|107:311|122:283,1,65,4|8,1:2|0:2,0:0:0:0:
53,238,61071,2,0,P|74:214|103:202,1,65,2|8,1:2|0:0,0:0:0:0:
183,209,61395,2,0,P|181:176|166:148,1,65,2|8,1:2|0:2,0:0:0:0:
236,105,61720,2,0,P|211:79|175:67,1,65,2|8,1:2|0:2,0:0:0:0:
107,92,62044,6,0,L|98:18,1,65,2|8,1:2|0:2,0:0:0:0:
18,32,62368,2,0,L|25:96,1,65,2|8,1:2|0:2,0:0:0:0:
67,165,62692,2,0,L|59:229,1,65,2|8,1:2|0:0,0:0:0:0:
139,238,63016,2,0,L|146:173,1,65,2|8,1:2|0:0,0:0:0:0:
221,204,63341,6,0,P|252:212|284:203,1,65,2|8,1:2|0:2,0:0:0:0:
362,188,63665,2,0,L|357:252,1,65,2|8,1:2|0:0,0:0:0:0:
350,334,63990,2,0,P|319:326|287:335,1,65,2|8,1:2|0:0,0:0:0:0:
207,346,64314,2,0,L|211:281,1,65,2|8,1:2|0:0,0:0:0:0:
131,266,64638,6,0,L|135:201,2,65,2|10|0,1:2|0:0|1:0,0:0:0:0:
182,130,65125,2,0,B|140:120|140:120|54:131,1,130,10|10,0:0|0:0,0:0:0:0:
21,205,65611,2,0,P|14:239|21:270,1,65,0|8,1:0|0:0,0:0:0:0:
72,330,65936,6,0,L|136:335,1,65,0|10,1:0|0:0,0:0:0:0:
246,261,66260,2,0,L|182:267,1,65,0|10,1:0|0:0,0:0:0:0:
222,340,66584,1,0,1:0:0:0:
304,323,66746,1,8,0:0:0:0:
304,323,66828,1,0,0:0:0:0:
304,323,66909,2,0,L|323:280,3,32.5,0|0|0|0,1:0|0:0|0:0|0:0,0:0:0:0:
356,281,67233,6,0,B|381:227|381:227|372:185,2,97.5,2|2|4,1:2|1:2|1:2,0:0:0:0:
494,200,68044,6,0,L|482:136,1,65,8|0,0:0|1:0,0:0:0:0:
498,56,68368,1,8,3:0:0:0:
498,56,68530,1,8,3:0:0:0:
420,31,68692,2,0,B|380:40|380:40|285:29,1,130,8|8,0:0|0:0,0:0:0:0:
211,14,69179,1,0,1:0:0:0:
142,57,69341,2,0,P|120:116|144:182,1,130,8|8,0:0|0:0,0:0:0:0:
209,221,69828,6,0,B|268:214|268:214|307:223,2,97.5,2|2|0,1:2|1:2|1:0,0:0:0:0:
134,252,70476,1,0,1:0:0:0:
216,111,70801,1,12,0:1:0:0:
216,111,71125,6,0,L|290:101,1,65,4|8,1:2|0:0,0:0:0:0:
343,153,71449,2,0,L|407:144,1,65,2|8,1:2|0:0,0:0:0:0:
488,142,71773,2,0,P|485:174|466:200,1,65,2|8,1:2|0:0,0:0:0:0:
506,270,72098,2,0,P|473:284|442:279,1,65,2|8,1:2|0:0,0:0:0:0:
382,227,72422,6,0,P|350:223|320:237,1,65,2|8,1:2|0:0,0:0:0:0:
363,306,72747,2,0,P|344:332|341:364,1,65,2|8,1:2|0:0,0:0:0:0:
422,362,73071,2,0,L|486:370,2,65,2|8|2,1:2|0:0|1:3,0:0:0:0:
264,304,73719,6,0,L|200:312,1,65,2|8,1:2|0:0,0:0:0:0:
116,313,74044,2,0,P|119:282|138:256,1,65,2|8,1:2|0:0,0:0:0:0:
98,184,74369,2,0,P|131:170|162:175,1,65,2|8,1:2|0:0,0:0:0:0:
238,186,74692,2,0,L|253:121,1,65,2|8,1:2|0:0,0:0:0:0:
331,98,75017,6,0,L|316:33,2,65,2|8|2,1:2|0:0|1:2,0:0:0:0:
359,212,75503,2,0,P|385:161|454:143,1,130,8|8,0:0|0:0,0:0:0:0:
463,61,75990,2,0,L|387:49,1,65,0|8,1:0|0:0,0:0:0:0:
331,98,76315,6,0,L|261:92,1,65,4|8,1:2|0:0,0:0:0:0:
155,164,76639,2,0,L|219:158,1,65,0|8,1:0|0:0,0:0:0:0:
177,82,76963,1,0,1:0:0:0:
95,105,77125,1,8,0:0:0:0:
95,105,77207,1,8,0:0:0:0:
95,105,77287,2,0,L|58:110,3,32.5,0|0|8|8,1:0|0:0|0:0|0:0,0:0:0:0:
23,119,77612,6,0,L|41:227,2,97.5,2|2|4,1:2|1:2|1:2,0:0:0:0:
143,237,78422,6,0,L|140:310,1,65,8|2,0:0|1:2,0:0:0:0:
206,348,78746,1,8,3:0:0:0:
206,348,78908,1,0,1:0:0:0:
282,321,79070,2,0,B|322:312|322:312|417:323,1,130,8|10,0:0|0:0,0:0:0:0:
463,259,79557,1,2,1:2:0:0:
460,177,79719,2,0,P|458:112|476:32,1,130,10|8,0:0|0:0,0:0:0:0:
388,73,80206,6,0,B|329:80|329:80|290:71,2,97.5,2|2|2,1:2|1:2|1:2,0:0:0:0:
470,48,80854,1,2,1:2:0:0:
376,181,81179,1,8,0:0:0:0:
376,181,81503,6,0,L|311:181,1,65,2|0,1:0|0:0,0:0:0:0:
262,241,81827,2,0,P|254:272|263:303,1,65,2|0,1:0|0:0,0:0:0:0:
312,366,82152,1,8,1:0:0:0:
312,366,82476,1,8,1:0:0:0:
157,347,82800,6,0,B|92:346,1,65,2|2,1:0|1:0,0:0:0:0:
16,269,83125,2,0,B|81:268,1,65,2|0,1:0|0:0,0:0:0:0:
120,200,83449,1,8,1:0:0:0:
133,124,83611,1,8,1:0:0:0:
120,47,83773,1,8,1:0:0:0:
269,94,84134,6,0,L|344:82,1,65,6|0,1:0|1:0,0:0:0:0:
402,120,84458,2,0,L|477:108,1,65,2|0,1:0|1:0,0:0:0:0:
504,177,84782,1,10,1:0:0:0:
504,177,84944,1,2,1:0:0:0:
487,253,85107,2,0,L|501:316,1,65,10|2,1:1|1:0,0:0:0:0:
437,360,85431,6,0,L|401:367,3,32.5,8|0|0|0,1:1|1:0|1:0|1:0,0:0:0:0:
368,353,85755,2,0,L|332:360,3,32.5,8|0|0|0,1:1|1:0|1:0|1:0,0:0:0:0:
297,349,86080,5,2,1:2:0:0:
327,196,86404,1,2,0:0:0:0:
158,244,86728,5,0,1:0:0:0:
