osu file format v14

[General]
AudioFilename: audio.mp3
AudioLeadIn: 0
PreviewTime: 60011
Countdown: 0
SampleSet: Soft
StackLeniency: 0.3
Mode: 0
LetterboxInBreaks: 0
WidescreenStoryboard: 1

[Editor]
DistanceSpacing: 0.2
BeatDivisor: 4
GridSize: 32
TimelineZoom: 2.5

[Metadata]
Title:Anime o Katare! ~Animegatari Doukoukai no Thema~
TitleUnicode:アニメを語レ!~アニメガタリ同好会のテーマ~
Artist:Maya(CV.Minase Inori) & Erika(CV.Inami Anju)
ArtistUnicode:マヤ(CV.水瀬いのり)&エリカ(CV.伊波杏樹)
Creator:Sotarks
Version:Kalibe's Extra
Source:アニメガタリ
Tags:Anime-Gatari animegatari W-Toon Studio kalibe haruto haruto_aizawa akitoshi corinn -Sh1n1- shini irohas mugiwarasekai milan- toybot
BeatmapID:1367152
BeatmapSetID:644332

[Difficulty]
HPDrainRate:6
CircleSize:4
OverallDifficulty:8.5
ApproachRate:9.3
SliderMultiplier:1.82
SliderTickRate:1

[Events]
//Background and Video events
0,0,"BG.jpg",0,0
//Break Periods
//Storyboard Layer 0 (Background)
//Storyboard Layer 1 (Fail)
//Storyboard Layer 2 (Pass)
//Storyboard Layer 3 (Foreground)
//Storyboard Sound Samples

[TimingPoints]
-226,324.324324324324,4,2,2,32,1,0
422,-161.290322580645,4,2,2,32,0,0
1071,-108.695652173913,4,2,2,52,0,0
6909,-75.7575757575758,4,2,2,62,0,0
7557,-108.695652173913,4,2,2,52,0,0
8530,-75.7575757575758,4,2,2,52,0,0
8773,-75.7575757575758,4,2,2,5,0,0
8855,-108.695652173913,4,2,2,52,0,0
10801,-200,4,2,2,52,0,0
11044,-161.290322580645,4,2,2,5,0,0
11125,-75.7575757575758,4,2,2,62,0,0
11368,-75.7575757575758,4,2,2,5,0,0
11449,-98.0392156862745,4,2,2,62,0,0
14287,-98.0392156862745,4,2,2,5,0,0
14368,-98.0392156862745,4,2,2,62,0,0
16638,-75.7575757575758,4,2,2,62,0,0
16882,-98.0392156862745,4,2,2,5,0,0
16963,-98.0392156862745,4,2,2,62,0,0
19476,-98.0392156862745,4,2,2,5,0,0
19557,-98.0392156862745,4,2,2,62,0,0
20611,-98.0392156862745,4,2,2,5,0,0
20692,-98.0392156862745,4,2,2,62,0,0
21828,-192.307692307692,4,2,2,62,0,0
23125,-138.888888888889,4,2,2,62,0,0
24098,-166.666666666667,4,2,2,62,0,0
24341,-138.888888888889,4,2,2,5,0,0
24422,-121.951219512195,4,2,2,62,0,0
29611,-98.0392156862746,4,2,2,62,0,0
34801,-121.951219512195,4,2,2,62,0,0
40152,-161.290322580645,4,2,2,42,0,0
44773,-161.290322580645,4,2,2,5,0,0
44855,-81.9672131147541,4,2,2,42,0,0
45098,-81.9672131147541,4,2,2,5,0,0
45179,-98.0392156862745,4,2,2,62,0,0
45746,-98.0392156862745,4,2,2,5,0,0
45828,-98.0392156862745,4,2,2,62,0,0
48017,-98.0392156862745,4,2,2,5,0,0
48098,-98.0392156862745,4,2,2,62,0,0
51665,-81.9672131147541,4,2,2,62,0,0
52963,-70.4225352112676,4,2,2,62,0,0
54260,-61.7283950617284,4,2,2,62,0,0
55557,-161.290322580645,4,2,2,62,0,0
55801,-161.290322580645,4,2,2,5,0,0
55882,-121.951219512195,4,2,2,62,0,0
56125,-121.951219512195,4,2,2,5,0,0
56206,-98.0392156862745,4,2,2,62,0,0
56449,-98.0392156862745,4,2,2,5,0,0
56530,-81.9672131147541,4,2,2,62,0,0
56773,-81.9672131147541,4,2,2,5,0,0
56855,-70.4225352112676,4,2,2,62,0,0
57098,-70.4225352112676,4,2,2,5,0,0
57179,-65.7894736842105,4,2,2,62,0,0
57422,-65.7894736842105,4,2,2,5,0,0
57503,-61.7283950617284,4,2,2,62,0,0
57746,-61.7283950617284,4,2,2,5,0,0
57828,-54.9450549450549,4,2,2,62,0,0
57909,-54.9450549450549,4,2,2,5,0,0
57990,-54.9450549450549,4,2,2,62,0,0
60098,-61.7283950617284,4,2,2,62,0,0
60422,-81.9672131147541,4,2,2,62,0,0
60665,-52.0833333333333,4,2,2,5,0,0
60746,-81.9672131147541,4,2,2,72,0,1
67395,-81.9672131147541,4,2,2,5,0,1
67476,-81.9672131147541,4,2,2,72,0,1
67638,-81.9672131147541,4,2,2,5,0,1
67719,-81.9672131147541,4,2,2,72,0,1
67963,-81.9672131147541,4,2,2,5,0,1
68044,-81.9672131147541,4,2,2,72,0,1
69990,-81.9672131147541,4,2,2,5,0,1
70071,-81.9672131147541,4,2,2,72,0,1
70233,-81.9672131147541,4,2,2,5,0,1
70314,-81.9672131147541,4,2,2,72,0,1
70395,-81.9672131147541,4,2,2,5,0,1
70476,-161.290322580645,4,2,2,72,0,1
70719,-161.290322580645,4,2,2,5,0,1
70801,-70.4225352112676,4,2,2,72,0,1
71044,-70.4225352112676,4,2,2,5,0,1
71125,-81.9672131147541,4,2,2,72,0,1
73395,-121.951219512195,4,2,2,72,0,1
73638,-192.307692307692,4,2,2,5,0,1
73719,-81.9672131147541,4,2,2,72,0,1
75503,-89.2857142857143,4,2,2,72,0,1
77611,-81.9672131147541,4,2,2,72,0,1
77773,-81.9672131147541,4,2,2,5,0,1
77855,-81.9672131147541,4,2,2,72,0,1
78017,-81.9672131147541,4,2,2,5,0,1
78098,-81.9672131147541,4,2,2,72,0,1
78341,-81.9672131147541,4,2,2,5,0,1
78422,-81.9672131147541,4,2,2,72,0,1
78584,-89.2857142857143,4,2,2,72,0,1
80206,-81.9672131147541,4,2,2,72,0,1
80368,-81.9672131147541,4,2,2,5,0,1
80449,-81.9672131147541,4,2,2,72,0,1
80611,-81.9672131147541,4,2,2,5,0,1
80692,-81.9672131147541,4,2,2,72,0,1
80773,-81.9672131147541,4,2,2,5,0,1
80855,-81.9672131147541,4,2,2,72,0,1
81098,-81.9672131147541,4,2,2,5,0,1
81179,-81.9672131147541,4,2,2,72,0,1
81503,-108.695652173913,4,2,2,72,0,0
82152,-75.7575757575758,4,2,2,72,0,0
82801,-108.695652173913,4,2,2,72,0,0
83773,-75.7575757575758,4,2,2,72,0,0
84134,324.324324324324,4,2,2,72,1,0
84134,-75.7575757575758,4,2,2,72,0,0
86323,-75.7575757575758,4,2,2,5,0,0
86404,-75.7575757575758,4,2,2,72,0,0
86647,-75.7575757575758,4,2,2,5,0,0
86728,-75.7575757575758,4,2,2,32,0,0

[Colours]
Combo1 : 175,253,153
Combo2 : 252,67,169
Combo3 : 131,98,217
Combo4 : 17,234,228

[HitObjects]
160,256,422,5,8,3:0:0:0:
352,160,584,1,8,3:0:0:0:
349,179,665,1,8,3:0:0:0:
346,198,746,1,12,0:0:0:0:
128,128,909,1,8,3:0:0:0:
288,32,1071,5,6,1:0:0:0:
291,48,1395,1,2,1:0:0:0:
46,178,1719,5,8,1:1:0:0:
49,162,2043,1,8,1:1:0:0:
52,145,2368,5,2,1:0:0:0:
201,220,2530,1,2,1:0:0:0:
66,318,2692,1,2,1:0:0:0:
74,303,3017,5,8,1:1:0:0:
149,154,3179,1,8,1:1:0:0:
247,289,3341,1,8,1:1:0:0:
384,96,3665,5,2,1:0:0:0:
380,112,3990,1,2,1:0:0:0:
251,305,4314,5,8,1:1:0:0:
247,289,4639,1,8,1:1:0:0:
416,64,4963,5,2,1:0:0:0:
255,109,5125,1,2,1:0:0:0:
367,233,5287,1,2,1:0:0:0:
375,218,5611,5,8,1:1:0:0:
330,379,5773,1,8,1:1:0:0:
206,267,5935,1,8,1:1:0:0:
310,299,6098,5,8,0:0:0:0:
310,299,6179,1,8,0:0:0:0:
310,299,6260,2,2,P|261:289|221:283,1,83.7199971895753,6|0,1:0|0:0,0:1:0:0:
71,361,6584,2,2,P|48:311|55:272,1,83.7199971895753,2|0,1:0|0:0,0:1:0:0:
160,160,6909,6,0,B|215:133|215:133|274:150,1,120.119999633423,8|0,0:1|0:0,0:0:0:0:
271,150,7233,2,0,B|216:177|216:177|157:160,1,120.119999633423,8|0,0:1|0:0,0:0:0:0:
263,49,7557,5,2,1:0:0:0:
357,118,7719,1,2,0:1:0:0:
512,64,7882,2,2,P|495:111|485:146,1,83.7199971895753,2|0,1:0|0:0,0:1:0:0:
288,288,8206,5,8,0:1:0:0:
384,96,8368,1,8,0:1:0:0:
485,266,8530,6,0,B|394:234|408:313|310:276,1,180.179999450134,8|0,0:1|0:0,0:0:0:0:
212,343,8855,6,2,P|192:305|197:258,1,83.7199971895753,2|0,1:0|0:0,0:1:0:0:
366,173,9179,2,2,P|385:137|384:96,1,83.7199971895753,2|0,1:0|0:0,0:1:0:0:
288,288,9503,5,8,0:1:0:0:
160,192,9665,1,2,1:0:0:0:
146,166,9746,1,2,1:0:0:0:
142,136,9828,1,8,0:1:0:0:
250,62,9990,1,0,1:0:0:0:
312,277,10152,5,8,0:1:0:0:
274,258,10233,1,0,1:0:0:0:
232,258,10314,1,0,1:0:0:0:
195,278,10395,1,0,1:0:0:0:
161,303,10476,1,8,0:1:0:0:
119,307,10557,1,0,1:0:0:0:
79,294,10638,1,0,1:0:0:0:
52,261,10719,1,0,1:0:0:0:
40,226,10801,6,0,L|51:147,1,68.25,2|0,1:0|0:0,0:0:0:0:
69,71,11125,6,0,B|143:103|165:40|246:68,1,180.179999450134,2|0,0:0|0:0,0:0:0:0:
245,68,11449,6,0,P|236:114|222:167,1,92.8200005665283,4|0,0:0|0:0,0:0:0:0:
416,320,11773,2,0,P|404:275|395:229,1,92.8200005665283,10|0,0:0|0:0,0:0:0:0:
329,135,12098,1,0,0:0:0:0:
184,269,12260,1,2,0:0:0:0:
175,300,12341,1,2,0:0:0:0:
178,332,12422,1,8,0:0:0:0:
271,241,12584,6,0,P|204:183|118:209,1,185.640001133057,2|2,0:0|0:0,0:0:0:0:
264,369,13071,2,0,L|281:306,2,46.4100002832642,10|0|2,0:0|0:0|0:0,0:0:0:0:
352,160,13395,5,8,3:0:0:0:
354,163,13476,1,0,0:0:0:0:
356,167,13557,2,0,L|361:218,1,46.4100002832642,2|0,0:0|0:0,0:0:0:0:
480,273,13719,2,0,P|500:230|490:184,1,92.8200005665283,10|0,0:0|0:0,0:0:0:0:
352,64,14044,6,0,L|213:84,1,139.230000849792,2|0,1:2|0:0,0:0:0:0:
193,66,14368,2,0,L|184:123,1,46.4100002832642,10|2,0:0|0:0,0:0:0:0:
32,192,14530,2,0,L|14:131,1,46.4100002832642,2|2,0:0|0:0,0:0:0:0:
164,212,14692,5,8,3:0:0:0:
160,216,14773,2,0,P|152:259|144:309,1,92.8200005665283,2|2,0:3|0:0,0:0:0:0:
140,347,15017,1,8,0:0:0:0:
374,274,15179,6,0,B|321:282|321:282|291:270|291:270|224:281,1,139.230000849792,2|2,0:0|0:3,0:0:0:0:
238,278,15503,1,2,0:0:0:0:
384,160,15665,2,0,L|436:171,1,46.4100002832642,8|0,0:0|0:0,0:0:0:0:
505,274,15828,6,0,P|461:283|417:263,1,92.8200005665283,2|8,0:0|3:0,0:0:0:0:
259,166,16152,1,2,0:0:0:0:
140,347,16314,1,8,0:0:0:0:
92,83,16476,2,0,L|80:133,1,46.4100002832642,2|0,0:3|0:0,0:0:0:0:
60,224,16638,6,0,B|159:195|134:278|247:240,1,180.179999450134,2|0,0:0|0:0,0:0:0:0:
339,200,16963,2,0,L|350:149,4,46.4100002832642,8|2|2|2|8,0:0|0:0|0:0|0:0|3:0,0:0:0:0:
166,348,17449,1,2,0:0:0:0:
150,319,17530,1,2,0:0:0:0:
149,286,17611,1,8,0:0:0:0:
288,320,17773,6,0,B|355:331|355:331|396:308|396:308|469:321,1,185.640001133057,2|2,0:0|0:0,0:0:0:0:
266,229,18260,2,0,L|197:238,2,46.4100002832642,10|0|2,0:0|0:0|0:0,0:0:0:0:
440,134,18584,5,8,3:0:0:0:
440,138,18665,1,0,0:0:0:0:
440,142,18746,2,0,P|430:176|424:207,1,46.4100002832642,2|0,0:0|0:0,0:0:0:0:
288,320,18909,2,0,P|278:268|264:223,1,92.8200005665283,10|0,0:0|0:0,0:0:0:0:
32,128,19233,6,0,P|107:159|166:139,1,139.230000849792,2|0,1:2|0:0,0:0:0:0:
185,119,19557,2,0,L|201:58,1,46.4100002832642,10|2,0:0|0:0,0:0:0:0:
18,222,19719,2,0,L|33:287,1,46.4100002832642,2|2,0:0|0:0,0:0:0:0:
99,367,19882,5,8,3:0:0:0:
103,364,19963,2,0,P|110:318|123:254,1,92.8200005665283,2|2,0:3|0:0,0:0:0:0:
140,244,20206,1,8,0:0:0:0:
320,352,20368,6,0,P|309:267|299:206,1,139.230000849792,2|0,0:0|0:0,0:0:0:0:
300,214,20692,1,2,0:0:0:0:
499,95,20855,2,0,L|489:148,1,46.4100002832642,8|0,0:0|0:0,0:0:0:0:
480,256,21017,6,0,B|436:267|436:267|394:245,1,92.8200005665283,2|8,0:0|3:0,0:0:0:0:
294,83,21341,1,8,0:0:0:0:
294,83,21422,1,0,1:0:0:0:
294,83,21503,2,0,L|297:55,6,23.2050001416321,2|0|0|0|0|0|0,0:0|0:0|0:0|0:0|0:0|0:0|0:0,0:0:0:0:
369,28,21828,6,0,B|309:80|308:179|414:203|429:320|352:377,1,378.559997689453,4|0,0:0|1:0,0:0:0:0:
224,256,23287,1,8,3:0:0:0:
224,256,23368,1,8,3:0:0:0:
224,256,23449,2,0,L|232:296,4,32.7600007998047,2|2|2|2|8,0:0|0:0|0:0|0:0|3:0,0:0:0:0:
224,256,24098,6,0,L|130:243,1,81.8999975006104,12|0,0:0|0:0,0:0:0:0:
122,232,24422,6,0,P|102:268|103:300,1,74.6200011386109,4|0,0:0|0:0,0:0:0:0:
200,153,24746,2,0,P|200:116|181:84,1,74.6200011386109,0|0,1:0|0:0,0:0:0:0:
32,128,25071,2,0,P|70:133|117:144,1,74.6200011386109,0|0,1:0|0:0,0:0:0:0:
303,275,25395,2,0,P|266:283|230:288,1,74.6200011386109,0|0,1:0|0:0,0:0:0:0:
416,160,25719,5,0,1:0:0:0:
486,134,25882,1,2,0:0:0:0:
344,191,26044,1,0,1:0:0:0:
491,214,26206,6,0,L|343:190,1,149.240002277222,2|2,0:0|0:0,0:0:0:0:
343,191,26611,1,0,0:0:0:0:
343,191,26692,1,0,1:0:0:0:
406,120,26855,1,2,0:0:0:0:
320,32,27017,6,0,P|284:44|240:47,1,74.6200011386109,4|0,1:2|0:0,0:0:0:0:
105,140,27341,2,0,P|93:175|89:212,1,74.6200011386109,0|0,1:0|0:0,0:0:0:0:
318,347,27665,2,0,P|314:309|302:274,1,74.6200011386109,0|0,1:0|0:0,0:0:0:0:
176,191,27990,1,0,1:0:0:0:
130,349,28152,1,2,0:0:0:0:
130,349,28314,6,0,L|212:331,1,74.6200011386109,0|0,1:0|0:0,0:0:0:0:
284,182,28638,2,0,L|356:197,1,74.6200011386109,0|0,1:0|0:0,0:0:0:0:
480,352,28963,5,0,1:0:0:0:
396,278,29125,1,2,0:0:0:0:
512,180,29287,1,0,1:0:0:0:
416,64,29449,5,8,3:3:0:0:
416,64,29530,1,8,3:3:0:0:
416,64,29611,2,0,B|343:55|343:55|305:79|305:79|230:69,1,185.640001133057,4|8,0:0|0:0,0:0:0:0:
32,192,30098,2,0,B|105:183|105:183|143:207|143:207|218:197,1,185.640001133057,2|8,0:0|3:0,0:0:0:0:
76,288,30584,5,8,0:0:0:0:
295,160,30746,2,0,P|229:238|255:315,1,185.640001133057,8|8,3:0|3:0,0:0:0:0:
384,384,31233,1,8,0:0:0:0:
384,384,31395,2,0,P|405:339|401:292,1,92.8200005665283,2|8,0:0|3:0,0:0:0:0:
313,190,31719,1,8,3:0:0:0:
512,128,31882,1,8,0:0:0:0:
384,32,32044,1,2,0:0:0:0:
512,128,32206,6,0,P|467:116|421:108,1,92.8200005665283,8|0,3:0|0:0,0:0:0:0:
246,25,32530,2,0,P|234:69|226:115,1,92.8200005665283,8|0,0:0|0:0,0:0:0:0:
350,45,32855,1,2,0:0:0:0:
129,117,33017,6,0,P|136:152|141:173,1,46.4100002832642,8|2,3:0|0:0,0:0:0:0:
221,231,33179,2,0,P|210:268|204:284,1,46.4100002832642,8|2,0:0|0:0,0:0:0:0:
118,354,33341,1,8,0:3:0:0:
238,378,33503,6,0,L|142:360,1,92.8200005665283,2|8,0:0|0:3,0:0:0:0:
13,225,33828,2,0,L|115:211,1,92.8200005665283,8|0,0:0|0:0,0:0:0:0:
276,96,34152,1,8,3:0:0:0:
49,79,34314,5,8,3:0:0:0:
49,79,34395,1,8,3:0:0:0:
49,79,34476,5,8,0:0:0:0:
86,97,34557,1,8,0:0:0:0:
127,96,34638,1,8,0:0:0:0:
163,76,34719,1,8,0:0:0:0:
188,53,34801,6,0,P|252:37|326:79,1,149.240002277222,8|2,3:0|0:0,0:0:0:0:
207,275,35341,1,0,0:0:0:0:
196,264,35449,2,0,P|175:222|191:166,1,99.4933348514812,8|0,0:0|0:0,0:0:0:0:
310,242,35773,2,0,L|288:346,1,99.4933348514812,2|0,0:0|1:0,0:0:0:0:
284,366,36098,5,2,0:0:0:0:
83,172,36314,1,0,0:0:0:0:
93,160,36422,2,0,B|144:150|144:150|186:172,1,99.4933348514812,0|0,1:0|0:0,0:0:0:0:
310,242,36746,2,0,B|361:252|361:252|403:230,1,99.4933348514812,8|0,0:0|0:0,0:0:0:0:
417,206,37071,1,2,0:0:0:0:
196,264,37287,1,8,0:0:0:0:
185,274,37395,6,0,P|166:317|180:376,1,99.4933348514812,8|0,3:0|0:0,0:0:0:0:
289,339,37719,2,0,P|334:358|382:349,1,99.4933348514812,2|0,0:0|0:0,0:0:0:0:
404,333,38044,1,8,0:0:0:0:
310,242,38260,2,0,B|331:183|289:162|316:91,1,149.240002277222,2|0,0:0|1:0,0:0:0:0:
311,80,38692,6,0,P|352:55|407:59,1,99.4933348514812,2|0,0:0|0:0,0:0:0:0:
314,95,39017,2,0,P|265:97|222:72,1,99.4933348514812,0|0,1:0|1:0,0:0:0:0:
139,7,39341,2,0,P|132:56|123:105,1,99.4933348514812,8|0,0:0|1:0,0:0:0:0:
83,199,39665,2,0,P|132:190|181:183,1,99.4933348514812,0|0,1:0|1:0,0:0:0:0:
278,117,39990,5,2,0:0:0:0:
266,229,40314,1,2,0:0:0:0:
254,341,40638,1,2,0:0:0:0:
246,311,41287,5,2,0:0:0:0:
358,299,41611,1,2,0:0:0:0:
470,287,41935,1,2,0:0:0:0:
470,287,42584,6,0,P|373:256|507:216,1,338.519986569947,4|0,0:3|0:0,0:0:0:0:
500,194,43719,1,0,0:0:0:0:
364,85,43882,6,0,L|275:97,1,75.2266636822104,2|2,0:3|0:0,0:0:0:0:
245,72,44206,5,2,0:0:0:0:
188,121,44314,5,2,0:0:0:0:
112,120,44422,5,2,0:0:0:0:
39,78,44530,6,0,P|79:81|117:107,1,84.6299966424867,2|0,0:0|0:0,0:0:0:0:
205,155,44855,6,0,B|163:227|231:247|191:314,1,166.529993139176,2|0,0:3|0:0,0:0:0:0:
108,382,45179,5,4,3:2:0:0:
323,187,45503,2,0,P|256:197|204:154,1,139.230000849792,0|0,1:0|0:0,0:0:0:0:
204,154,45828,2,0,P|194:110|223:59,1,92.8200005665283,8|0,3:0|0:0,0:0:0:0:
396,153,46152,2,0,P|405:197|387:239,1,92.8200005665283,10|0,0:0|0:0,0:0:0:0:
336,85,46476,5,8,3:0:0:0:
486,194,46638,1,2,0:0:0:0:
316,269,46801,1,8,0:0:0:0:
450,355,46963,2,0,B|387:345|387:345|335:369|335:369|265:359,1,185.640001133057,2|0,0:0|0:0,0:0:0:0:
150,228,47449,5,8,0:0:0:0:
121,384,47611,1,2,0:0:0:0:
80,283,47773,6,0,L|221:264,1,139.230000849792,8|0,3:0|0:0,0:0:0:0:
247,259,48098,2,0,B|261:215|261:215|243:172,1,92.8200005665283,8|0,0:0|0:0,0:0:0:0:
96,357,48422,1,8,3:0:0:0:
128,353,48503,1,2,0:0:0:0:
160,349,48584,1,2,0:0:0:0:
192,344,48665,1,2,0:0:0:0:
224,340,48746,1,8,0:0:0:0:
242,171,48909,1,0,0:0:0:0:
150,228,49071,5,10,3:0:0:0:
394,175,49233,1,2,0:0:0:0:
250,142,49395,5,10,3:0:0:0:
332,358,49557,1,2,0:0:0:0:
247,257,49719,5,10,3:0:0:0:
343,75,49882,1,2,0:0:0:0:
480,256,50044,5,8,0:0:0:0:
321,204,50206,1,2,0:0:0:0:
480,256,50368,6,0,L|386:267,1,92.8200005665283,4|8,0:0|3:0,0:0:0:0:
373,293,50611,1,8,3:0:0:0:
373,293,50692,1,8,0:0:0:0:
146,152,50855,5,8,3:0:0:0:
148,156,50936,1,8,3:0:0:0:
149,160,51017,2,0,L|243:171,1,92.8200005665283,8|8,0:0|3:0,0:0:0:0:
271,161,51260,1,8,3:0:0:0:
271,161,51341,1,8,0:0:0:0:
59,96,51503,5,8,3:0:0:0:
59,96,51584,1,8,3:0:0:0:
59,96,51665,2,0,P|28:140|44:202,1,111.019995426117,8|8,0:0|3:0,0:0:0:0:
57,222,51909,1,8,3:0:0:0:
57,222,51990,1,8,0:0:0:0:
224,352,52152,5,8,3:0:0:0:
221,348,52233,1,8,3:0:0:0:
217,345,52314,2,0,P|173:314|111:330,1,111.019995426117,8|8,0:0|3:0,0:0:0:0:
99,343,52557,1,8,3:0:0:0:
99,343,52638,1,8,0:0:0:0:
247,257,52801,2,0,P|277:260|311:276,1,55.5099977130586,8|8,0:0|0:0,0:0:0:0:
384,352,52963,6,0,L|523:336,1,129.219993493256,8|8,3:0|3:0,0:0:0:0:
512,337,53206,1,0,3:0:0:0:
512,337,53287,1,8,0:0:0:0:
319,242,53449,5,8,0:0:0:0:
319,242,53530,1,8,0:0:0:0:
319,242,53611,2,0,L|458:226,1,129.219993493256,8|8,3:0|3:0,0:0:0:0:
447,227,53855,1,8,3:0:0:0:
447,227,53936,1,8,0:0:0:0:
381,64,54098,5,8,0:0:0:0:
376,89,54179,1,8,0:0:0:0:
372,118,54260,1,8,3:0:0:0:
236,4,54422,5,8,0:0:0:0:
242,40,54503,1,8,0:0:0:0:
248,76,54584,1,8,3:0:0:0:
404,48,54746,5,8,0:0:0:0:
397,92,54828,1,8,0:0:0:0:
389,135,54909,1,10,3:0:0:0:
208,8,55071,6,0,L|221:87,1,73.7100017995606,8|8,0:3|0:3,0:0:0:0:
81,218,55233,5,8,0:0:0:0:
60,178,55314,1,8,0:0:0:0:
58,132,55395,1,8,0:0:0:0:
74,90,55476,1,8,0:0:0:0:
106,62,55557,5,8,0:0:0:0:
205,93,55882,1,8,3:0:0:0:
424,119,56206,5,8,3:0:0:0:
466,268,56530,1,8,3:0:0:0:
298,338,56855,5,8,3:0:0:0:
232,157,57179,1,8,3:0:0:0:
115,327,57503,5,8,3:0:0:0:
327,232,57828,1,8,3:0:0:0:
87,241,57990,6,0,L|256:272,1,165.620005559754,12|8,0:0|0:0,0:0:0:0:
254,256,58638,6,0,L|91:226,1,165.620005559754,8|8,0:0|0:0,0:0:0:0:
87,241,59287,6,0,L|249:270,1,165.620005559754,8|8,0:0|0:0,0:0:0:0:
254,256,59611,6,0,L|91:226,1,165.620005559754,8|8,0:0|0:0,0:0:0:0:
87,241,59936,6,0,L|249:270,1,165.620005559754,8|10,0:0|0:0,0:0:0:0:
358,292,60179,1,2,0:0:0:0:
369,283,60260,1,2,0:0:0:0:
355,276,60341,1,2,0:0:0:0:
359,285,60422,6,0,L|383:93,1,166.529993139176,12|0,0:1|0:0,0:0:0:0:
359,92,60746,6,0,P|383:94|422:108,1,55.5099977130586,4|0,1:2|0:0,0:0:0:0:
509,176,60909,2,0,P|485:178|446:192,1,55.5099977130586,8|0,0:2|0:0,0:0:0:0:
278,373,61071,6,0,P|302:371|341:357,1,55.5099977130586,2|0,1:2|0:0,0:0:0:0:
428,289,61234,2,0,P|404:287|365:273,1,55.5099977130586,8|0,0:0|0:0,0:0:0:0:
192,138,61395,6,0,P|194:162|208:201,1,55.5099977130586,2|0,1:2|0:0,0:0:0:0:
276,288,61558,2,0,P|278:264|292:225,1,55.5099977130586,8|0,0:2|0:0,0:0:0:0:
424,68,61719,6,0,P|400:70|361:84,1,55.5099977130586,2|0,1:2|0:0,0:0:0:0:
274,152,61882,2,0,P|298:154|337:168,1,55.5099977130586,8|0,0:2|0:0,0:0:0:0:
508,306,62043,6,0,P|506:282|492:243,1,55.5099977130586,2|0,1:2|0:0,0:0:0:0:
424,156,62206,2,0,P|422:180|408:219,1,55.5099977130586,8|0,0:2|0:0,0:0:0:0:
137,318,62368,6,0,P|161:316|200:302,1,55.5099977130586,2|0,1:2|0:0,0:0:0:0:
287,234,62531,2,0,P|263:232|224:218,1,55.5099977130586,8|0,0:2|0:0,0:0:0:0:
64,87,62692,6,0,P|66:111|80:150,1,55.5099977130586,2|0,1:2|0:0,0:0:0:0:
148,237,62855,2,0,P|150:213|164:174,1,55.5099977130586,8|0,0:0|0:0,0:0:0:0:
299,13,63017,6,0,P|275:15|236:29,1,55.5099977130586,2|0,1:2|0:0,0:0:0:0:
149,97,63180,2,0,P|173:99|212:113,1,55.5099977130586,8|0,0:0|0:0,0:0:0:0:
369,248,63341,6,0,P|367:224|353:185,1,55.5099977130586,2|0,1:2|0:0,0:0:0:0:
285,98,63504,2,0,P|283:122|269:161,1,55.5099977130586,8|0,0:2|0:0,0:0:0:0:
83,329,63665,6,0,P|107:327|146:313,1,55.5099977130586,2|0,1:2|0:0,0:0:0:0:
233,245,63828,2,0,P|209:243|170:229,1,55.5099977130586,8|0,0:0|0:0,0:0:0:0:
0,344,63990,6,0,P|2:320|16:281,1,55.5099977130586,2|0,1:2|0:0,0:0:0:0:
82,192,64153,2,0,P|84:216|98:255,1,55.5099977130586,8|0,0:0|0:0,0:0:0:0:
219,355,64314,6,0,P|243:353|282:339,1,55.5099977130586,2|0,1:2|0:0,0:0:0:0:
371,273,64477,2,0,P|347:271|308:257,1,55.5099977130586,8|0,0:0|0:0,0:0:0:0:
224,166,64638,5,2,1:2:0:0:
385,121,64801,1,10,0:0:0:0:
496,244,64963,1,0,1:0:0:0:
333,54,65125,6,0,L|371:274,1,222.039990852234,10|10,0:0|0:0,0:0:0:0:
370,272,65611,2,0,P|317:243|268:250,1,111.019995426117,0|8,1:0|0:0,0:0:0:0:
64,352,65936,5,0,1:0:0:0:
192,288,66098,1,10,0:0:0:0:
32,224,66260,1,0,1:0:0:0:
194,299,66422,1,10,0:0:0:0:
320,128,66584,1,0,1:0:0:0:
204,89,66746,5,8,0:0:0:0:
196,116,66828,1,8,0:0:0:0:
199,143,66909,1,0,1:0:0:0:
439,172,67070,1,8,0:0:0:0:
447,145,67152,1,8,0:0:0:0:
444,117,67233,6,0,P|390:93|336:114,1,111.019995426117,2|0,1:2|0:0,0:0:0:0:
266,201,67476,6,0,P|274:255|284:313,1,111.019995426117,2|0,1:2|0:0,0:0:0:0:
361,354,67719,6,0,B|300:341|300:341|251:359|251:359|185:346,1,166.529993139176,4|0,1:2|0:0,0:0:0:0:
200,348,68044,1,8,0:0:0:0:
353,260,68206,1,0,1:0:0:0:
161,208,68368,5,8,3:0:0:0:
161,208,68449,1,8,3:0:0:0:
161,208,68530,2,0,B|214:219|214:219|279:193,1,111.019995426117,8|8,3:0|0:0,0:0:0:0:
480,96,68855,2,0,B|427:74|427:74|374:85,1,111.019995426117,0|8,1:0|0:0,0:0:0:0:
210,137,69179,5,0,1:0:0:0:
381,245,69341,2,0,P|372:304|358:363,1,111.019995426117,8|0,0:0|1:0,0:0:0:0:
493,149,69665,2,0,P|484:117|479:95,1,55.5099977130586,8|8,0:0|0:0,0:0:0:0:
374,85,69828,6,0,P|316:56|271:65,1,111.019995426117,2|0,1:2|0:0,0:0:0:0:
163,192,70071,6,0,P|105:221|60:212,1,111.019995426117,2|0,1:2|0:0,0:0:0:0:
111,75,70314,6,0,L|99:148,1,55.5099977130586,0|0,1:0|0:0,0:0:0:0:
255,281,70476,6,0,L|269:180,1,84.6299966424867,0|0,1:0|0:0,0:0:0:0:
266,197,70801,6,0,B|365:162|351:248|455:205,1,193.829990239884,12|0,0:1|0:0,0:0:0:0:
491,101,71125,5,4,1:2:0:0:
459,78,71206,1,0,0:0:0:0:
420,71,71287,1,8,0:0:0:0:
382,82,71368,1,0,0:0:0:0:
351,106,71449,2,0,P|340:133|335:162,1,55.5099977130586,2|0,1:2|0:0,0:0:0:0:
468,258,71611,2,0,P|462:230|452:205,1,55.5099977130586,8|0,0:0|0:0,0:0:0:0:
351,106,71773,5,2,1:2:0:0:
314,90,71855,1,0,0:0:0:0:
275,90,71936,1,8,0:0:0:0:
238,103,72017,1,0,0:0:0:0:
213,132,72098,2,0,L|202:192,1,55.5099977130586,2|0,1:2|0:0,0:0:0:0:
317,319,72260,2,0,L|293:254,1,55.5099977130586,8|0,0:0|0:0,0:0:0:0:
213,132,72422,5,2,1:2:0:0:
180,110,72503,1,0,0:0:0:0:
142,100,72584,1,8,0:0:0:0:
104,109,72665,1,0,0:0:0:0:
72,131,72746,2,0,P|60:159|58:190,1,55.5099977130586,2|0,1:2|0:0,0:0:0:0:
192,276,72909,2,0,P|204:248|206:217,1,55.5099977130586,8|0,0:0|0:0,0:0:0:0:
21,251,73071,5,2,1:2:0:0:
2,285,73152,1,0,0:0:0:0:
0,323,73233,1,8,0:0:0:0:
20,355,73314,1,0,0:0:0:0:
53,370,73395,6,0,B|119:380|119:380|156:352,1,111.930001707916,2|0,1:3|0:0,0:0:0:0:
221,293,73719,5,2,1:2:0:0:
254,297,73801,1,0,0:0:0:0:
286,301,73882,1,8,0:0:0:0:
318,305,73963,1,0,0:0:0:0:
350,309,74044,2,0,L|362:367,1,55.5099977130586,2|0,1:2|0:0,0:0:0:0:
485,248,74206,2,0,L|473:306,1,55.5099977130586,8|0,0:0|0:0,0:0:0:0:
288,224,74368,5,2,1:2:0:0:
269,189,74449,1,0,0:0:0:0:
267,150,74530,1,8,0:0:0:0:
285,115,74611,1,0,0:0:0:0:
315,90,74692,2,0,P|351:96|386:105,1,55.5099977130586,2|0,1:2|0:0,0:0:0:0:
227,21,74855,2,0,P|199:26|172:31,1,55.5099977130586,8|0,0:0|0:0,0:0:0:0:
32,96,75017,5,2,1:2:0:0:
17,137,75098,1,0,0:0:0:0:
28,179,75179,1,8,0:0:0:0:
12,220,75260,1,2,0:3:0:0:
23,262,75341,1,2,1:2:0:0:
10,304,75422,1,2,0:3:0:0:
23,342,75503,6,0,P|71:331|129:326,1,101.920001244141,8|2,0:0|1:2,0:0:0:0:
320,256,75828,1,8,0:0:0:0:
143,91,75990,2,0,P|133:140|154:187,1,101.920001244141,0|8,1:0|0:0,0:0:0:0:
292,359,76314,5,4,1:2:0:0:
352,160,76476,1,8,0:0:0:0:
460,288,76638,1,0,1:0:0:0:
251,175,76801,1,8,0:0:0:0:
448,96,76963,1,0,1:0:0:0:
342,287,77125,5,8,0:0:0:0:
347,262,77206,1,8,0:0:0:0:
351,237,77287,1,0,1:0:0:0:
142,163,77449,1,8,0:0:0:0:
146,188,77530,1,8,0:0:0:0:
151,215,77611,6,0,P|96:234|45:207,1,111.019995426117,2|0,1:2|0:0,0:0:0:0:
89,95,77855,6,0,P|138:73|189:93,1,111.019995426117,2|0,1:2|0:0,0:0:0:0:
275,191,78098,6,0,L|245:363,1,166.529993139176,4|0,1:2|0:0,0:0:0:0:
246,355,78422,1,8,0:0:0:0:
157,238,78584,1,2,1:2:0:0:
363,177,78746,5,8,3:0:0:0:
363,177,78828,1,8,3:0:0:0:
363,177,78909,2,0,L|346:282,1,101.920001244141,0|8,1:0|0:0,0:0:0:0:
426,323,79152,5,2,0:0:0:0:
426,323,79233,2,0,L|435:260,1,50.9600006220703,2|0,1:2|0:0,0:0:0:0:
284,140,79395,2,0,L|275:191,1,50.9600006220703,10|0,0:0|0:0,0:0:0:0:
425,118,79557,5,2,1:2:0:0:
390,96,79638,1,2,0:0:0:0:
349,93,79719,1,10,0:0:0:0:
310,108,79801,1,2,0:0:0:0:
284,140,79882,1,0,1:0:0:0:
93,20,80044,2,0,L|154:33,1,50.9600006220703,8|0,0:0|0:0,0:0:0:0:
219,78,80206,6,0,P|162:75|122:107,1,111.019995426117,2|0,1:2|0:0,0:0:0:0:
0,192,80449,6,0,P|57:189|97:221,1,111.019995426117,2|0,1:2|0:0,0:0:0:0:
173,303,80692,6,0,L|241:288,1,55.5099977130586,2|0,1:2|0:0,0:0:0:0:
365,207,80855,6,0,B|407:188|407:188|393:242|382:311,1,166.529993139176,2|0,1:2|0:0,0:0:0:0:
304,374,81179,6,0,L|299:343,6,27.7549988565293,8|0|0|0|0|0|0,0:0|0:0|0:0|0:0|0:0|0:0|0:0,0:0:0:0:
382,305,81503,5,2,1:0:0:0:
378,321,81828,1,2,1:0:0:0:
188,147,82152,5,8,1:0:0:0:
192,163,82477,1,8,1:0:0:0:
448,32,82801,5,2,1:0:0:0:
307,122,82963,1,2,1:0:0:0:
446,215,83125,1,2,1:0:0:0:
438,199,83449,5,8,1:0:0:0:
348,58,83611,1,8,1:0:0:0:
255,197,83773,1,8,1:0:0:0:
241,216,84134,5,6,1:0:0:0:
345,143,84296,1,0,1:0:0:0:
288,352,84458,5,2,1:0:0:0:
128,256,84620,1,0,1:0:0:0:
320,256,84782,5,10,1:0:0:0:
64,352,84945,1,2,1:0:0:0:
160,160,85107,5,10,1:1:0:0:
397,306,85269,2,0,L|414:235,1,60.0599998167114,2|0,1:0|0:0,0:0:0:0:
345,143,85431,5,8,1:1:0:0:
383,160,85512,1,0,1:0:0:0:
424,154,85593,1,0,1:0:0:0:
454,125,85674,1,0,1:0:0:0:
458,83,85755,1,8,1:1:0:0:
435,47,85837,1,0,1:0:0:0:
394,35,85918,1,0,1:0:0:0:
353,45,85999,1,0,1:0:0:0:
321,72,86080,6,0,B|217:99|247:31|149:50,1,180.179999450134,2|0,1:2|0:0,0:0:0:0:
58,4,86404,6,0,B|24:57|24:57|45:176,1,180.179999450134,2|0,0:0|0:0,0:0:0:0:
68,270,86728,5,0,1:0:0:0:
