osu file format v14

[General]
AudioFilename: audio.mp3
AudioLeadIn: 0
PreviewTime: 60011
Countdown: 0
SampleSet: Soft
StackLeniency: 0.4
Mode: 0
LetterboxInBreaks: 0
WidescreenStoryboard: 0

[Editor]
Bookmarks: 9659,11443,24416,29605,34795,39984,45173,55551,85713
DistanceSpacing: 0.1
BeatDivisor: 4
GridSize: 16
TimelineZoom: 2.5

[Metadata]
Title:Anime o Katare! ~Animegatari Doukoukai no Thema~
TitleUnicode:アニメを語レ!~アニメガタリ同好会のテーマ~
Artist:Maya(CV.Minase Inori) & Erika(CV.Inami Anju)
ArtistUnicode:マヤ(CV.水瀬いのり)&エリカ(CV.伊波杏樹)
Creator:Sotarks
Version:Irohas' Insane
Source:アニメガタリ
Tags:Anime-Gatari animegatari W-Toon Studio kalibe haruto haruto_aizawa akitoshi corinn -Sh1n1- shini irohas mugiwarasekai milan- toybot
BeatmapID:1370179
BeatmapSetID:644332

[Difficulty]
HPDrainRate:6
CircleSize:4
OverallDifficulty:7
ApproachRate:8.8
SliderMultiplier:1.62
SliderTickRate:1

[Events]
//Background and Video events
0,0,"BG.jpg",0,0
//Break Periods
//Storyboard Layer 0 (Background)
//Storyboard Layer 1 (Fail)
//Storyboard Layer 2 (Pass)
//Storyboard Layer 3 (Foreground)
//Storyboard Sound Samples

[TimingPoints]
-226,324.324324324324,4,2,2,32,1,0
422,-108.695652173913,4,2,2,32,0,0
1071,-98.0392156862745,4,2,52,52,0,0
1395,-98.0392156862745,4,2,2,52,0,0
6260,-108.695652173913,4,2,52,52,0,0
6422,-108.695652173913,4,2,2,52,0,0
6909,-89.2857142857143,4,2,2,52,0,0
7557,-108.695652173913,4,2,2,52,0,0
8530,-108.695652173913,4,2,2,52,0,0
8773,-98.0392156862745,4,2,2,5,0,0
8855,-108.695652173913,4,2,2,52,0,0
10801,-98.0392156862745,4,2,2,52,0,0
11044,-98.0392156862745,4,2,2,5,0,0
11125,-81.9672131147542,4,2,2,42,0,0
11368,-98.0392156862745,4,2,2,5,0,0
11449,-98.0392156862745,4,2,52,62,0,0
11611,-98.0392156862745,4,2,2,62,0,0
14287,-98.0392156862745,4,2,2,5,0,0
14368,-98.0392156862745,4,2,2,62,0,0
16314,-81.9672131147541,4,2,2,62,0,0
16557,-81.9672131147541,4,2,2,5,0,0
16638,-100,4,2,52,62,0,0
16801,-100,4,2,2,62,0,0
19476,-98.0392156862745,4,2,2,5,0,0
19557,-98.0392156862745,4,2,2,62,0,0
20611,-98.0392156862745,4,2,2,5,0,0
20692,-98.0392156862745,4,2,2,62,0,0
21503,-81.9672131147541,4,2,2,62,0,0
21746,-81.9672131147541,4,2,2,5,0,0
21828,-240.12474012474,4,2,52,62,0,0
21990,-240.12474012474,4,2,2,15,0,0
23125,-98.0392156862745,4,2,2,62,0,0
24098,-98.0392156862745,4,2,2,62,0,0
24341,-98.0392156862745,4,2,2,5,0,0
24422,-121.951219512195,4,2,52,62,0,0
24584,-121.951219512195,4,2,2,62,0,0
29611,-98.0392156862745,4,2,52,62,0,0
29773,-98.0392156862745,4,2,2,62,0,0
34801,-121.951219512195,4,2,2,62,0,0
40152,-98.0392156862745,4,2,2,42,0,0
42584,-217.391304347826,4,2,2,42,0,0
42746,-217.391304347826,4,2,2,12,0,0
43882,-121.951219512195,4,2,52,42,0,0
44206,-109.116674539443,4,2,52,42,0,0
44530,-82.2064056939504,4,2,52,42,0,0
44773,-98.0392156862745,4,2,2,5,0,0
44855,-75.7575757575758,4,2,2,42,0,0
45098,-98.0392156862745,4,2,2,5,0,0
45179,-98.0392156862745,4,2,52,62,0,0
45341,-98.0392156862745,4,2,2,62,0,0
45746,-98.0392156862745,4,2,2,5,0,0
45828,-98.0392156862745,4,2,2,62,0,0
48017,-98.0392156862745,4,2,2,5,0,0
48098,-98.0392156862745,4,2,2,62,0,0
50368,-98.0392156862745,4,2,52,62,0,0
50530,-98.0392156862745,4,2,2,62,0,0
51665,-98.0392156862745,4,2,2,62,0,0
52963,-98.0392156862745,4,2,2,62,0,0
54260,-98.0392156862745,4,2,2,62,0,0
55557,-161.290322580645,4,2,2,62,0,0
55801,-161.290322580645,4,2,2,5,0,0
55882,-138.888888888889,4,2,2,62,0,0
56125,-138.888888888889,4,2,2,5,0,0
56206,-121.951219512195,4,2,2,62,0,0
56449,-121.951219512195,4,2,2,5,0,0
56530,-108.695652173913,4,2,2,62,0,0
56773,-108.695652173913,4,2,2,5,0,0
56855,-98.0392156862745,4,2,2,62,0,0
57098,-98.0392156862745,4,2,2,5,0,0
57179,-89.2857142857143,4,2,2,62,0,0
57422,-89.2857142857143,4,2,2,5,0,0
57503,-81.9672131147541,4,2,2,62,0,0
57746,-81.9672131147541,4,2,2,5,0,0
57828,-98.0392156862745,4,2,2,62,0,0
57909,-98.0392156862745,4,2,2,5,0,0
57990,-98.0392156862745,4,2,2,62,0,0
60098,-98.0392156862745,4,2,2,62,0,0
60422,-81.9672131147541,4,2,2,82,0,0
60665,-98.0392156862745,4,2,2,5,0,0
60746,-98.0392156862745,4,2,52,72,0,1
60909,-98.0392156862745,4,2,2,72,0,1
65936,-98.0392156862745,4,2,52,72,0,1
66098,-98.0392156862745,4,2,2,72,0,1
67395,-98.0392156862745,4,2,2,5,0,1
67476,-98.0392156862745,4,2,2,72,0,1
67638,-98.0392156862745,4,2,2,5,0,1
67719,-98.0392156862745,4,2,52,72,0,1
67963,-98.0392156862745,4,2,2,5,0,1
68044,-98.0392156862745,4,2,2,72,0,1
69990,-98.0392156862745,4,2,2,5,0,1
70071,-98.0392156862745,4,2,2,72,0,1
70233,-98.0392156862745,4,2,2,5,0,1
70314,-98.0392156862745,4,2,2,72,0,1
70395,-98.0392156862745,4,2,2,5,0,1
70476,-98.0392156862745,4,2,2,72,0,1
70719,-98.0392156862745,4,2,2,5,0,1
70801,-89.2857142857143,4,2,2,82,0,1
71044,-81.9672131147541,4,2,2,5,0,1
71125,-98.0392156862745,4,2,52,72,0,1
71287,-98.0392156862745,4,2,2,72,0,1
73395,-98.0392156862745,4,2,2,72,0,1
73638,-98.0392156862745,4,2,2,5,0,1
73719,-98.0392156862745,4,2,2,72,0,1
75503,-98.0392156862745,4,2,2,72,0,1
76314,-98.0392156862745,4,2,52,72,0,1
76476,-98.0392156862745,4,2,2,72,0,1
77611,-98.0392156862745,4,2,2,72,0,1
77773,-98.0392156862745,4,2,2,5,0,1
77855,-98.0392156862745,4,2,2,72,0,1
78017,-98.0392156862745,4,2,2,5,0,1
78098,-98.0392156862745,4,2,52,72,0,1
78341,-98.0392156862745,4,2,2,5,0,1
78422,-98.0392156862745,4,2,2,72,0,1
78584,-98.0392156862745,4,2,2,72,0,1
80206,-98.0392156862745,4,2,2,72,0,1
80368,-98.0392156862745,4,2,2,5,0,1
80449,-98.0392156862745,4,2,2,72,0,1
80611,-98.0392156862745,4,2,2,5,0,1
80692,-98.0392156862745,4,2,2,72,0,1
80773,-98.0392156862745,4,2,2,5,0,1
80855,-98.0392156862745,4,2,2,72,0,1
81098,-98.0392156862745,4,2,2,5,0,1
81179,-98.0392156862745,4,2,2,72,0,1
81503,-108.695652173913,4,2,52,72,0,0
81665,-108.695652173913,4,2,2,72,0,0
82152,-89.2857142857143,4,2,2,72,0,0
82801,-108.695652173913,4,2,2,72,0,0
83773,-108.695652173913,4,2,2,72,0,0
84134,324.324324324324,4,2,52,72,1,0
84134,-108.695652173913,4,2,52,72,0,0
84296,-108.695652173913,4,2,2,72,0,0
86404,-98.0392156862745,4,2,2,72,0,0
86728,-98.0392156862745,4,2,2,32,0,0

[Colours]
Combo1 : 255,249,174
Combo2 : 254,188,224
Combo3 : 211,201,241
Combo4 : 166,249,247
Combo5 : 203,254,188

[HitObjects]
385,183,422,5,8,3:0:0:0:
433,253,584,2,0,L|422:316,2,37.2599987492066,8|8|12,3:0|3:0|0:0,0:0:0:0:
360,331,909,1,8,3:0:0:0:
360,331,1071,5,6,1:0:0:0:
289,288,1395,1,2,1:0:0:0:
314,209,1719,5,8,1:1:0:0:
241,359,2043,1,8,1:1:0:0:
241,359,2368,5,2,1:0:0:0:
168,291,2530,1,2,1:0:0:0:
73,321,2692,1,2,1:0:0:0:
77,334,3017,5,8,1:1:0:0:
172,308,3179,1,8,1:1:0:0:
197,212,3341,1,8,1:1:0:0:
197,212,3665,5,2,1:0:0:0:
260,159,3990,1,2,1:0:0:0:
338,185,4314,5,8,1:1:0:0:
296,344,4638,1,8,1:1:0:0:
296,344,4963,5,2,1:0:0:0:
372,281,5125,1,2,1:0:0:0:
469,300,5287,1,2,1:0:0:0:
464,315,5611,5,8,1:1:0:0:
374,273,5773,1,8,1:1:0:0:
295,333,5935,1,8,1:1:0:0:
185,278,6098,1,8,0:0:0:0:
186,274,6179,1,8,0:0:0:0:
188,270,6260,6,2,P|214:260|265:264,1,74.5199974984132,6|0,1:0|0:0,0:0:0:0:
95,163,6584,2,2,P|103:213|112:260,1,74.5199974984132,2|0,1:0|0:0,0:0:0:0:
276,111,6909,6,0,B|241:97|241:97|179:117,1,90.7200011074219,8|0,0:1|0:0,0:0:0:0:
364,123,7233,2,0,B|332:139|332:139|279:121,1,90.7200011074219,8|0,0:1|0:0,0:0:0:0:
443,77,7557,5,2,1:0:0:0:
397,223,7719,1,2,0:1:0:0:
276,111,7882,2,2,P|287:159|296:195,1,74.5199974984132,2|0,1:0|0:0,0:0:0:0:
189,319,8206,5,8,0:1:0:0:
299,256,8368,1,8,0:1:0:0:
180,325,8530,2,0,P|221:330|266:335,1,74.5199974984132,8|0,0:1|0:0,0:0:0:0:
371,256,8855,6,2,P|334:248|299:257,1,74.5199974984132,2|0,1:0|0:0,0:0:0:0:
449,358,9179,2,0,L|457:283,1,74.5199974984132,2|0,1:0|0:0,0:0:0:0:
355,166,9503,2,2,L|364:254,1,74.5199974984132,8|2,0:1|1:0,0:0:0:0:
371,256,9746,1,2,1:0:0:0:
373,259,9828,1,8,0:1:0:0:
421,107,9990,1,0,1:0:0:0:
278,227,10152,6,2,P|247:224|189:217,1,74.5199974984132,8|0,0:1|1:0,0:0:0:0:
69,169,10476,2,2,P|98:156|140:158,1,74.5199974984132,8|0,0:1|1:0,0:0:0:0:
212,302,10801,1,2,1:0:0:0:
212,302,11125,6,0,B|250:318|261:353|261:353|256:316|266:292|291:276,1,148.229993893112,2|0,0:0|0:0,0:0:0:0:
335,335,11449,6,0,P|253:348|164:362,1,165.240001008545,4|10,0:1|0:0,0:0:0:0:
81,262,11936,1,0,0:0:0:0:
81,262,12098,2,0,P|125:268|174:274,1,82.6200005042725,8|2,3:0|0:0,0:0:0:0:
226,147,12422,2,0,P|235:192|246:243,1,82.6200005042725,8|2,0:0|0:0,0:0:0:0:
392,171,12746,6,0,P|361:159|309:168,1,82.6200005042725,8|2,3:0|0:0,0:0:0:0:
426,271,13071,1,10,0:0:0:0:
506,137,13233,1,2,0:0:0:0:
506,137,13395,6,0,P|500:187|493:243,1,82.6200005042725,8|2,3:0|0:0,0:0:0:0:
424,295,13719,2,0,P|418:254|412:213,1,82.6200005042725,10|0,0:0|0:0,0:0:0:0:
262,327,14044,6,0,P|308:334|363:341,1,82.6200005042725,2|0,1:2|0:0,0:0:0:0:
208,239,14368,2,0,P|248:245|289:252,1,82.6200005042725,10|2,0:0|0:0,0:0:0:0:
141,327,14692,1,8,3:0:0:0:
289,252,14855,1,0,0:0:0:0:
141,327,15017,2,0,P|124:296|131:235,1,82.6200005042725,8|2,0:0|0:0,0:0:0:0:
223,359,15341,5,8,3:0:0:0:
223,359,15503,2,0,P|252:354|317:345,1,82.6200005042725,2|8,0:0|0:0,0:0:0:0:
433,289,15828,2,0,P|395:283|336:271,1,82.6200005042725,2|8,0:0|3:0,0:0:0:0:
494,221,16152,1,2,0:0:0:0:
346,283,16314,6,0,P|309:242|337:156,1,148.229993893112,10|0,0:0|0:0,0:0:0:0:
397,114,16638,6,0,B|360:148|360:148|236:116,1,162,4|8,0:1|0:0,0:0:0:0:
368,25,17125,1,2,0:0:0:0:
368,25,17287,2,0,P|374:69|383:123,1,81,8|2,3:0|0:0,0:0:0:0:
207,93,17611,2,0,P|234:82|292:89,1,81,8|2,0:0|0:0,0:0:0:0:
160,193,17936,6,0,P|120:198|82:185,1,81,8|2,3:0|0:0,0:0:0:0:
207,93,18260,1,10,0:0:0:0:
263,228,18422,1,2,0:0:0:0:
263,228,18584,2,0,P|270:185|276:145,1,81,8|2,3:0|0:0,0:0:0:0:
110,270,18909,2,0,P|138:275|209:288,1,81,10|0,0:0|0:0,0:0:0:0:
324,330,19233,6,0,P|271:341|225:348,1,81,2|0,1:2|0:0,0:0:0:0:
384,236,19557,2,0,P|331:247|285:256,1,82.6200005042725,10|2,0:0|0:0,0:0:0:0:
426,160,19882,1,8,3:0:0:0:
303,252,20044,1,0,0:0:0:0:
251,90,20206,2,0,P|246:141|240:186,1,82.6200005042725,8|2,0:0|0:0,0:0:0:0:
407,80,20530,5,8,3:0:0:0:
407,80,20692,2,0,P|371:67|314:78,1,82.6200005042725,2|8,0:0|0:0,0:0:0:0:
168,112,21017,2,0,L|263:127,1,82.6200005042725,2|8,0:0|3:0,0:0:0:0:
426,182,21341,1,8,0:0:0:0:
428,185,21422,1,0,1:0:0:0:
429,189,21503,6,0,B|378:167|378:167|289:203,1,148.229993893112,2|2,0:0|0:0,0:0:0:0:
234,257,21828,6,0,P|331:299|293:201,1,269.85973972497,4|0,0:1|1:0,0:0:0:0:
156,186,23287,5,8,3:0:0:0:
156,186,23368,1,8,3:0:0:0:
156,186,23449,2,0,P|159:213|164:245,4,41.3100002521362,2|2|2|2|8,0:0|0:0|0:0|0:0|3:0,0:0:0:0:
379,20,24098,1,12,0:0:0:0:
379,20,24422,6,0,P|384:65|389:101,1,66.4200010134888,4|0,0:1|0:0,0:0:0:0:
454,190,24746,2,0,P|458:157|461:124,1,66.4200010134888,0|0,1:0|0:0,0:0:0:0:
299,226,25071,2,0,P|325:215|372:219,1,66.4200010134888,0|0,1:0|0:0,0:0:0:0:
506,275,25395,2,0,P|467:280|424:285,1,66.4200010134888,0|0,1:0|0:0,0:0:0:0:
309,342,25719,6,0,P|340:347|372:340,1,66.4200010134888,0|2,1:0|0:0,0:0:0:0:
234,273,26044,1,0,1:0:0:0:
373,339,26206,2,0,P|326:345|233:356,1,132.840002026978,2|2,0:0|0:0,0:0:0:0:
215,371,26611,1,0,0:0:0:0:
215,371,26692,2,0,P|177:366|126:359,1,66.4200010134888,0|2,1:0|0:0,0:0:0:0:
59,251,27017,6,0,P|53:283|64:328,1,66.4200010134888,4|0,1:2|0:0,0:0:0:0:
126,141,27341,2,0,P|132:181|140:235,1,66.4200010134888,0|0,1:0|0:0,0:0:0:0:
275,241,27665,2,0,L|193:258,1,66.4200010134888,0|0,1:0|0:0,0:0:0:0:
344,314,27990,1,0,1:0:0:0:
392,223,28152,1,2,0:0:0:0:
477,316,28314,6,0,P|482:283|476:250,1,66.4200010134888,0|0,1:0|0:0,0:0:0:0:
385,152,28638,2,0,L|399:246,1,66.4200010134888,0|0,1:0|0:0,0:0:0:0:
333,89,28963,5,0,1:0:0:0:
333,89,29125,1,2,0:0:0:0:
464,154,29287,1,0,1:0:0:0:
299,228,29449,1,8,3:3:0:0:
299,228,29530,1,8,3:3:0:0:
299,228,29611,6,0,P|248:221|135:207,1,166.050002533722,4|8,0:1|0:0,0:0:0:0:
54,95,30098,2,0,P|17:130|55:230,1,165.240001008545,2|8,0:0|3:0,0:0:0:0:
162,97,30584,1,8,0:0:0:0:
230,205,30746,6,0,P|241:153|249:109,1,82.6200005042725,8|0,3:0|0:0,0:0:0:0:
314,302,31071,1,8,3:0:0:0:
143,250,31233,2,0,L|316:219,1,165.240001008545,8|8,0:0|3:0,0:0:0:0:
374,143,31719,1,8,3:0:0:0:
374,143,31882,2,0,L|276:127,1,82.6200005042725,8|0,0:0|0:0,0:0:0:0:
144,32,32206,6,0,P|100:97|141:165,1,165.240001008545,8|8,3:0|0:0,0:0:0:0:
221,238,32692,1,0,0:0:0:0:
221,238,32855,2,0,L|125:255,1,82.6200005042725,2|8,0:0|3:0,0:0:0:0:
279,158,33179,1,8,0:0:0:0:
316,262,33341,6,0,P|325:208|343:87,1,165.240001008545,8|8,3:0|3:0,0:0:0:0:
154,56,33828,2,0,P|185:20|299:48,1,165.240001008545,8|8,0:0|3:0,0:0:0:0:
208,143,34314,5,8,3:0:0:0:
178,157,34395,1,8,3:0:0:0:
145,158,34476,1,8,0:0:0:0:
115,146,34557,1,8,0:0:0:0:
88,127,34638,1,8,0:0:0:0:
56,118,34719,1,8,0:0:0:0:
24,130,34801,5,8,3:0:0:0:
24,130,35125,6,0,B|6:172|6:172|29:223,1,88.5600013513184,2|0,0:0|0:0,0:0:0:0:
45,232,35449,1,8,0:0:0:0:
115,309,35665,1,0,0:0:0:0:
121,315,35773,2,0,P|164:306|208:298,1,88.5600013513184,2|0,0:0|1:0,0:0:0:0:
219,269,36098,6,0,P|262:277|306:285,1,88.5600013513184,2|0,0:0|0:0,0:0:0:0:
331,302,36422,1,0,1:0:0:0:
394,182,36638,1,0,0:0:0:0:
401,177,36746,2,0,P|408:227|414:264,1,88.5600013513184,8|0,0:0|0:0,0:0:0:0:
439,282,37071,2,0,P|449:238|458:195,1,88.5600013513184,2|8,0:0|0:0,0:0:0:0:
480,173,37395,5,8,3:0:0:0:
394,83,37611,1,0,0:0:0:0:
389,90,37719,2,0,P|350:96|285:105,1,88.5600013513184,2|0,0:0|0:0,0:0:0:0:
272,89,38044,1,8,0:0:0:0:
163,140,38260,2,0,P|137:171|167:256,1,132.840002026978,2|0,0:0|1:0,0:0:0:0:
184,272,38692,6,0,P|249:260|314:249,1,132.840002026978,2|0,0:0|1:0,0:0:0:0:
451,271,39233,1,0,1:0:0:0:
442,274,39341,2,0,B|419:240|419:240|450:147,1,132.840002026978,8|0,0:0|1:0,0:0:0:0:
448,152,39990,5,0,0:0:0:0:
386,97,40314,1,2,0:0:0:0:
306,118,40638,1,2,0:0:0:0:
44,257,41287,5,0,0:0:0:0:
106,312,41611,1,2,0:0:0:0:
186,291,41935,1,2,0:0:0:0:
186,291,42584,6,0,B|302:264|255:374|393:334,1,223.559992495239,4|0,0:3|0:0,0:0:0:0:
396,330,43719,1,0,0:0:0:0:
361,212,43882,6,2,P|358:240|354:275,2,44.2800006756592,2|2|2,0:3|0:3|0:3,0:3:0:0:
406,139,44206,2,2,P|401:114|396:90,2,49.488310875973,2|2|2,0:3|0:3|0:3,0:3:0:0:
497,197,44530,6,0,B|462:176|462:176|346:218,1,147.79870139633,0|0,0:0|0:0,0:0:0:0:
289,269,44855,6,0,P|269:220|352:217,1,160.379999510559,0|0,0:0|0:0,0:0:0:0:
280,284,45179,6,0,P|223:276|106:261,1,165.240001008545,4|0,0:1|1:0,0:0:0:0:
33,183,45665,1,0,0:0:0:0:
33,183,45828,2,0,P|75:174|128:165,1,82.6200005042725,8|0,3:0|0:0,0:0:0:0:
207,92,46152,2,0,P|167:86|120:79,1,82.6200005042725,10|0,0:0|0:0,0:0:0:0:
261,169,46476,5,8,3:0:0:0:
318,77,46638,1,2,0:0:0:0:
411,169,46801,2,0,P|415:132|423:74,1,82.6200005042725,8|2,0:0|0:0,0:0:0:0:
336,199,47125,2,0,P|343:240|349:281,1,82.6200005042725,8|0,3:0|0:0,0:0:0:0:
304,356,47449,1,8,0:0:0:0:
206,255,47611,1,2,0:0:0:0:
298,364,47773,6,0,P|241:356|124:341,1,165.240001008545,8|8,3:0|0:0,0:0:0:0:
34,267,48260,1,0,0:0:0:0:
34,267,48422,2,0,P|24:302|40:355,1,82.6200005042725,8|2,3:0|0:0,0:0:0:0:
113,215,48746,2,0,P|103:161|92:107,1,82.6200005042725,8|0,0:0|0:0,0:0:0:0:
190,274,49071,5,10,3:0:0:0:
258,210,49233,1,2,0:0:0:0:
329,300,49395,5,10,3:0:0:0:
392,227,49557,1,2,0:0:0:0:
488,320,49719,6,0,P|496:280|505:233,1,82.6200005042725,10|2,3:0|0:0,0:0:0:0:
329,300,50044,2,0,P|371:308|429:322,1,82.6200005042725,8|2,0:0|0:0,0:0:0:0:
258,210,50368,5,4,0:1:0:0:
190,274,50530,2,8,L|196:325,2,41.3100002521362,8|8|8,3:0|3:0|0:0,0:0:0:0:
142,186,50855,6,8,L|146:144,2,41.3100002521362,8|8|8,3:0|3:0|0:0,0:0:0:0:
85,277,51179,2,8,L|89:318,2,41.3100002521362,8|8|8,3:0|3:0|0:0,0:0:0:0:
28,195,51503,1,8,3:0:0:0:
28,195,51584,1,8,3:0:0:0:
28,195,51665,5,8,0:0:0:0:
93,285,51828,2,8,L|97:326,2,41.3100002521362,8|8|8,3:0|3:0|0:0,0:0:0:0:
148,179,52152,6,8,L|152:137,2,41.3100002521362,8|8|8,3:0|3:0|0:0,0:0:0:0:
201,280,52476,2,8,L|205:321,2,41.3100002521362,8|8|8,3:0|3:0|0:0,0:0:0:0:
275,205,52801,1,8,0:0:0:0:
275,205,52882,1,8,0:0:0:0:
275,205,52963,5,8,3:0:0:0:
344,275,53125,2,8,L|340:316,2,41.3100002521362,8|0|8,3:0|3:0|0:0,0:0:0:0:
423,216,53449,1,8,0:0:0:0:
423,216,53530,1,8,0:0:0:0:
423,216,53611,5,8,3:0:0:0:
347,139,53773,2,8,L|343:98,2,41.3100002521362,8|8|8,3:0|3:0|0:0,0:0:0:0:
275,205,54098,1,8,0:0:0:0:
275,205,54179,1,8,0:0:0:0:
275,205,54260,5,8,3:0:0:0:
182,156,54422,2,0,P|148:163|120:168,2,41.3100002521362,8|8|8,0:0|0:0|3:0,0:0:0:0:
281,209,54746,1,8,0:0:0:0:
281,209,54828,1,8,0:0:0:0:
281,209,54909,6,2,P|273:247|267:277,3,41.3100002521362,10|0|8|8,3:0|0:0|0:3|0:3,0:0:0:0:
235,273,55233,2,0,P|243:311|249:341,3,41.3100002521362,8|8|8|8,0:0|0:0|0:0|0:0,0:0:0:0:
211,346,55557,6,0,P|261:339|303:333,1,75.3299970114442,8|0,0:0|0:0,0:0:0:0:
284,320,55882,6,0,P|322:325|378:334,1,87.4800021357422,8|0,3:0|0:0,0:0:0:0:
381,345,56206,6,0,P|425:338|494:329,1,99.6300015202332,8|0,3:0|0:0,0:0:0:0:
497,322,56530,6,0,P|447:317|379:309,1,111.77999624762,8|0,3:0|0:0,0:0:0:0:
366,308,56855,6,0,P|422:302|500:292,1,123.930000756409,8|0,3:0|0:0,0:0:0:0:
511,286,57179,6,0,P|455:280|364:268,1,136.080001661133,8|0,3:0|0:0,0:0:0:0:
352,269,57503,6,0,P|408:263|511:249,1,148.229993893112,8|0,3:0|0:0,0:0:0:0:
501,243,57828,1,8,3:0:0:0:
480,151,57990,5,12,0:0:0:0:
397,184,58152,1,8,0:0:0:0:
483,139,58639,5,8,0:0:0:0:
394,172,58801,1,8,0:0:0:0:
487,127,59287,5,8,0:0:0:0:
393,159,59449,1,8,0:0:0:0:
367,65,59611,5,8,0:0:0:0:
272,95,59773,1,8,0:0:0:0:
233,3,59936,5,8,0:0:0:0:
138,33,60098,1,10,0:0:0:0:
138,33,60422,6,0,P|106:72|158:161,1,148.229993893112,12|0,0:1|0:0,0:0:0:0:
220,129,60746,6,0,L|207:236,1,82.6200005042725,4|8,1:3|0:2,0:0:0:0:
125,307,61071,2,0,L|115:224,1,82.6200005042725,2|8,1:2|0:0,0:0:0:0:
218,352,61395,1,2,1:2:0:0:
218,352,61557,1,8,0:2:0:0:
284,248,61719,2,0,P|313:239|375:254,1,82.6200005042725,2|8,1:2|0:2,0:0:0:0:
424,350,62044,5,2,1:2:0:0:
507,230,62206,2,0,P|501:275|494:338,1,82.6200005042725,8|2,0:2|1:2,0:0:0:0:
430,190,62530,2,0,P|425:148|419:108,1,82.6200005042725,8|2,0:2|1:2,0:0:0:0:
364,249,62855,1,8,0:0:0:0:
419,108,63017,1,2,1:2:0:0:
263,160,63179,1,8,0:0:0:0:
263,160,63341,6,0,P|295:165|358:174,1,82.6200005042725,2|8,1:2|0:2,0:0:0:0:
182,92,63665,2,0,P|222:84|270:74,1,82.6200005042725,2|8,1:2|0:0,0:0:0:0:
85,161,63990,2,0,P|125:169|169:181,1,82.6200005042725,2|8,1:2|0:0,0:0:0:0:
21,230,64314,1,2,1:2:0:0:
165,180,64476,1,8,0:0:0:0:
119,332,64638,6,0,P|114:290|108:250,1,82.6200005042725,2|10,1:2|0:0,0:0:0:0:
229,365,64963,1,0,1:0:0:0:
331,239,65125,6,0,P|325:283|320:320,1,82.6200005042725,10|0,0:0|0:0,0:0:0:0:
282,173,65449,1,10,0:0:0:0:
417,253,65611,1,0,1:0:0:0:
417,253,65773,1,8,0:0:0:0:
374,92,65936,6,0,P|380:136|384:173,1,82.6200005042725,4|10,0:1|0:0,0:0:0:0:
203,186,66260,2,0,P|229:172|293:177,1,82.6200005042725,0|10,1:0|0:0,0:0:0:0:
158,279,66584,1,0,1:0:0:0:
48,171,66746,5,8,0:0:0:0:
53,204,66828,1,8,0:0:0:0:
58,236,66909,1,0,1:0:0:0:
63,269,66990,1,0,0:0:0:0:
70,301,67070,1,8,0:0:0:0:
76,333,67151,1,8,0:0:0:0:
84,365,67233,6,0,B|124:350|124:350|168:361,1,82.6200005042725,2|0,1:2|0:0,0:0:0:0:
169,374,67476,6,0,B|207:383|207:383|247:368,1,82.6200005042725,2|0,1:2|0:0,0:0:0:0:
269,346,67719,6,0,P|260:292|247:215,1,123.930000756409,4|0,0:1|0:0,0:0:0:0:
256,209,68044,1,8,0:0:0:0:
344,327,68206,2,0,P|374:333|422:317,1,82.6200005042725,0|8,1:0|3:0,0:0:0:0:
500,263,68449,1,8,3:0:0:0:
505,269,68530,6,0,L|493:378,1,82.6200005042725,8|8,3:0|0:0,0:0:0:0:
365,251,68855,2,0,P|354:216|369:157,1,82.6200005042725,0|8,1:0|0:0,0:0:0:0:
463,112,69179,1,0,1:0:0:0:
463,112,69341,1,8,0:0:0:0:
310,68,69503,2,0,P|359:60|413:49,1,82.6200005042725,0|8,1:0|0:0,0:0:0:0:
262,153,69828,6,0,L|180:138,1,82.6200005042725,2|0,1:2|0:0,0:0:0:0:
175,123,70071,6,0,L|93:137,1,82.6200005042725,2|0,1:2|0:0,0:0:0:0:
78,144,70314,6,0,L|23:136,1,41.3100002521362,0|0,1:0|0:0,0:0:0:0:
28,124,70476,6,0,B|5:158|5:158|37:247,1,123.930000756409,0|0,1:0|0:0,0:0:0:0:
128,212,70801,6,0,P|117:262|96:362,1,136.080001661133,12|0,0:1|0:0,0:0:0:0:
111,351,71125,6,0,P|140:342|202:357,1,82.6200005042725,4|8,0:1|0:0,0:0:0:0:
324,297,71449,2,0,P|280:288|224:275,1,82.6200005042725,2|8,1:2|0:0,0:0:0:0:
402,236,71773,1,2,1:2:0:0:
402,236,71936,1,8,0:0:0:0:
466,348,72098,2,0,P|474:311|484:256,1,82.6200005042725,2|8,1:2|0:0,0:0:0:0:
374,382,72422,5,2,1:2:0:0:
244,306,72584,2,0,P|282:292|323:296,1,82.6200005042725,8|2,0:0|1:2,0:0:0:0:
227,141,72909,2,0,P|219:181|210:222,1,82.6200005042725,8|2,0:0|1:2,0:0:0:0:
132,93,73233,1,8,0:0:0:0:
48,218,73395,1,2,1:3:0:0:
48,217,73719,6,0,P|33:185|42:133,1,82.6200005042725,2|8,1:2|0:0,0:0:0:0:
213,251,74044,2,0,P|166:261|110:272,1,82.6200005042725,2|8,1:2|0:0,0:0:0:0:
25,330,74368,2,0,P|68:337|121:347,1,82.6200005042725,2|8,1:2|0:0,0:0:0:0:
213,251,74692,1,2,1:2:0:0:
280,363,74855,1,8,0:0:0:0:
365,228,75017,6,0,P|357:268|348:309,1,82.6200005042725,2|8,1:2|0:0,0:0:0:0:
303,168,75341,1,2,1:2:0:0:
433,302,75503,6,0,P|473:306|512:292,1,82.6200005042725,8|0,0:0|0:0,0:0:0:0:
365,228,75828,1,8,0:0:0:0:
504,176,75990,1,0,1:0:0:0:
504,176,76152,1,8,0:0:0:0:
390,67,76314,6,0,P|397:107|406:148,1,82.6200005042725,4|8,0:1|0:0,0:0:0:0:
283,211,76638,2,0,P|327:220|374:229,1,82.6200005042725,0|8,1:0|0:0,0:0:0:0:
239,137,76963,1,0,1:0:0:0:
165,249,77125,5,8,0:0:0:0:
160,216,77205,1,8,0:0:0:0:
155,184,77287,1,0,1:0:0:0:
150,151,77368,1,0,0:0:0:0:
143,119,77449,1,8,0:0:0:0:
137,87,77530,1,8,0:0:0:0:
129,54,77611,6,0,L|224:69,1,82.6200005042725,2|0,1:2|0:0,0:0:0:0:
222,78,77855,6,0,L|303:64,1,82.6200005042725,2|0,1:2|0:0,0:0:0:0:
328,45,78098,6,0,L|452:60,1,123.930000756409,4|0,0:1|0:0,0:0:0:0:
466,55,78422,1,8,0:0:0:0:
348,133,78584,2,0,P|340:167|358:223,1,82.6200005042725,2|8,1:2|3:0,0:0:0:0:
489,267,78909,6,2,P|452:275|426:281,3,41.3100002521362,0|0|8|0,1:0|0:0|0:0|0:0,0:0:0:0:
406,291,79233,2,2,P|385:286|365:282,3,41.3100002521362,2|0|10|0,1:2|0:0|0:0|0:0,0:0:0:0:
323,266,79557,2,2,P|302:270|282:274,3,41.3100002521362,2|0|10|0,1:2|0:0|0:0|0:0,0:0:0:0:
245,301,79882,2,2,P|224:296|204:292,3,41.3100002521362,0|0|8|0,1:0|0:0|0:0|0:0,0:0:0:0:
177,224,80206,6,0,P|165:273|149:339,1,82.6200005042725,2|0,1:2|0:0,0:0:0:0:
141,309,80449,6,0,P|131:268|121:228,1,82.6200005042725,2|0,1:2|0:0,0:0:0:0:
105,223,80692,1,2,1:2:0:0:
0,319,80855,6,0,P|9:278|27:193,1,123.930000756409,2|0,1:2|0:0,0:0:0:0:
24,187,81179,1,8,0:0:0:0:
24,187,81503,6,2,P|56:179|101:189,1,74.5199974984132,4|0,0:1|0:0,0:0:0:0:
202,260,81828,2,2,P|167:265|109:273,1,74.5199974984132,2|0,1:0|0:0,0:0:0:0:
298,156,82152,6,0,B|311:189|311:189|285:252,1,90.7200011074219,8|0,1:0|0:0,0:0:0:0:
272,73,82476,2,0,B|256:109|256:109|285:169,1,90.7200011074219,8|0,1:0|0:0,0:0:0:0:
351,16,82801,5,2,1:0:0:0:
298,156,82963,1,2,1:0:0:0:
458,118,83125,2,2,P|406:109|359:99,1,74.5199974984132,2|0,1:0|0:0,0:0:0:0:
501,207,83449,5,8,1:0:0:0:
386,270,83611,1,8,1:0:0:0:
499,215,83773,2,2,P|466:210|425:201,1,74.5199974984132,8|0,1:0|0:0,0:0:0:0:
312,283,84134,6,2,L|385:269,1,74.5199974984132,6|0,1:0|1:0,0:0:0:0:
235,212,84458,2,0,L|308:198,1,74.5199974984132,2|0,1:0|1:0,0:0:0:0:
133,282,84782,2,2,L|206:295,1,74.5199974984132,10|2,1:0|1:0,0:0:0:0:
221,306,85026,1,0,0:0:0:0:
222,309,85107,1,10,1:1:0:0:
73,356,85269,1,2,1:0:0:0:
123,208,85431,6,2,P|127:248|138:303,1,74.5199974984132,8|0,1:1|1:0,0:0:0:0:
39,158,85755,2,2,P|46:118|52:81,1,74.5199974984132,8|0,1:1|1:0,0:0:0:0:
263,208,86080,1,2,1:2:0:0:
263,208,86404,6,0,B|223:183|223:183|95:237,1,165.240001008545,2|8,0:0|0:3,0:0:0:0:
